Changes between Initial Version and Version 1 of Ticket #2400, comment 2


Ignore:
Timestamp:
Mar 25, 2013, 8:28:30 PM (4 years ago)
Author:
cehoyos
Comment:

Legend:

Unmodified
Added
Removed
Modified
  • Ticket #2400, comment 2

    initial v1  
    22 
    33same problem with the internal codec. 
    4  
     4{{{ 
    55C:\Conversion>ffmpeg -i aaa.mp4 -i bbb.mp4 -vcodec mpeg4 -strict -2 -acodec aac 
    66test.mp4 
    77ffmpeg version N-51211-ge0e8c20 Copyright (c) 2000-2013 the FFmpeg developers 
    88  built on Mar 22 2013 08:56:38 with gcc 4.7.2 (GCC) 
    9   configuration: --enable-gpl --enable-version3 --disable-w32threads --enable-av 
    10 isynth --enable-bzlib --enable-fontconfig --enable-frei0r --enable-gnutls --enab 
    11 le-libass --enable-libbluray --enable-libcaca --enable-libfreetype --enable-libg 
    12 sm --enable-libilbc --enable-libmp3lame --enable-libopencore-amrnb --enable-libo 
    13 pencore-amrwb --enable-libopenjpeg --enable-libopus --enable-librtmp --enable-li 
    14 bschroedinger --enable-libsoxr --enable-libspeex --enable-libtheora --enable-lib 
    15 twolame --enable-libvo-aacenc --enable-libvo-amrwbenc --enable-libvorbis --enabl 
    16 e-libvpx --enable-libx264 --enable-libxavs --enable-libxvid --enable-zlib 
     9  configuration: --enable-gpl --enable-version3 --disable-w32threads --enable-avisynth --enable-bzlib --enable-fontconfig --enable-frei0r --enable-gnutls --enable-libass --enable-libbluray --enable-libcaca --enable-libfreetype --enable-libgsm --enable-libilbc --enable-libmp3lame --enable-libopencore-amrnb --enable-ibopencore-amrwb --enable-libopenjpeg --enable-libopus --enable-librtmp --enable-ibschroedinger --enable-libsoxr --enable-libspeex --enable-libtheora --enable-libtwolame --enable-libvo-aacenc --enable-libvo-amrwbenc --enable-libvorbis --enable-libvpx --enable-libx264 --enable-libxavs --enable-libxvid --enable-zlib 
    1710  libavutil      52. 22.101 / 52. 22.101 
    1811  libavcodec     55.  1.100 / 55.  1.100 
     
    3023    encoder         : Lavf54.59.102 
    3124  Duration: 00:00:08.71, start: 0.000000, bitrate: 245 kb/s 
    32     Stream #0:0(und): Video: h264 (High) (avc1 / 0x31637661), yuv420p, 1366x768, 
    33  241 kb/s, 29.97 fps, 29.97 tbr, 30k tbn, 59.94 tbc 
     25    Stream #0:0(und): Video: h264 (High) (avc1 / 0x31637661), yuv420p, 1366x768, 241 kb/s, 29.97 fps, 29.97 tbr, 30k tbn, 59.94 tbc 
    3426    Metadata: 
    3527      handler_name    : VideoHandler 
     
    4133    encoder         : Lavf54.59.102 
    4234  Duration: 00:00:00.13, start: 0.023220, bitrate: 9029 kb/s 
    43     Stream #1:0(und): Audio: aac (mp4a / 0x6134706D), 44100 Hz, stereo, fltp, 89 
    44 40 kb/s 
     35    Stream #1:0(und): Audio: aac (mp4a / 0x6134706D), 44100 Hz, stereo, fltp, 8940 kb/s 
    4536    Metadata: 
    4637      handler_name    : SoundHandler 
     
    5243    compatible_brands: isomiso2avc1mp41 
    5344    encoder         : Lavf55.0.100 
    54     Stream #0:0(und): Video: mpeg4 ( [0][0][0] / 0x0020), yuv420p, 1366x768, q=2 
    55 -31, 200 kb/s, 30k tbn, 29.97 tbc 
     45    Stream #0:0(und): Video: mpeg4 ( [0][0][0] / 0x0020), yuv420p, 1366x768, q=2-31, 200 kb/s, 30k tbn, 29.97 tbc 
    5646    Metadata: 
    5747      handler_name    : VideoHandler 
    58     Stream #0:1(und): Audio: aac ([64][0][0][0] / 0x0040), 44100 Hz, stereo, flt 
    59 p, 128 kb/s 
     48    Stream #0:1(und): Audio: aac ([64][0][0][0] / 0x0040), 44100 Hz, stereo, fltp, 128 kb/s 
    6049    Metadata: 
    6150      handler_name    : SoundHandler 
     
    6554Press [q] to stop, [?] for help 
    6655frame=   10 fps=0.0 q=6.2 size=     343kB time=00:00:00.33 bitrate=8410.3kbits/s 
    67 frame=   93 fps= 93 q=31.0 size=     343kB time=00:00:03.10 bitrate= 904.3kbits/ 
    68 frame=  180 fps=120 q=31.0 size=     343kB time=00:00:06.00 bitrate= 467.2kbits/ 
    69 frame=  261 fps=130 q=31.0 Lsize=    1986kB time=00:00:08.70 bitrate=1868.6kbits 
    70 /s 
     56frame=   93 fps= 93 q=31.0 size=     343kB time=00:00:03.10 bitrate= 904.3kbits/s 
     57frame=  180 fps=120 q=31.0 size=     343kB time=00:00:06.00 bitrate= 467.2kbits/s 
     58frame=  261 fps=130 q=31.0 Lsize=    1986kB time=00:00:08.70 bitrate=1868.6kbits/s 
    7159video:1859kB audio:124kB subtitle:0 global headers:0kB muxing overhead 0.196587% 
    72  
     60}}}