Changes between Initial Version and Version 1 of Ticket #2278, comment 3


Ignore:
Timestamp:
Feb 18, 2013, 2:11:01 PM (3 years ago)
Author:
feelart
Comment:

Legend:

Unmodified
Added
Removed
Modified
  • Ticket #2278, comment 3

    initial v1  
    11Oups, apparently behaviour changed between ID3v1 and ID3v2 
     2 
     3Under Windows Explorer, metatags appear when encoded with FFmpeg 0.8, while not with FFmpeg 1.1 
     4 
     5But 
     6{{{ 
     7ffmpeg -i test.mp3 -af volumedetect -f null - 
     8}}} 
     9 
     10 
     11{{{ 
     12 
     13C:\PortableApps\MM\Audio\mp3gain-win-1_3_4\bug>ffmpeg -i test.mp3 -af volumedetect -f null - 
     14ffmpeg version N-50025-gb8bb661 Copyright (c) 2000-2013 the FFmpeg developers 
     15  built on Feb 17 2013 02:44:12 with gcc 4.7.2 (GCC) 
     16  configuration: --enable-gpl --enable-version3 --disable-w32threads --enable-avisynth --enable-bzlib --enable-fontconfig --enable-frei0r --enable-gnutls --enable-libass --enable-libbluray --enable-libcaca --enable-libfreetype --enable-libgsm --enable-lib 
     17mp3lame --enable-libopencore-amrnb --enable-libopencore-amrwb --enable-libopenjpeg --enable-libopus --enable-librtmp --enable-libschroedinger --enable-libsoxr --enable-libspeex --enable-libtheora --enable-libtwolame --enable-libvo-aacenc --enable-libvo-am 
     18rwbenc --enable-libvorbis --enable-libvpx --enable-libx264 --enable-libxavs --enable-libxvid --enable-zlib 
     19  libavutil      52. 17.101 / 52. 17.101 
     20  libavcodec     54. 91.103 / 54. 91.103 
     21  libavformat    54. 63.100 / 54. 63.100 
     22  libavdevice    54.  3.103 / 54.  3.103 
     23  libavfilter     3. 38.100 /  3. 38.100 
     24  libswscale      2.  2.100 /  2.  2.100 
     25  libswresample   0. 17.102 /  0. 17.102 
     26  libpostproc    52.  2.100 / 52.  2.100 
     27Input #0, mp3, from 'test.mp3': 
     28  Metadata: 
     29    album           : test 
     30    artist          : Russian-ðæð▒ðôð│ðöð┤ðûðÂðÖð╣ 
     31    artiste         : Spanish ├¡├│├▒ 
     32    genre           : Blues 
     33    title           : French accent-├á├®├¿├½├¬i├«├»├┤├╣├╗├º 
     34    encoder         : Lavf54.63.100 
     35  Duration: 00:00:04.23, start: 0.000000, bitrate: 129 kb/s 
     36    Stream #0:0: Audio: mp3, 44100 Hz, mono, s16p, 128 kb/s 
     37Output #0, null, to 'pipe:': 
     38  Metadata: 
     39    album           : test 
     40    artist          : Russian-ðæð▒ðôð│ðöð┤ðûðÂðÖð╣ 
     41    artiste         : Spanish ├¡├│├▒ 
     42    genre           : Blues 
     43    title           : French accent-├á├®├¿├½├¬i├«├»├┤├╣├╗├º 
     44    encoder         : Lavf54.63.100 
     45    Stream #0:0: Audio: pcm_s16le, 44100 Hz, mono, s16, 705 kb/s 
     46Stream mapping: 
     47  Stream #0:0 -> #0:0 (mp3 -> pcm_s16le) 
     48Press [q] to stop, [?] for help 
     49size=N/A time=00:00:04.23 bitrate=N/A 
     50video:0kB audio:363kB subtitle:0 global headers:0kB muxing overhead -100.005911% 
     51[Parsed_volumedetect_0 @ 0000000000334de0] n_samples: 186095 
     52[Parsed_volumedetect_0 @ 0000000000334de0] mean_volume: -12.7 dB 
     53[Parsed_volumedetect_0 @ 0000000000334de0] max_volume: -1.2 dB 
     54[Parsed_volumedetect_0 @ 0000000000334de0] histogram_1db: 82 
     55[Parsed_volumedetect_0 @ 0000000000334de0] histogram_2db: 268 
     56 
     57C:\PortableApps\MM\Audio\mp3gain-win-1_3_4\bug> 
     58}}}