Opened 5 years ago

Closed 5 years ago

#2204 closed defect (fixed)

png: vertical black bar at the right side with odd-sized 1bpp

Reported by: ami_stuff Owned by:
Priority: normal Component: avcodec
Version: git-master Keywords: png
Cc: Blocked By:
Blocking: Reproduced by developer: yes
Analyzed by developer: no

Description

(see also #1146)

C:\>ffmpeg -i 1bpp.png out.bmp
ffmpeg version N-49268-ge9d443c Copyright (c) 2000-2013 the FFmpeg developers
  built on Jan 24 2013 23:27:01 with gcc 4.7.2 (GCC)
  configuration: --enable-gpl --enable-version3 --disable-w32threads --enable-av
isynth --enable-bzlib --enable-fontconfig --enable-frei0r --enable-gnutls --enab
le-libass --enable-libbluray --enable-libcaca --enable-libfreetype --enable-libg
sm --enable-libmp3lame --enable-libopencore-amrnb --enable-libopencore-amrwb --e
nable-libopenjpeg --enable-libopus --enable-librtmp --enable-libschroedinger --e
nable-libspeex --enable-libtheora --enable-libtwolame --enable-libvo-aacenc --en
able-libvo-amrwbenc --enable-libvorbis --enable-libvpx --enable-libx264 --enable
-libxavs --enable-libxvid --enable-zlib
  libavutil      52. 15.103 / 52. 15.103
  libavcodec     54. 90.100 / 54. 90.100
  libavformat    54. 61.104 / 54. 61.104
  libavdevice    54.  3.102 / 54.  3.102
  libavfilter     3. 33.100 /  3. 33.100
  libswscale      2.  2.100 /  2.  2.100
  libswresample   0. 17.102 /  0. 17.102
  libpostproc    52.  2.100 / 52.  2.100
Input #0, image2, from '1bpp.png':
  Duration: 00:00:00.04, start: 0.000000, bitrate: N/A
    Stream #0:0: Video: png, pal8, 1023x767 [SAR 3780:3780 DAR 1023:767], 25 tbr
, 25 tbn, 25 tbc
Output #0, image2, to 'out.bmp':
  Metadata:
    encoder         : Lavf54.61.104
    Stream #0:0: Video: bmp, pal8, 1023x767 [SAR 1:1 DAR 1023:767], q=2-31, 200
kb/s, 90k tbn, 25 tbc
Stream mapping:
  Stream #0:0 -> #0:0 (png -> bmp)
Press [q] to stop, [?] for help
frame=    1 fps=0.0 q=0.0 Lsize=N/A time=00:00:00.04 bitrate=N/A
video:768kB audio:0kB subtitle:0 global headers:0kB muxing overhead -100.002797%

Attachments (1)

1bpp.png (34.2 KB) - added by ami_stuff 5 years ago.

Download all attachments as: .zip

Change History (3)

Changed 5 years ago by ami_stuff

comment:1 Changed 5 years ago by cehoyos

  • Component changed from undetermined to avcodec
  • Keywords png added
  • Reproduced by developer set
  • Status changed from new to open
  • Version changed from unspecified to git-master

comment:2 Changed 5 years ago by cehoyos

  • Resolution set to fixed
  • Status changed from open to closed

Should be fixed, thank you for the report!

Note: See TracTickets for help on using tickets.