Changes between Initial Version and Version 1 of Ticket #2123


Ignore:
Timestamp:
Jan 8, 2013, 9:07:06 PM (4 years ago)
Author:
cehoyos
Comment:

Regression since ea6da80.

Legend:

Unmodified
Added
Removed
Modified
  • Ticket #2123

    • Property Status changed from new to open
    • Property Component changed from undetermined to avcodec
    • Property Priority changed from normal to important
    • Property Version changed from unspecified to git-master
    • Property Keywords dirac regression added
    • Property Reproduced by developer set
  • Ticket #2123 – Description

    initial v1  
    66 
    77'''The current git shows this:''' 
    8  
     8{{{ 
    99ffmpeg -i dirac_problem.ts 
    1010ffmpeg version N-48610-gb23aff6 Copyright (c) 2000-2013 the FFmpeg developers 
     
    5454    Stream #0:0[0x44]: Video: dirac (drac / 0x63617264), yuv420p, 24 fps, 24 tbr, 90k tbn, 24 tbc 
    5555    Stream #0:1[0x45]: Audio: mp2 ([3][0][0][0] / 0x0003), 48000 Hz, stereo, s16p, 256 kb/s 
    56  
     56}}} 
    5757'''Last Known Working''' 
    58  
     58{{{ 
    5959ffmpeg -i dirac_problem.ts 
    6060ffmpeg version N-47062-g26c531c Copyright (c) 2000-2012 the FFmpeg developers 
     
    8787    Stream #0:1[0x45]: Audio: mp2 ([3][0][0][0] / 0x0003), 48000 Hz, stereo, s16 
    8888, 256 kb/s 
     89}}}