Opened 7 years ago

Closed 7 years ago

#1983 closed defect (invalid)

Conversion to Annex B transport stream clobbers .srt subtitle stream

Reported by: neufeld Owned by:
Priority: normal Component: undetermined
Version: unspecified Keywords:
Cc: Blocked By:
Blocking: Reproduced by developer: no
Analyzed by developer: no

Description

Summary of the bug:
I'm doing some mythtv transcoding scripting. For mythtv to rebuild its seek tables, I need to present it with an Annex B stream. At this point in the script, I have a .mkv file that contains three streams: an h.264 video stream, an ac3 audio stream, and a .srt subtitle stream. After the conversion completes, the audio and video are fine, and the file is a transport stream, but the subtitle stream has been changed to an almost-empty dvbsub stream, and the captions are lost. My version of ffmpeg has been compiled with both encoder and decoder support for SubRip? and Timed SubRip? formats.

How to reproduce:

% ffprobe before-ts.mkv
ffprobe version 1.0 Copyright (c) 2007-2012 the FFmpeg developers
  built on Oct 21 2012 22:33:24 with gcc 4.6.3 (GCC)
  configuration: --prefix=/usr --enable-nonfree --enable-gpl --enable-libtheora --enable-libvorbis --enable-libmp3lame --enable-libx264 --enable-avresample --enable-libfaac --enable-libfreetype --enable-libpulse --enable-libspeex
  libavutil      51. 73.101 / 51. 73.101
  libavcodec     54. 59.100 / 54. 59.100
  libavformat    54. 29.104 / 54. 29.104
  libavdevice    54.  2.101 / 54.  2.101
  libavfilter     3. 17.100 /  3. 17.100
  libswscale      2.  1.101 /  2.  1.101
  libswresample   0. 15.100 /  0. 15.100
  libpostproc    52.  0.100 / 52.  0.100
Input #0, matroska,webm, from 'before-ts.mkv':
  Metadata:
    creation_time   : 2012-11-29 18:23:52
    ENCODER         : Lavf54.29.104
  Duration: 00:42:48.00, start: 0.000000, bitrate: 8646 kb/s
    Stream #0:0: Video: h264 (High), yuv420p, 1920x1080 [SAR 1:1 DAR 16:9], 29.97 fps, 29.97 tbr, 1k tbn, 59.94 tbc (default)
    Stream #0:1: Audio: ac3, 48000 Hz, 5.1(side), s16, 112 kb/s (default)
    Stream #0:2: Subtitle: subrip (default)

% ffmpeg -v 9 -loglevel 99 -i before-ts.mkv -codec copy -scodec copy -bsf:v h264_mp4toannexb -f mpegts converted-to-ts.ts
ffmpeg version 1.0 Copyright (c) 2000-2012 the FFmpeg developers
  built on Oct 21 2012 22:33:24 with gcc 4.6.3 (GCC)
  configuration: --prefix=/usr --enable-nonfree --enable-gpl --enable-libtheora --enable-libvorbis --enable-libmp3lame --enable-libx264 --enable-avresample --enable-libfaac --enable-libfreetype --enable-libpulse --enable-libspeex
  libavutil      51. 73.101 / 51. 73.101
  libavcodec     54. 59.100 / 54. 59.100
  libavformat    54. 29.104 / 54. 29.104
  libavdevice    54.  2.101 / 54.  2.101
  libavfilter     3. 17.100 /  3. 17.100
  libswscale      2.  1.101 /  2.  1.101
  libswresample   0. 15.100 /  0. 15.100
  libpostproc    52.  0.100 / 52.  0.100
[matroska,webm @ 0x1528240] Format matroska,webm probed with size=2048 and score=100                                                                            
st:0 removing common factor 1000000 from timebase                               
st:1 removing common factor 1000000 from timebase                               
st:2 removing common factor 1000000 from timebase                               
[matroska,webm @ 0x1528240] File position before avformat_find_stream_info() is 5674                                                                            
[h264 @ 0x152fb00] no picture                                                   
[matroska,webm @ 0x1528240] All info found                                      
[matroska,webm @ 0x1528240] File position after avformat_find_stream_info() is 163860                                                                           
Input #0, matroska,webm, from 'before-ts.mkv':
  Metadata:
    creation_time   : 2012-11-29 18:23:52
    ENCODER         : Lavf54.29.104
  Duration: 00:42:48.00, start: 0.000000, bitrate: 8646 kb/s
    Stream #0:0, 3, 1/1000: Video: h264 (High), yuv420p, 1920x1080 [SAR 1:1 DAR 16:9], 50/2997, 29.97 fps, 29.97 tbr, 1k tbn, 59.94 tbc (default)
    Stream #0:1, 8, 1/1000: Audio: ac3, 48000 Hz, 5.1(side), s16, 112 kb/s (default)
    Stream #0:2, 0, 1/1000: Subtitle: subrip (default)
[mpegts @ 0x15446c0] muxrate VBR, pcr every 2 pkts, sdt every 200, pat/pmt every 40 pkts
Output #0, mpegts, to 'converted-to-ts.ts':
  Metadata:
    encoder         : Lavf54.29.104
    Stream #0:0, 0, 1/90000: Video: h264, yuv420p, 1920x1080 [SAR 1:1 DAR 16:9], 100/2997, q=2-31, 29.97 fps, 90k tbn, 29.97 tbc (default)
    Stream #0:1, 0, 1/90000: Audio: ac3, 48000 Hz, 5.1(side), 112 kb/s (default)
    Stream #0:2, 0, 1/90000: Subtitle: subrip (default)
Stream mapping:
  Stream #0:0 -> #0:0 (copy)
  Stream #0:1 -> #0:1 (copy)
  Stream #0:2 -> #0:2 (copy)
Press [q] to stop, [?] for help
frame= 1395 fps=0.0 q=-1.0 size=   57985kB time=00:00:46.67 bitrate=10176.6kbits
frame= 2702 fps=2687 q=-1.0 size=  142001kB time=00:01:30.16 bitrate=12901.6kbit
frame= 3410 fps=2264 q=-1.0 size=  186004kB time=00:01:53.84 bitrate=13384.4kbit
frame= 4978 fps=2481 q=-1.0 size=  246007kB time=00:02:46.22 bitrate=12123.6kbit
frame= 6164 fps=2459 q=-1.0 size=  282076kB time=00:03:25.68 bitrate=11234.5kbit
frame= 9328 fps=3102 q=-1.0 size=  438496kB time=00:05:11.25 bitrate=11541.0kbit
frame=13237 fps=3775 q=-1.0 size=  570097kB time=00:07:21.68 bitrate=10573.7kbit
frame=16916 fps=4219 q=-1.0 size=  730984kB time=00:09:24.43 bitrate=10609.2kbit
frame=20197 fps=4477 q=-1.0 size=  828073kB time=00:11:13.90 bitrate=10066.0kbitst:0 PTS: 76242600 DTS: 76242600 < 76363381 invalid, clipping
[mpegts @ 0x15446c0] st:0 PTS: 76243950 DTS: 76243950 < 76370851 invalid, clipping                                                                              
[mpegts @ 0x15446c0] st:0 PTS: 76246830 DTS: 76246830 < 76370852 invalid, clipping                                                                              
[mpegts @ 0x15446c0] st:0 PTS: 76249710 DTS: 76249710 < 76370853 invalid, clipping                                                                              
[mpegts @ 0x15446c0] st:0 PTS: 76252590 DTS: 76252590 < 76370854 invalid, clipping                                                                              
[mpegts @ 0x15446c0] st:0 PTS: 76255470 DTS: 76255470 < 76370855 invalid, clipping                                                                              
[mpegts @ 0x15446c0] st:0 PTS: 76258350 DTS: 76258350 < 76370856 invalid, clipping                                                                              
[mpegts @ 0x15446c0] st:0 PTS: 76261230 DTS: 76261230 < 76370857 invalid, clipping                                                                              
[mpegts @ 0x15446c0] st:0 PTS: 76264110 DTS: 76264110 < 76370858 invalid, clipping                                                                              
[mpegts @ 0x15446c0] st:0 PTS: 76248630 DTS: 76248630 < 76363382 invalid, clipping                                                                              
[mpegts @ 0x15446c0] st:0 PTS: 76245660 DTS: 76245660 < 76363383 invalid, clipping                                                                              
[mpegts @ 0x15446c0] st:0 PTS: 76254660 DTS: 76254660 < 76363384 invalid, clipping                                                                              
[mpegts @ 0x15446c0] st:0 PTS: 76251600 DTS: 76251600 < 76363385 invalid, clipping                                                                              
[mpegts @ 0x15446c0] st:0 PTS: 76260690 DTS: 76260690 < 76363386 invalid, clipping                                                                              
[mpegts @ 0x15446c0] st:0 PTS: 76257630 DTS: 76257630 < 76363387 invalid, clipping                                                                              
[mpegts @ 0x15446c0] st:0 PTS: 76266630 DTS: 76266630 < 76363388 invalid, clipping                                                                              
[mpegts @ 0x15446c0] st:0 PTS: 76263660 DTS: 76263660 < 76363389 invalid, clipping                                                                              
[mpegts @ 0x15446c0] st:0 PTS: 76266990 DTS: 76266990 < 76370859 invalid, clipping                                                                              
[mpegts @ 0x15446c0] st:0 PTS: 76269870 DTS: 76269870 < 76370860 invalid, clipping                                                                              
[mpegts @ 0x15446c0] st:0 PTS: 76272750 DTS: 76272750 < 76370861 invalid, clipping                                                                              
[mpegts @ 0x15446c0] st:0 PTS: 76275630 DTS: 76275630 < 76370862 invalid, clipping                                                                              
[mpegts @ 0x15446c0] st:0 PTS: 76278510 DTS: 76278510 < 76370863 invalid, clipping                                                                              
[mpegts @ 0x15446c0] st:0 PTS: 76272660 DTS: 76272660 < 76363390 invalid, clipping                                                                              
[mpegts @ 0x15446c0] st:0 PTS: 76269690 DTS: 76269690 < 76363391 invalid, clipping                                                                              
[mpegts @ 0x15446c0] st:0 PTS: 76278690 DTS: 76278690 < 76363392 invalid, clipping                                                                              
[mpegts @ 0x15446c0] st:0 PTS: 76275630 DTS: 76275630 < 76363393 invalid, clipping                                                                              
[mpegts @ 0x15446c0] st:0 PTS: 76281390 DTS: 76281390 < 76370864 invalid, clipping                                                                              
[mpegts @ 0x15446c0] st:0 PTS: 76284270 DTS: 76284270 < 76370865 invalid, clipping                                                                              
[mpegts @ 0x15446c0] st:0 PTS: 76287150 DTS: 76287150 < 76370866 invalid, clipping                                                                              
[mpegts @ 0x15446c0] st:0 PTS: 76290030 DTS: 76290030 < 76370867 invalid, clipping                                                                              
[mpegts @ 0x15446c0] st:0 PTS: 76292910 DTS: 76292910 < 76370868 invalid, clipping                                                                              
[mpegts @ 0x15446c0] st:0 PTS: 76295790 DTS: 76295790 < 76370869 invalid, clipping                                                                              
[mpegts @ 0x15446c0] st:0 PTS: 76298670 DTS: 76298670 < 76370870 invalid, clipping                                                                              
[mpegts @ 0x15446c0] st:0 PTS: 76301550 DTS: 76301550 < 76370871 invalid, clipping                                                                              
[mpegts @ 0x15446c0] st:0 PTS: 76287690 DTS: 76287690 < 76363394 invalid, clipping                                                                              
[mpegts @ 0x15446c0] st:0 PTS: 76284720 DTS: 76284720 < 76363395 invalid, clipping                                                                              
[mpegts @ 0x15446c0] st:0 PTS: 76281660 DTS: 76281660 < 76363396 invalid, clipping                                                                              
[mpegts @ 0x15446c0] st:0 PTS: 76293720 DTS: 76293720 < 76363397 invalid, clipping                                                                              
[mpegts @ 0x15446c0] st:0 PTS: 76290660 DTS: 76290660 < 76363398 invalid, clipping                                                                              
[mpegts @ 0x15446c0] st:0 PTS: 76302720 DTS: 76302720 < 76363399 invalid, clipping                                                                              
[mpegts @ 0x15446c0] st:0 PTS: 76299660 DTS: 76299660 < 76363400 invalid, clipping                                                                              
[mpegts @ 0x15446c0] st:0 PTS: 76296690 DTS: 76296690 < 76363401 invalid, clipping                                                                              
[mpegts @ 0x15446c0] st:0 PTS: 76304430 DTS: 76304430 < 76370872 invalid, clipping                                                                              
[mpegts @ 0x15446c0] st:0 PTS: 76307310 DTS: 76307310 < 76370873 invalid, clipping                                                                              
[mpegts @ 0x15446c0] st:0 PTS: 76310190 DTS: 76310190 < 76370874 invalid, clipping                                                                              
[mpegts @ 0x15446c0] st:0 PTS: 76313070 DTS: 76313070 < 76370875 invalid, clipping                                                                              
[mpegts @ 0x15446c0] st:0 PTS: 76315950 DTS: 76315950 < 76370876 invalid, clipping                                                                              
[mpegts @ 0x15446c0] st:0 PTS: 76318830 DTS: 76318830 < 76370877 invalid, clipping                                                                              
[mpegts @ 0x15446c0] st:0 PTS: 76321710 DTS: 76321710 < 76370878 invalid, clipping                                                                              
[mpegts @ 0x15446c0] st:0 PTS: 76308660 DTS: 76308660 < 76363402 invalid, clipping                                                                              
[mpegts @ 0x15446c0] st:0 PTS: 76305690 DTS: 76305690 < 76363403 invalid, clipping                                                                              
[mpegts @ 0x15446c0] st:0 PTS: 76314690 DTS: 76314690 < 76363404 invalid, clipping                                                                              
[mpegts @ 0x15446c0] st:0 PTS: 76311720 DTS: 76311720 < 76363405 invalid, clipping                                                                              
[mpegts @ 0x15446c0] st:0 PTS: 76317750 DTS: 76317750 < 76363406 invalid, clipping                                                                              
[mpegts @ 0x15446c0] st:0 PTS: 76320720 DTS: 76320720 < 76363407 invalid, clipping                                                                              
[mpegts @ 0x15446c0] st:0 PTS: 76323690 DTS: 76323690 < 76363408 invalid, clipping                                                                              
[mpegts @ 0x15446c0] st:0 PTS: 76324590 DTS: 76324590 < 76370879 invalid, clipping                                                                              
[mpegts @ 0x15446c0] st:0 PTS: 76327470 DTS: 76327470 < 76370880 invalid, clipping                                                                              
[mpegts @ 0x15446c0] st:0 PTS: 76330350 DTS: 76330350 < 76370881 invalid, clipping                                                                              
[mpegts @ 0x15446c0] st:0 PTS: 76333230 DTS: 76333230 < 76370882 invalid, clipping                                                                              
[mpegts @ 0x15446c0] st:0 PTS: 76336110 DTS: 76336110 < 76370883 invalid, clipping                                                                              
[mpegts @ 0x15446c0] st:0 PTS: 76338990 DTS: 76338990 < 76370884 invalid, clipping                                                                              
[mpegts @ 0x15446c0] st:0 PTS: 76341870 DTS: 76341870 < 76370885 invalid, clipping                                                                              
[mpegts @ 0x15446c0] st:0 PTS: 76344750 DTS: 76344750 < 76370886 invalid, clipping                                                                              
[mpegts @ 0x15446c0] st:0 PTS: 76335750 DTS: 76335750 < 76363409 invalid, clipping                                                                              
[mpegts @ 0x15446c0] st:0 PTS: 76329720 DTS: 76329720 < 76363410 invalid, clipping                                                                              
[mpegts @ 0x15446c0] st:0 PTS: 76326750 DTS: 76326750 < 76363411 invalid, clipping                                                                              
[mpegts @ 0x15446c0] st:0 PTS: 76332690 DTS: 76332690 < 76363412 invalid, clipping                                                                              
[mpegts @ 0x15446c0] st:0 PTS: 76347630 DTS: 76347630 < 76370887 invalid, clipping                                                                              
[mpegts @ 0x15446c0] st:0 PTS: 76350510 DTS: 76350510 < 76370888 invalid, clipping                                                                              
[mpegts @ 0x15446c0] st:0 PTS: 76353390 DTS: 76353390 < 76370889 invalid, clipping                                                                              
[mpegts @ 0x15446c0] st:0 PTS: 76356270 DTS: 76356270 < 76370890 invalid, clipping                                                                              
[mpegts @ 0x15446c0] st:0 PTS: 76359150 DTS: 76359150 < 76370891 invalid, clipping                                                                              
[mpegts @ 0x15446c0] st:0 PTS: 76362030 DTS: 76362030 < 76370892 invalid, clipping                                                                              
[mpegts @ 0x15446c0] st:0 PTS: 76364910 DTS: 76364910 < 76370893 invalid, clipping                                                                              
[mpegts @ 0x15446c0] st:0 PTS: 76367790 DTS: 76367790 < 76370894 invalid, clipping                                                                              
[mpegts @ 0x15446c0] st:0 PTS: 76347720 DTS: 76347720 < 76363413 invalid, clipping                                                                              
[mpegts @ 0x15446c0] st:0 PTS: 76341690 DTS: 76341690 < 76363414 invalid, clipping                                                                              
[mpegts @ 0x15446c0] st:0 PTS: 76338720 DTS: 76338720 < 76363415 invalid, clipping                                                                              
[mpegts @ 0x15446c0] st:0 PTS: 76344750 DTS: 76344750 < 76363416 invalid, clipping                                                                              
[mpegts @ 0x15446c0] st:0 PTS: 76359780 DTS: 76359780 < 76363417 invalid, clipping                                                                              
[mpegts @ 0x15446c0] st:0 PTS: 76353750 DTS: 76353750 < 76363418 invalid, clipping                                                                              
[mpegts @ 0x15446c0] st:0 PTS: 76350780 DTS: 76350780 < 76363419 invalid, clipping                                                                              
[mpegts @ 0x15446c0] st:0 PTS: 76356720 DTS: 76356720 < 76363420 invalid, clipping                                                                              
[mpegts @ 0x15446c0] st:0 PTS: 76370670 DTS: 76370670 < 76370895 invalid, clipping                                                                              
[mpegts @ 0x15446c0] st:0 PTS: 76365720 DTS: 76365720 < 76366351 invalid, clipping                                                                              
[mpegts @ 0x15446c0] st:0 PTS: 76362750 DTS: 76362750 < 76366352 invalid, clipping                                                                              
frame=25480 fps=5072 q=-1.0 size= 1021354kB time=00:14:08.85 bitrate=9856.8kbits
frame=25671 fps=2494 q=-1.0 size= 1027502kB time=00:14:15.28 bitrate=9841.5kbits
frame=25946 fps=1837 q=-1.0 size= 1032290kB time=00:14:24.30 bitrate=9784.2kbits
frame=26436 fps=1655 q=-1.0 size= 1059886kB time=00:14:40.78 bitrate=9857.8kbits
frame=26469 fps=1449 q=-1.0 size= 1059886kB time=00:14:41.74 bitrate=9847.0kbits
frame=26727 fps=1307 q=-1.0 size= 1067133kB time=00:14:50.32 bitrate=9818.9kbits
frame=26741 fps=1168 q=-1.0 size= 1069499kB time=00:14:50.83 bitrate=9835.0kbits
frame=27280 fps=1098 q=-1.0 size= 1086011kB time=00:15:08.78 bitrate=9789.5kbits
frame=27285 fps=1000 q=-1.0 size= 1086011kB time=00:15:09.04 bitrate=9786.8kbits
frame=27323 fps=913 q=-1.0 size= 1086011kB time=00:15:10.38 bitrate=9772.3kbits/
frame=27350 fps=853 q=-1.0 size= 1086011kB time=00:15:11.12 bitrate=9764.4kbits/
frame=27365 fps=802 q=-1.0 size= 1089105kB time=00:15:11.89 bitrate=9784.0kbits/
frame=28227 fps=803 q=-1.0 size= 1108585kB time=00:15:40.43 bitrate=9656.7kbits/
frame=28250 fps=751 q=-1.0 size= 1114695kB time=00:15:41.23 bitrate=9701.7kbits/
frame=30257 fps=788 q=-1.0 size= 1181712kB time=00:16:48.24 bitrate=9601.4kbits/
frame=35354 fps=909 q=-1.0 size= 1340390kB time=00:19:38.41 bitrate=9318.0kbits/flushing with 1 noninterleaved
[mpegts @ 0x15446c0] flushing with 1 noninterleaved                             
    Last message repeated 296 times
[mpegts @ 0x15446c0] st:0 PTS: 111095010 DTS: 111095010 < 111125521 invalid, clipping                                                                           
[mpegts @ 0x15446c0] st:0 PTS: 111095910 DTS: 111095910 < 111132271 invalid, clipping                                                                           
[mpegts @ 0x15446c0] st:0 PTS: 111098790 DTS: 111098790 < 111132272 invalid, clipping                                                                           
[mpegts @ 0x15446c0] st:0 PTS: 111101670 DTS: 111101670 < 111132273 invalid, clipping                                                                           
[mpegts @ 0x15446c0] st:0 PTS: 111104550 DTS: 111104550 < 111132274 invalid, clipping                                                                           
[mpegts @ 0x15446c0] st:0 PTS: 111107430 DTS: 111107430 < 111132275 invalid, clipping                                                                           
[mpegts @ 0x15446c0] st:0 PTS: 111110310 DTS: 111110310 < 111132276 invalid, clipping                                                                           
[mpegts @ 0x15446c0] st:0 PTS: 111113190 DTS: 111113190 < 111132277 invalid, clipping                                                                           
[mpegts @ 0x15446c0] st:0 PTS: 111116070 DTS: 111116070 < 111132278 invalid, clipping                                                                           
[mpegts @ 0x15446c0] st:0 PTS: 111097980 DTS: 111097980 < 111125522 invalid, clipping                                                                           
[mpegts @ 0x15446c0] st:0 PTS: 111104010 DTS: 111104010 < 111125523 invalid, clipping                                                                           
[mpegts @ 0x15446c0] st:0 PTS: 111101040 DTS: 111101040 < 111125524 invalid, clipping                                                                           
[mpegts @ 0x15446c0] st:0 PTS: 111110040 DTS: 111110040 < 111125525 invalid, clipping                                                                           
[mpegts @ 0x15446c0] st:0 PTS: 111106980 DTS: 111106980 < 111125526 invalid, clipping                                                                           
[mpegts @ 0x15446c0] st:0 PTS: 111115980 DTS: 111115980 < 111125527 invalid, clipping                                                                           
[mpegts @ 0x15446c0] st:0 PTS: 111113010 DTS: 111113010 < 111125528 invalid, clipping                                                                           
[mpegts @ 0x15446c0] st:0 PTS: 111118950 DTS: 111118950 < 111132279 invalid, clipping                                                                           
[mpegts @ 0x15446c0] st:0 PTS: 111121830 DTS: 111121830 < 111132280 invalid, clipping                                                                           
[mpegts @ 0x15446c0] st:0 PTS: 111124710 DTS: 111124710 < 111132281 invalid, clipping                                                                           
[mpegts @ 0x15446c0] st:0 PTS: 111127590 DTS: 111127590 < 111132282 invalid, clipping                                                                           
[mpegts @ 0x15446c0] st:0 PTS: 111130470 DTS: 111130470 < 111132283 invalid, clipping                                                                           
[mpegts @ 0x15446c0] st:0 PTS: 111119040 DTS: 111119040 < 111125529 invalid, clipping                                                                           
[mpegts @ 0x15446c0] st:0 PTS: 111125070 DTS: 111125070 < 111125530 invalid, clipping                                                                           
[mpegts @ 0x15446c0] st:0 PTS: 111122010 DTS: 111122010 < 111125531 invalid, clipping                                                                           
[mpegts @ 0x15446c0] st:0 PTS: 111128040 DTS: 111128040 < 111131011 invalid, clipping                                                                           
frame=39688 fps=1007 q=-1.0 size= 1500705kB time=00:22:02.43 bitrate=9296.3kbits
frame=42913 fps=1075 q=-1.0 size= 1650078kB time=00:23:50.07 bitrate=9452.2kbits
frame=45073 fps=1059 q=-1.0 size= 1759211kB time=00:25:02.20 bitrate=9593.5kbits
frame=45401 fps=998 q=-1.0 size= 1769083kB time=00:25:13.05 bitrate=9578.2kbits/
frame=45416 fps=942 q=-1.0 size= 1769083kB time=00:25:13.47 bitrate=9575.6kbits/
frame=46115 fps=912 q=-1.0 size= 1794489kB time=00:25:36.83 bitrate=9565.4kbits/
frame=46549 fps=885 q=-1.0 size= 1813354kB time=00:25:51.42 bitrate=9575.1kbits/
frame=46569 fps=856 q=-1.0 size= 1818003kB time=00:25:52.03 bitrate=9595.9kbits/
frame=46582 fps=821 q=-1.0 size= 1818003kB time=00:25:52.54 bitrate=9592.7kbits/
frame=46587 fps=794 q=-1.0 size= 1818003kB time=00:25:52.54 bitrate=9592.7kbits/
frame=46643 fps=787 q=-1.0 size= 1823245kB time=00:25:54.62 bitrate=9607.5kbits/
frame=46714 fps=770 q=-1.0 size= 1826185kB time=00:25:56.83 bitrate=9609.3kbits/
frame=46755 fps=761 q=-1.0 size= 1828597kB time=00:25:58.23 bitrate=9613.3kbits/
frame=51164 fps=826 q=-1.0 size= 2022998kB time=00:28:25.37 bitrate=9717.8kbits/
frame=54805 fps=878 q=-1.0 size= 2219637kB time=00:30:26.97 bitrate=9952.7kbits/st:0 PTS: 179475300 DTS: 179475300 < 179728021 invalid, clipping
[mpegts @ 0x15446c0] st:0 PTS: 179476470 DTS: 179476470 < 179734591 invalid, clipping                                                                           
[mpegts @ 0x15446c0] st:0 PTS: 179479350 DTS: 179479350 < 179734592 invalid, clipping                                                                           
[mpegts @ 0x15446c0] st:0 PTS: 179482230 DTS: 179482230 < 179734593 invalid, clipping                                                                           
[mpegts @ 0x15446c0] st:0 PTS: 179485110 DTS: 179485110 < 179734594 invalid, clipping                                                                           
[mpegts @ 0x15446c0] st:0 PTS: 179487990 DTS: 179487990 < 179734595 invalid, clipping                                                                           
[mpegts @ 0x15446c0] st:0 PTS: 179490870 DTS: 179490870 < 179734596 invalid, clipping                                                                           
[mpegts @ 0x15446c0] st:0 PTS: 179493750 DTS: 179493750 < 179734597 invalid, clipping                                                                           
[mpegts @ 0x15446c0] st:0 PTS: 179496630 DTS: 179496630 < 179734598 invalid, clipping                                                                           
[mpegts @ 0x15446c0] st:0 PTS: 179478270 DTS: 179478270 < 179728022 invalid, clipping                                                                           
[mpegts @ 0x15446c0] st:0 PTS: 179481330 DTS: 179481330 < 179728023 invalid, clipping                                                                           
[mpegts @ 0x15446c0] st:0 PTS: 179484300 DTS: 179484300 < 179728024 invalid, clipping                                                                           
[mpegts @ 0x15446c0] st:0 PTS: 179487360 DTS: 179487360 < 179728025 invalid, clipping                                                                           
[mpegts @ 0x15446c0] st:0 PTS: 179493300 DTS: 179493300 < 179728026 invalid, clipping                                                                           
[mpegts @ 0x15446c0] st:0 PTS: 179490330 DTS: 179490330 < 179728027 invalid, clipping                                                                           
[mpegts @ 0x15446c0] st:0 PTS: 179496360 DTS: 179496360 < 179728028 invalid, clipping                                                                           
[mpegts @ 0x15446c0] st:0 PTS: 179499510 DTS: 179499510 < 179734599 invalid, clipping                                                                           
[mpegts @ 0x15446c0] st:0 PTS: 179502390 DTS: 179502390 < 179734600 invalid, clipping                                                                           
[mpegts @ 0x15446c0] st:0 PTS: 179505270 DTS: 179505270 < 179734601 invalid, clipping                                                                           
[mpegts @ 0x15446c0] st:0 PTS: 179508150 DTS: 179508150 < 179734602 invalid, clipping                                                                           
[mpegts @ 0x15446c0] st:0 PTS: 179511030 DTS: 179511030 < 179734603 invalid, clipping                                                                           
[mpegts @ 0x15446c0] st:0 PTS: 179513910 DTS: 179513910 < 179734604 invalid, clipping                                                                           
[mpegts @ 0x15446c0] st:0 PTS: 179516790 DTS: 179516790 < 179734605 invalid, clipping                                                                           
[mpegts @ 0x15446c0] st:0 PTS: 179519670 DTS: 179519670 < 179734606 invalid, clipping                                                                           
[mpegts @ 0x15446c0] st:0 PTS: 179502300 DTS: 179502300 < 179728029 invalid, clipping                                                                           
[mpegts @ 0x15446c0] st:0 PTS: 179499330 DTS: 179499330 < 179728030 invalid, clipping                                                                           
[mpegts @ 0x15446c0] st:0 PTS: 179511390 DTS: 179511390 < 179728031 invalid, clipping                                                                           
[mpegts @ 0x15446c0] st:0 PTS: 179508330 DTS: 179508330 < 179728032 invalid, clipping                                                                           
[mpegts @ 0x15446c0] st:0 PTS: 179505360 DTS: 179505360 < 179728033 invalid, clipping                                                                           
[mpegts @ 0x15446c0] st:0 PTS: 179522550 DTS: 179522550 < 179734607 invalid, clipping                                                                           
[mpegts @ 0x15446c0] st:0 PTS: 179525430 DTS: 179525430 < 179734608 invalid, clipping                                                                           
[mpegts @ 0x15446c0] st:0 PTS: 179528310 DTS: 179528310 < 179734609 invalid, clipping                                                                           
[mpegts @ 0x15446c0] st:0 PTS: 179531190 DTS: 179531190 < 179734610 invalid, clipping                                                                           
[mpegts @ 0x15446c0] st:0 PTS: 179534070 DTS: 179534070 < 179734611 invalid, clipping                                                                           
[mpegts @ 0x15446c0] st:0 PTS: 179536950 DTS: 179536950 < 179734612 invalid, clipping                                                                           
[mpegts @ 0x15446c0] st:0 PTS: 179539830 DTS: 179539830 < 179734613 invalid, clipping                                                                           
[mpegts @ 0x15446c0] st:0 PTS: 179542710 DTS: 179542710 < 179734614 invalid, clipping                                                                           
[mpegts @ 0x15446c0] st:0 PTS: 179523360 DTS: 179523360 < 179728034 invalid, clipping                                                                           
[mpegts @ 0x15446c0] st:0 PTS: 179517330 DTS: 179517330 < 179728035 invalid, clipping                                                                           
[mpegts @ 0x15446c0] st:0 PTS: 179514360 DTS: 179514360 < 179728036 invalid, clipping                                                                           
[mpegts @ 0x15446c0] st:0 PTS: 179520390 DTS: 179520390 < 179728037 invalid, clipping                                                                           
[mpegts @ 0x15446c0] st:0 PTS: 179535330 DTS: 179535330 < 179728038 invalid, clipping                                                                           
[mpegts @ 0x15446c0] st:0 PTS: 179529390 DTS: 179529390 < 179728039 invalid, clipping                                                                           
[mpegts @ 0x15446c0] st:0 PTS: 179526330 DTS: 179526330 < 179728040 invalid, clipping                                                                           
[mpegts @ 0x15446c0] st:0 PTS: 179532360 DTS: 179532360 < 179728041 invalid, clipping                                                                           
[mpegts @ 0x15446c0] st:0 PTS: 179545590 DTS: 179545590 < 179734615 invalid, clipping                                                                           
[mpegts @ 0x15446c0] st:0 PTS: 179547390 DTS: 179547390 < 179728042 invalid, clipping                                                                           
[mpegts @ 0x15446c0] st:0 PTS: 179541360 DTS: 179541360 < 179728043 invalid, clipping                                                                           
[mpegts @ 0x15446c0] st:0 PTS: 179538390 DTS: 179538390 < 179728044 invalid, clipping                                                                           
[mpegts @ 0x15446c0] st:0 PTS: 179544420 DTS: 179544420 < 179728045 invalid, clipping                                                                           
[mpegts @ 0x15446c0] st:0 PTS: 179548470 DTS: 179548470 < 179734616 invalid, clipping                                                                           
[mpegts @ 0x15446c0] st:0 PTS: 179551350 DTS: 179551350 < 179734617 invalid, clipping                                                                           
[mpegts @ 0x15446c0] st:0 PTS: 179554230 DTS: 179554230 < 179734618 invalid, clipping                                                                           
[mpegts @ 0x15446c0] st:0 PTS: 179557110 DTS: 179557110 < 179734619 invalid, clipping                                                                           
[mpegts @ 0x15446c0] st:0 PTS: 179559990 DTS: 179559990 < 179734620 invalid, clipping                                                                           
[mpegts @ 0x15446c0] st:0 PTS: 179562870 DTS: 179562870 < 179734621 invalid, clipping                                                                           
[mpegts @ 0x15446c0] st:0 PTS: 179565750 DTS: 179565750 < 179734622 invalid, clipping                                                                           
[mpegts @ 0x15446c0] st:0 PTS: 179559360 DTS: 179559360 < 179728046 invalid, clipping                                                                           
[mpegts @ 0x15446c0] st:0 PTS: 179553420 DTS: 179553420 < 179728047 invalid, clipping                                                                           
[mpegts @ 0x15446c0] st:0 PTS: 179550360 DTS: 179550360 < 179728048 invalid, clipping                                                                           
[mpegts @ 0x15446c0] st:0 PTS: 179556390 DTS: 179556390 < 179728049 invalid, clipping                                                                           
[mpegts @ 0x15446c0] st:0 PTS: 179565390 DTS: 179565390 < 179728050 invalid, clipping                                                                           
[mpegts @ 0x15446c0] st:0 PTS: 179562420 DTS: 179562420 < 179728051 invalid, clipping                                                                           
[mpegts @ 0x15446c0] st:0 PTS: 179568360 DTS: 179568360 < 179728052 invalid, clipping                                                                           
[mpegts @ 0x15446c0] st:0 PTS: 179568630 DTS: 179568630 < 179734623 invalid, clipping                                                                           
[mpegts @ 0x15446c0] st:0 PTS: 179571510 DTS: 179571510 < 179734624 invalid, clipping                                                                           
[mpegts @ 0x15446c0] st:0 PTS: 179574390 DTS: 179574390 < 179734625 invalid, clipping                                                                           
[mpegts @ 0x15446c0] st:0 PTS: 179577270 DTS: 179577270 < 179734626 invalid, clipping                                                                           
[mpegts @ 0x15446c0] st:0 PTS: 179580150 DTS: 179580150 < 179734627 invalid, clipping                                                                           
[mpegts @ 0x15446c0] st:0 PTS: 179583030 DTS: 179583030 < 179734628 invalid, clipping                                                                           
[mpegts @ 0x15446c0] st:0 PTS: 179585910 DTS: 179585910 < 179734629 invalid, clipping                                                                           
[mpegts @ 0x15446c0] st:0 PTS: 179588790 DTS: 179588790 < 179734630 invalid, clipping                                                                           
[mpegts @ 0x15446c0] st:0 PTS: 179580420 DTS: 179580420 < 179728053 invalid, clipping                                                                           
[mpegts @ 0x15446c0] st:0 PTS: 179574390 DTS: 179574390 < 179728054 invalid, clipping                                                                           
[mpegts @ 0x15446c0] st:0 PTS: 179571420 DTS: 179571420 < 179728055 invalid, clipping                                                                           
[mpegts @ 0x15446c0] st:0 PTS: 179577450 DTS: 179577450 < 179728056 invalid, clipping                                                                           
[mpegts @ 0x15446c0] st:0 PTS: 179591670 DTS: 179591670 < 179734631 invalid, clipping                                                                           
[mpegts @ 0x15446c0] st:0 PTS: 179594550 DTS: 179594550 < 179734632 invalid, clipping                                                                           
[mpegts @ 0x15446c0] st:0 PTS: 179597430 DTS: 179597430 < 179734633 invalid, clipping                                                                           
[mpegts @ 0x15446c0] st:0 PTS: 179600310 DTS: 179600310 < 179734634 invalid, clipping                                                                           
[mpegts @ 0x15446c0] st:0 PTS: 179603190 DTS: 179603190 < 179734635 invalid, clipping                                                                           
[mpegts @ 0x15446c0] st:0 PTS: 179606070 DTS: 179606070 < 179734636 invalid, clipping                                                                           
[mpegts @ 0x15446c0] st:0 PTS: 179608950 DTS: 179608950 < 179734637 invalid, clipping                                                                           
[mpegts @ 0x15446c0] st:0 PTS: 179611830 DTS: 179611830 < 179734638 invalid, clipping                                                                           
[mpegts @ 0x15446c0] st:0 PTS: 179592390 DTS: 179592390 < 179728057 invalid, clipping                                                                           
[mpegts @ 0x15446c0] st:0 PTS: 179586450 DTS: 179586450 < 179728058 invalid, clipping                                                                           
[mpegts @ 0x15446c0] st:0 PTS: 179583390 DTS: 179583390 < 179728059 invalid, clipping                                                                           
[mpegts @ 0x15446c0] st:0 PTS: 179589420 DTS: 179589420 < 179728060 invalid, clipping                                                                           
[mpegts @ 0x15446c0] st:0 PTS: 179604450 DTS: 179604450 < 179728061 invalid, clipping                                                                           
[mpegts @ 0x15446c0] st:0 PTS: 179598420 DTS: 179598420 < 179728062 invalid, clipping                                                                           
[mpegts @ 0x15446c0] st:0 PTS: 179595450 DTS: 179595450 < 179728063 invalid, clipping                                                                           
[mpegts @ 0x15446c0] st:0 PTS: 179601480 DTS: 179601480 < 179728064 invalid, clipping                                                                           
[mpegts @ 0x15446c0] st:0 PTS: 179614710 DTS: 179614710 < 179734639 invalid, clipping                                                                           
[mpegts @ 0x15446c0] st:0 PTS: 179617590 DTS: 179617590 < 179734640 invalid, clipping                                                                           
[mpegts @ 0x15446c0] st:0 PTS: 179620470 DTS: 179620470 < 179734641 invalid, clipping                                                                           
[mpegts @ 0x15446c0] st:0 PTS: 179623350 DTS: 179623350 < 179734642 invalid, clipping                                                                           
[mpegts @ 0x15446c0] st:0 PTS: 179626230 DTS: 179626230 < 179734643 invalid, clipping                                                                           
[mpegts @ 0x15446c0] st:0 PTS: 179629110 DTS: 179629110 < 179734644 invalid, clipping                                                                           
[mpegts @ 0x15446c0] st:0 PTS: 179631990 DTS: 179631990 < 179734645 invalid, clipping                                                                           
[mpegts @ 0x15446c0] st:0 PTS: 179634870 DTS: 179634870 < 179734646 invalid, clipping                                                                           
[mpegts @ 0x15446c0] st:0 PTS: 179616420 DTS: 179616420 < 179728065 invalid, clipping                                                                           
[mpegts @ 0x15446c0] st:0 PTS: 179610480 DTS: 179610480 < 179728066 invalid, clipping                                                                           
[mpegts @ 0x15446c0] st:0 PTS: 179607420 DTS: 179607420 < 179728067 invalid, clipping                                                                           
[mpegts @ 0x15446c0] st:0 PTS: 179613450 DTS: 179613450 < 179728068 invalid, clipping                                                                           
[mpegts @ 0x15446c0] st:0 PTS: 179628480 DTS: 179628480 < 179728069 invalid, clipping                                                                           
[mpegts @ 0x15446c0] st:0 PTS: 179622450 DTS: 179622450 < 179728070 invalid, clipping                                                                           
[mpegts @ 0x15446c0] st:0 PTS: 179619480 DTS: 179619480 < 179728071 invalid, clipping                                                                           
[mpegts @ 0x15446c0] st:0 PTS: 179625420 DTS: 179625420 < 179728072 invalid, clipping                                                                           
[mpegts @ 0x15446c0] st:0 PTS: 179637750 DTS: 179637750 < 179734647 invalid, clipping                                                                           
[mpegts @ 0x15446c0] st:0 PTS: 179640630 DTS: 179640630 < 179734648 invalid, clipping                                                                           
[mpegts @ 0x15446c0] st:0 PTS: 179643510 DTS: 179643510 < 179734649 invalid, clipping                                                                           
[mpegts @ 0x15446c0] st:0 PTS: 179646390 DTS: 179646390 < 179734650 invalid, clipping                                                                           
[mpegts @ 0x15446c0] st:0 PTS: 179649270 DTS: 179649270 < 179734651 invalid, clipping                                                                           
[mpegts @ 0x15446c0] st:0 PTS: 179652150 DTS: 179652150 < 179734652 invalid, clipping                                                                           
[mpegts @ 0x15446c0] st:0 PTS: 179655030 DTS: 179655030 < 179734653 invalid, clipping                                                                           
[mpegts @ 0x15446c0] st:0 PTS: 179657910 DTS: 179657910 < 179734654 invalid, clipping                                                                           
[mpegts @ 0x15446c0] st:0 PTS: 179640450 DTS: 179640450 < 179728073 invalid, clipping                                                                           
[mpegts @ 0x15446c0] st:0 PTS: 179634510 DTS: 179634510 < 179728074 invalid, clipping                                                                           
[mpegts @ 0x15446c0] st:0 PTS: 179631450 DTS: 179631450 < 179728075 invalid, clipping                                                                           
[mpegts @ 0x15446c0] st:0 PTS: 179637480 DTS: 179637480 < 179728076 invalid, clipping                                                                           
[mpegts @ 0x15446c0] st:0 PTS: 179652510 DTS: 179652510 < 179728077 invalid, clipping                                                                           
[mpegts @ 0x15446c0] st:0 PTS: 179646480 DTS: 179646480 < 179728078 invalid, clipping                                                                           
[mpegts @ 0x15446c0] st:0 PTS: 179643510 DTS: 179643510 < 179728079 invalid, clipping                                                                           
[mpegts @ 0x15446c0] st:0 PTS: 179649450 DTS: 179649450 < 179728080 invalid, clipping                                                                           
[mpegts @ 0x15446c0] st:0 PTS: 179660790 DTS: 179660790 < 179734655 invalid, clipping                                                                           
[mpegts @ 0x15446c0] st:0 PTS: 179663670 DTS: 179663670 < 179734656 invalid, clipping                                                                           
[mpegts @ 0x15446c0] st:0 PTS: 179664480 DTS: 179664480 < 179728081 invalid, clipping                                                                           
[mpegts @ 0x15446c0] st:0 PTS: 179658450 DTS: 179658450 < 179728082 invalid, clipping                                                                           
[mpegts @ 0x15446c0] st:0 PTS: 179655480 DTS: 179655480 < 179728083 invalid, clipping                                                                           
[mpegts @ 0x15446c0] st:0 PTS: 179661510 DTS: 179661510 < 179728084 invalid, clipping                                                                           
[mpegts @ 0x15446c0] st:0 PTS: 179666550 DTS: 179666550 < 179734657 invalid, clipping                                                                           
[mpegts @ 0x15446c0] st:0 PTS: 179669430 DTS: 179669430 < 179734658 invalid, clipping                                                                           
[mpegts @ 0x15446c0] st:0 PTS: 179672310 DTS: 179672310 < 179734659 invalid, clipping                                                                           
[mpegts @ 0x15446c0] st:0 PTS: 179675190 DTS: 179675190 < 179734660 invalid, clipping                                                                           
[mpegts @ 0x15446c0] st:0 PTS: 179678070 DTS: 179678070 < 179734661 invalid, clipping                                                                           
[mpegts @ 0x15446c0] st:0 PTS: 179680950 DTS: 179680950 < 179734662 invalid, clipping                                                                           
[mpegts @ 0x15446c0] st:0 PTS: 179683830 DTS: 179683830 < 179734663 invalid, clipping                                                                           
[mpegts @ 0x15446c0] st:0 PTS: 179686710 DTS: 179686710 < 179734664 invalid, clipping                                                                           
[mpegts @ 0x15446c0] st:0 PTS: 179676540 DTS: 179676540 < 179728085 invalid, clipping                                                                           
[mpegts @ 0x15446c0] st:0 PTS: 179670510 DTS: 179670510 < 179728086 invalid, clipping                                                                           
[mpegts @ 0x15446c0] st:0 PTS: 179667540 DTS: 179667540 < 179728087 invalid, clipping                                                                           
[mpegts @ 0x15446c0] st:0 PTS: 179673480 DTS: 179673480 < 179728088 invalid, clipping                                                                           
[mpegts @ 0x15446c0] st:0 PTS: 179688510 DTS: 179688510 < 179728089 invalid, clipping                                                                           
[mpegts @ 0x15446c0] st:0 PTS: 179682480 DTS: 179682480 < 179728090 invalid, clipping                                                                           
[mpegts @ 0x15446c0] st:0 PTS: 179679510 DTS: 179679510 < 179728091 invalid, clipping                                                                           
[mpegts @ 0x15446c0] st:0 PTS: 179685540 DTS: 179685540 < 179728092 invalid, clipping                                                                           
[mpegts @ 0x15446c0] st:0 PTS: 179689590 DTS: 179689590 < 179734665 invalid, clipping                                                                           
[mpegts @ 0x15446c0] st:0 PTS: 179692470 DTS: 179692470 < 179734666 invalid, clipping                                                                           
[mpegts @ 0x15446c0] st:0 PTS: 179695350 DTS: 179695350 < 179734667 invalid, clipping                                                                           
[mpegts @ 0x15446c0] st:0 PTS: 179698230 DTS: 179698230 < 179734668 invalid, clipping                                                                           
[mpegts @ 0x15446c0] st:0 PTS: 179694540 DTS: 179694540 < 179728093 invalid, clipping                                                                           
[mpegts @ 0x15446c0] st:0 PTS: 179691570 DTS: 179691570 < 179728094 invalid, clipping                                                                           
[mpegts @ 0x15446c0] st:0 PTS: 179697510 DTS: 179697510 < 179728095 invalid, clipping                                                                           
[mpegts @ 0x15446c0] st:0 PTS: 179700570 DTS: 179700570 < 179728096 invalid, clipping                                                                           
[mpegts @ 0x15446c0] st:0 PTS: 179701110 DTS: 179701110 < 179734669 invalid, clipping                                                                           
[mpegts @ 0x15446c0] st:0 PTS: 179703990 DTS: 179703990 < 179734670 invalid, clipping                                                                           
[mpegts @ 0x15446c0] st:0 PTS: 179706870 DTS: 179706870 < 179734671 invalid, clipping                                                                           
[mpegts @ 0x15446c0] st:0 PTS: 179709750 DTS: 179709750 < 179734672 invalid, clipping                                                                           
[mpegts @ 0x15446c0] st:0 PTS: 179712630 DTS: 179712630 < 179734673 invalid, clipping                                                                           
[mpegts @ 0x15446c0] st:0 PTS: 179715510 DTS: 179715510 < 179734674 invalid, clipping                                                                           
[mpegts @ 0x15446c0] st:0 PTS: 179718390 DTS: 179718390 < 179734675 invalid, clipping                                                                           
[mpegts @ 0x15446c0] st:0 PTS: 179721270 DTS: 179721270 < 179734676 invalid, clipping                                                                           
[mpegts @ 0x15446c0] st:0 PTS: 179712540 DTS: 179712540 < 179728097 invalid, clipping                                                                           
[mpegts @ 0x15446c0] st:0 PTS: 179706510 DTS: 179706510 < 179728098 invalid, clipping                                                                           
[mpegts @ 0x15446c0] st:0 PTS: 179703540 DTS: 179703540 < 179728099 invalid, clipping                                                                           
[mpegts @ 0x15446c0] st:0 PTS: 179709570 DTS: 179709570 < 179728100 invalid, clipping                                                                           
[mpegts @ 0x15446c0] st:0 PTS: 179724150 DTS: 179724150 < 179734677 invalid, clipping                                                                           
[mpegts @ 0x15446c0] st:0 PTS: 179727030 DTS: 179727030 < 179734678 invalid, clipping                                                                           
[mpegts @ 0x15446c0] st:0 PTS: 179729910 DTS: 179729910 < 179734679 invalid, clipping                                                                           
[mpegts @ 0x15446c0] st:0 PTS: 179732790 DTS: 179732790 < 179734680 invalid, clipping                                                                           
[mpegts @ 0x15446c0] st:0 PTS: 179724600 DTS: 179724600 < 179728101 invalid, clipping                                                                           
[mpegts @ 0x15446c0] st:0 PTS: 179718570 DTS: 179718570 < 179728102 invalid, clipping                                                                           
[mpegts @ 0x15446c0] st:0 PTS: 179715510 DTS: 179715510 < 179728103 invalid, clipping                                                                           
[mpegts @ 0x15446c0] st:0 PTS: 179721540 DTS: 179721540 < 179728104 invalid, clipping                                                                           
[mpegts @ 0x15446c0] st:0 PTS: 179730540 DTS: 179730540 < 179730991 invalid, clipping                                                                           
[mpegts @ 0x15446c0] st:0 PTS: 179727570 DTS: 179727570 < 179730992 invalid, clipping                                                                           
frame=60089 fps=955 q=-1.0 size= 2412184kB time=00:33:20.39 bitrate=9878.4kbits/
frame=65221 fps=1029 q=-1.0 size= 2583914kB time=00:36:11.46 bitrate=9748.0kbits
frame=69488 fps=1087 q=-1.0 size= 2691046kB time=00:38:33.92 bitrate=9527.1kbits
frame=72159 fps=1120 q=-1.0 size= 2806922kB time=00:40:02.98 bitrate=9569.1kbitsflushing with 1 noninterleaved
[mpegts @ 0x15446c0] flushing with 1 noninterleaved                             
    Last message repeated 1555 times
frame=74266 fps=810 q=-1.0 size= 2867256kB time=00:41:13.22 bitrate=9497.1kbits/
frame=74275 fps=791 q=-1.0 size= 2867256kB time=00:41:13.70 bitrate=9495.3kbits/
frame=74287 fps=784 q=-1.0 size= 2867256kB time=00:41:13.95 bitrate=9494.3kbits/
frame=74304 fps=774 q=-1.0 size= 2867256kB time=00:41:14.50 bitrate=9492.2kbits/
frame=74333 fps=769 q=-1.0 size= 2867256kB time=00:41:15.43 bitrate=9488.7kbits/st:0 PTS: 223378920 DTS: 223378920 < 223514371 invalid, clipping
[mpegts @ 0x15446c0] st:0 PTS: 223380720 DTS: 223380720 < 223523191 invalid, clipping                                                                           
[mpegts @ 0x15446c0] st:0 PTS: 223383600 DTS: 223383600 < 223523192 invalid, clipping                                                                           
[mpegts @ 0x15446c0] st:0 PTS: 223386480 DTS: 223386480 < 223523193 invalid, clipping                                                                           
[mpegts @ 0x15446c0] st:0 PTS: 223389360 DTS: 223389360 < 223523194 invalid, clipping                                                                           
[mpegts @ 0x15446c0] st:0 PTS: 223392240 DTS: 223392240 < 223523195 invalid, clipping                                                                           
[mpegts @ 0x15446c0] st:0 PTS: 223395120 DTS: 223395120 < 223523196 invalid, clipping                                                                           
[mpegts @ 0x15446c0] st:0 PTS: 223398000 DTS: 223398000 < 223523197 invalid, clipping                                                                           
[mpegts @ 0x15446c0] st:0 PTS: 223400880 DTS: 223400880 < 223523198 invalid, clipping                                                                           
[mpegts @ 0x15446c0] st:0 PTS: 223381890 DTS: 223381890 < 223514372 invalid, clipping                                                                           
[mpegts @ 0x15446c0] st:0 PTS: 223384950 DTS: 223384950 < 223514373 invalid, clipping                                                                           
[mpegts @ 0x15446c0] st:0 PTS: 223390890 DTS: 223390890 < 223514374 invalid, clipping                                                                           
[mpegts @ 0x15446c0] st:0 PTS: 223387920 DTS: 223387920 < 223514375 invalid, clipping                                                                           
[mpegts @ 0x15446c0] st:0 PTS: 223393950 DTS: 223393950 < 223514376 invalid, clipping                                                                           
[mpegts @ 0x15446c0] st:0 PTS: 223396920 DTS: 223396920 < 223514377 invalid, clipping                                                                           
[mpegts @ 0x15446c0] st:0 PTS: 223399890 DTS: 223399890 < 223514378 invalid, clipping                                                                           
[mpegts @ 0x15446c0] st:0 PTS: 223403760 DTS: 223403760 < 223523199 invalid, clipping                                                                           
[mpegts @ 0x15446c0] st:0 PTS: 223406640 DTS: 223406640 < 223523200 invalid, clipping                                                                           
[mpegts @ 0x15446c0] st:0 PTS: 223409520 DTS: 223409520 < 223523201 invalid, clipping                                                                           
[mpegts @ 0x15446c0] st:0 PTS: 223412400 DTS: 223412400 < 223523202 invalid, clipping                                                                           
[mpegts @ 0x15446c0] st:0 PTS: 223415280 DTS: 223415280 < 223523203 invalid, clipping                                                                           
[mpegts @ 0x15446c0] st:0 PTS: 223418160 DTS: 223418160 < 223523204 invalid, clipping                                                                           
[mpegts @ 0x15446c0] st:0 PTS: 223421040 DTS: 223421040 < 223523205 invalid, clipping                                                                           
[mpegts @ 0x15446c0] st:0 PTS: 223423920 DTS: 223423920 < 223523206 invalid, clipping                                                                           
[mpegts @ 0x15446c0] st:0 PTS: 223405920 DTS: 223405920 < 223514379 invalid, clipping                                                                           
[mpegts @ 0x15446c0] st:0 PTS: 223402950 DTS: 223402950 < 223514380 invalid, clipping                                                                           
[mpegts @ 0x15446c0] st:0 PTS: 223408890 DTS: 223408890 < 223514381 invalid, clipping                                                                           
[mpegts @ 0x15446c0] st:0 PTS: 223414920 DTS: 223414920 < 223514382 invalid, clipping                                                                           
[mpegts @ 0x15446c0] st:0 PTS: 223411950 DTS: 223411950 < 223514383 invalid, clipping                                                                           
[mpegts @ 0x15446c0] st:0 PTS: 223426800 DTS: 223426800 < 223523207 invalid, clipping                                                                           
[mpegts @ 0x15446c0] st:0 PTS: 223429680 DTS: 223429680 < 223523208 invalid, clipping                                                                           
[mpegts @ 0x15446c0] st:0 PTS: 223432560 DTS: 223432560 < 223523209 invalid, clipping                                                                           
[mpegts @ 0x15446c0] st:0 PTS: 223435440 DTS: 223435440 < 223523210 invalid, clipping                                                                           
[mpegts @ 0x15446c0] st:0 PTS: 223438320 DTS: 223438320 < 223523211 invalid, clipping                                                                           
[mpegts @ 0x15446c0] st:0 PTS: 223441200 DTS: 223441200 < 223523212 invalid, clipping                                                                           
[mpegts @ 0x15446c0] st:0 PTS: 223444080 DTS: 223444080 < 223523213 invalid, clipping                                                                           
[mpegts @ 0x15446c0] st:0 PTS: 223446960 DTS: 223446960 < 223523214 invalid, clipping                                                                           
[mpegts @ 0x15446c0] st:0 PTS: 223426980 DTS: 223426980 < 223514384 invalid, clipping                                                                           
[mpegts @ 0x15446c0] st:0 PTS: 223420950 DTS: 223420950 < 223514385 invalid, clipping                                                                           
[mpegts @ 0x15446c0] st:0 PTS: 223417980 DTS: 223417980 < 223514386 invalid, clipping                                                                           
[mpegts @ 0x15446c0] st:0 PTS: 223423920 DTS: 223423920 < 223514387 invalid, clipping                                                                           
[mpegts @ 0x15446c0] st:0 PTS: 223429950 DTS: 223429950 < 223514388 invalid, clipping                                                                           
[mpegts @ 0x15446c0] st:0 PTS: 223435980 DTS: 223435980 < 223514389 invalid, clipping                                                                           
[mpegts @ 0x15446c0] st:0 PTS: 223432920 DTS: 223432920 < 223514390 invalid, clipping                                                                           
[mpegts @ 0x15446c0] st:0 PTS: 223447950 DTS: 223447950 < 223514391 invalid, clipping                                                                           
[mpegts @ 0x15446c0] st:0 PTS: 223442010 DTS: 223442010 < 223514392 invalid, clipping                                                                           
[mpegts @ 0x15446c0] st:0 PTS: 223438950 DTS: 223438950 < 223514393 invalid, clipping                                                                           
[mpegts @ 0x15446c0] st:0 PTS: 223444980 DTS: 223444980 < 223514394 invalid, clipping                                                                           
[mpegts @ 0x15446c0] st:0 PTS: 223449840 DTS: 223449840 < 223523215 invalid, clipping                                                                           
[mpegts @ 0x15446c0] st:0 PTS: 223452720 DTS: 223452720 < 223523216 invalid, clipping                                                                           
[mpegts @ 0x15446c0] st:0 PTS: 223455600 DTS: 223455600 < 223523217 invalid, clipping                                                                           
[mpegts @ 0x15446c0] st:0 PTS: 223458480 DTS: 223458480 < 223523218 invalid, clipping                                                                           
[mpegts @ 0x15446c0] st:0 PTS: 223461360 DTS: 223461360 < 223523219 invalid, clipping                                                                           
[mpegts @ 0x15446c0] st:0 PTS: 223464240 DTS: 223464240 < 223523220 invalid, clipping                                                                           
[mpegts @ 0x15446c0] st:0 PTS: 223467120 DTS: 223467120 < 223523221 invalid, clipping                                                                           
[mpegts @ 0x15446c0] st:0 PTS: 223470000 DTS: 223470000 < 223523222 invalid, clipping                                                                           
[mpegts @ 0x15446c0] st:0 PTS: 223460010 DTS: 223460010 < 223514395 invalid, clipping                                                                           
[mpegts @ 0x15446c0] st:0 PTS: 223453980 DTS: 223453980 < 223514396 invalid, clipping                                                                           
[mpegts @ 0x15446c0] st:0 PTS: 223451010 DTS: 223451010 < 223514397 invalid, clipping                                                                           
[mpegts @ 0x15446c0] st:0 PTS: 223456950 DTS: 223456950 < 223514398 invalid, clipping                                                                           
[mpegts @ 0x15446c0] st:0 PTS: 223469010 DTS: 223469010 < 223514399 invalid, clipping                                                                           
[mpegts @ 0x15446c0] st:0 PTS: 223465950 DTS: 223465950 < 223514400 invalid, clipping                                                                           
[mpegts @ 0x15446c0] st:0 PTS: 223462980 DTS: 223462980 < 223514401 invalid, clipping                                                                           
[mpegts @ 0x15446c0] st:0 PTS: 223471980 DTS: 223471980 < 223514402 invalid, clipping                                                                           
[mpegts @ 0x15446c0] st:0 PTS: 223472880 DTS: 223472880 < 223523223 invalid, clipping                                                                           
[mpegts @ 0x15446c0] st:0 PTS: 223475760 DTS: 223475760 < 223523224 invalid, clipping                                                                           
[mpegts @ 0x15446c0] st:0 PTS: 223478640 DTS: 223478640 < 223523225 invalid, clipping                                                                           
[mpegts @ 0x15446c0] st:0 PTS: 223481520 DTS: 223481520 < 223523226 invalid, clipping                                                                           
[mpegts @ 0x15446c0] st:0 PTS: 223484400 DTS: 223484400 < 223523227 invalid, clipping                                                                           
[mpegts @ 0x15446c0] st:0 PTS: 223487280 DTS: 223487280 < 223523228 invalid, clipping                                                                           
[mpegts @ 0x15446c0] st:0 PTS: 223490160 DTS: 223490160 < 223523229 invalid, clipping                                                                           
[mpegts @ 0x15446c0] st:0 PTS: 223493040 DTS: 223493040 < 223523230 invalid, clipping                                                                           
[mpegts @ 0x15446c0] st:0 PTS: 223484040 DTS: 223484040 < 223514403 invalid, clipping                                                                           
[mpegts @ 0x15446c0] st:0 PTS: 223478010 DTS: 223478010 < 223514404 invalid, clipping                                                                           
[mpegts @ 0x15446c0] st:0 PTS: 223475040 DTS: 223475040 < 223514405 invalid, clipping                                                                           
[mpegts @ 0x15446c0] st:0 PTS: 223480980 DTS: 223480980 < 223514406 invalid, clipping                                                                           
[mpegts @ 0x15446c0] st:0 PTS: 223495920 DTS: 223495920 < 223523231 invalid, clipping                                                                           
[mpegts @ 0x15446c0] st:0 PTS: 223498800 DTS: 223498800 < 223523232 invalid, clipping                                                                           
[mpegts @ 0x15446c0] st:0 PTS: 223501680 DTS: 223501680 < 223523233 invalid, clipping                                                                           
[mpegts @ 0x15446c0] st:0 PTS: 223504560 DTS: 223504560 < 223523234 invalid, clipping                                                                           
[mpegts @ 0x15446c0] st:0 PTS: 223507440 DTS: 223507440 < 223523235 invalid, clipping                                                                           
[mpegts @ 0x15446c0] st:0 PTS: 223510320 DTS: 223510320 < 223523236 invalid, clipping                                                                           
[mpegts @ 0x15446c0] st:0 PTS: 223513200 DTS: 223513200 < 223523237 invalid, clipping
[mpegts @ 0x15446c0] st:0 PTS: 223516080 DTS: 223516080 < 223523238 invalid, clipping
[mpegts @ 0x15446c0] st:0 PTS: 223496010 DTS: 223496010 < 223514407 invalid, clipping
[mpegts @ 0x15446c0] st:0 PTS: 223489980 DTS: 223489980 < 223514408 invalid, clipping
[mpegts @ 0x15446c0] st:0 PTS: 223487010 DTS: 223487010 < 223514409 invalid, clipping
[mpegts @ 0x15446c0] st:0 PTS: 223493040 DTS: 223493040 < 223514410 invalid, clipping
[mpegts @ 0x15446c0] st:0 PTS: 223508070 DTS: 223508070 < 223514411 invalid, clipping
[mpegts @ 0x15446c0] st:0 PTS: 223502040 DTS: 223502040 < 223514412 invalid, clipping
[mpegts @ 0x15446c0] st:0 PTS: 223498980 DTS: 223498980 < 223514413 invalid, clipping
[mpegts @ 0x15446c0] st:0 PTS: 223505010 DTS: 223505010 < 223514414 invalid, clipping
[mpegts @ 0x15446c0] st:0 PTS: 223518960 DTS: 223518960 < 223523239 invalid, clipping
[mpegts @ 0x15446c0] st:0 PTS: 223521840 DTS: 223521840 < 223523240 invalid, clipping
[mpegts @ 0x15446c0] st:0 PTS: 223514010 DTS: 223514010 < 223517341 invalid, clipping
[mpegts @ 0x15446c0] st:0 PTS: 223511040 DTS: 223511040 < 223517342 invalid, clipping
[mpegts @ 0x15446c0] st:0 PTS: 223517070 DTS: 223517070 < 223517343 invalid, clipping
frame=75414 fps=776 q=-1.0 size= 2890152kB time=00:41:49.94 bitrate=9432.9kbits/flushing with 1 noninterleaved
[mpegts @ 0x15446c0] flushing with 1 noninterleaved
    Last message repeated 2234 times
No more output streams to write to, finishing.
frame=77155 fps=791 q=-1.0 Lsize= 2932079kB time=00:42:47.99 bitrate=9353.5kbits/s    
video:2674577kB audio:35196kB subtitle:28 global headers:0kB muxing overhead 8.202702%
[AVIOContext @ 0x1530940] Statistics: 2775446529 bytes read, 2 seeks

% ffprobe converted-to-ts.ts 
ffprobe version 1.0 Copyright (c) 2007-2012 the FFmpeg developers
  built on Oct 21 2012 22:33:24 with gcc 4.6.3 (GCC)
  configuration: --prefix=/usr --enable-nonfree --enable-gpl --enable-libtheora --enable-libvorbis --enable-libmp3lame --enable-libx264 --enable-avresample --enable-libfaac --enable-libfreetype --enable-libpulse --enable-libspeex
  libavutil      51. 73.101 / 51. 73.101
  libavcodec     54. 59.100 / 54. 59.100
  libavformat    54. 29.104 / 54. 29.104
  libavdevice    54.  2.101 / 54.  2.101
  libavfilter     3. 17.100 /  3. 17.100
  libswscale      2.  1.101 /  2.  1.101
  libswresample   0. 15.100 /  0. 15.100
  libpostproc    52.  0.100 / 52.  0.100
[mpegts @ 0x151a3e0] max_analyze_duration 5000000 reached at 5005000
[NULL @ 0x151f7c0] start time is not set in estimate_timings_from_pts
Input #0, mpegts, from 'converted-to-ts.ts':
  Duration: 00:42:47.97, start: 1.400000, bitrate: 9353 kb/s
  Program 1 
    Metadata:
      service_name    : Service01
      service_provider: FFmpeg
    Stream #0:0[0x100]: Video: h264 (High) ([27][0][0][0] / 0x001B), yuv420p, 1920x1080 [SAR 1:1 DAR 16:9], 29.97 fps, 29.97 tbr, 90k tbn, 59.94 tbc
    Stream #0:1[0x101]: Audio: ac3 ([129][0][0][0] / 0x0081), 48000 Hz, 5.1(side), s16, 112 kb/s
    Stream #0:2[0x102](eng): Subtitle: dvb_subtitle ([6][0][0][0] / 0x0006)

Change History (1)

comment:1 Changed 7 years ago by cehoyos

  • Resolution set to invalid
  • Status changed from new to closed

I don't think subrip can be muxed in mpeg-ts, this is not a limitation of FFmpeg, but of mpeg-ts (if I am wrong, please provide a subrip-in-mpegts sample and reopen this ticket).

It could be argued that FFmpeg should not try to mux random things, but I am nut sure all users would appreciate the limitation.

Note: See TracTickets for help on using tickets.