Opened 5 years ago

Closed 5 years ago

#1942 closed defect (fixed)

vqavideo decodes with errors

Reported by: ami_stuff Owned by:
Priority: important Component: avcodec
Version: git-master Keywords: vqa regression
Cc: Blocked By:
Blocking: Reproduced by developer: yes
Analyzed by developer: no

Description (last modified by ami_stuff)

"nukestok.vqa" decoded correctly in the past

13.06.2012 git-a5c1a0c - ok

17.06.2012 git-564bb24 - bad

http://samples.mplayerhq.hu/game-formats/vqa/Red%20Alert%20VQAs/nukestok.vqa

C:\>ffmpeg -i nukestok.vqa out.avi
ffmpeg version N-46755-ge70144c Copyright (c) 2000-2012 the FFmpeg developers
  built on Nov 15 2012 02:38:20 with gcc 4.5.0 (GCC) 20100414 (Fedora MinGW 4.5.
0-1.fc14)
  configuration: --prefix=/var/www/users/research/ffmpeg/snapshots/build --arch=
x86 --target-os=mingw32 --cross-prefix=i686-pc-mingw32- --cc='ccache i686-pc-min
gw32-gcc' --enable-w32threads --enable-memalign-hack --enable-runtime-cpudetect
--enable-cross-compile --enable-static --disable-shared --extra-libs='-lws2_32 -
lwinmm -lpthread' --extra-cflags='--static -I/var/www/users/research/ffmpeg/snap
shots/build/include' --extra-ldflags='-static -L/var/www/users/research/ffmpeg/s
napshots/build/lib' --enable-bzlib --enable-zlib --enable-gpl --enable-version3
--enable-nonfree --enable-libx264 --enable-libspeex --enable-libtheora --enable-
libvorbis --enable-libfaac --enable-libxvid --enable-libopencore-amrnb --enable-
libopencore-amrwb --enable-libmp3lame --enable-libvpx --disable-decoder=libvpx
  libavutil      52.  6.100 / 52.  6.100
  libavcodec     54. 71.100 / 54. 71.100
  libavformat    54. 36.100 / 54. 36.100
  libavdevice    54.  3.100 / 54.  3.100
  libavfilter     3. 23.100 /  3. 23.100
  libswscale      2.  1.102 /  2.  1.102
  libswresample   0. 16.100 /  0. 16.100
  libpostproc    52.  1.100 / 52.  1.100
[wsvqa @ 0x1edc2c0] max_analyze_duration 5000000 reached at 5000000
Guessed Channel Layout for  Input Stream #0.1 : mono
Input #0, wsvqa, from 'nukestok.vqa':
  Duration: 00:00:10.67, start: 0.000000, bitrate: 1408 kb/s
    Stream #0:0: Video: ws_vqa, pal8, 320x156, 15 fps, 15 tbr, 15 tbn, 15 tbc
    Stream #0:1: Audio: adpcm_ima_ws, 22050 Hz, mono, s16, 88 kb/s
Output #0, avi, to 'out.avi':
  Metadata:
    ISFT            : Lavf54.36.100
    Stream #0:0: Video: mpeg4 (FMP4 / 0x34504D46), yuv420p, 320x156, q=2-31, 200
 kb/s, 15 tbn, 15 tbc
    Stream #0:1: Audio: mp3 (U[0][0][0] / 0x0055), 22050 Hz, mono, s16p
Stream mapping:
  Stream #0:0 -> #0:0 (vqavideo -> mpeg4)
  Stream #0:1 -> #0:1 (adpcm_ima_ws -> libmp3lame)
Press [q] to stop, [?] for help
[vqavideo @ 0x1edcb60] decode_format80 problem: next op would overflow dest_inde
x
[vqavideo @ 0x1edcb60] current src_pos = 86, count = 3, dest_size = 1048576
Error while decoding stream #0:0: Invalid data found when processing input
[vqavideo @ 0x1edcb60] decode_format80 problem: next op would overflow dest_inde
x
[vqavideo @ 0x1edcb60] current src_pos = 1616, count = 8, dest_size = 1048576
Error while decoding stream #0:0: Invalid data found when processing input
[vqavideo @ 0x1edcb60] decode_format80 problem: next op would overflow dest_inde
x
[vqavideo @ 0x1edcb60] current src_pos = 1616, count = 8, dest_size = 1048576
Error while decoding stream #0:0: Invalid data found when processing input
[vqavideo @ 0x1edcb60] decode_format80 problem: next op would overflow dest_inde
x
[vqavideo @ 0x1edcb60] current src_pos = 1616, count = 8, dest_size = 1048576
Error while decoding stream #0:0: Invalid data found when processing input
[vqavideo @ 0x1edcb60] decode_format80 problem: next op would overflow dest_inde
x
[vqavideo @ 0x1edcb60] current src_pos = 1616, count = 8, dest_size = 1048576
Error while decoding stream #0:0: Invalid data found when processing input
[vqavideo @ 0x1edcb60] decode_format80 problem: next op would overflow dest_inde
x
[vqavideo @ 0x1edcb60] current src_pos = 1616, count = 8, dest_size = 1048576
Error while decoding stream #0:0: Invalid data found when processing input
[vqavideo @ 0x1edcb60] decode_format80 problem: next op would overflow dest_inde
x
[vqavideo @ 0x1edcb60] current src_pos = 1616, count = 8, dest_size = 1048576
Error while decoding stream #0:0: Invalid data found when processing input
[vqavideo @ 0x1edcb60] decode_format80 problem: next op would overflow dest_inde
x
[vqavideo @ 0x1edcb60] current src_pos = 1616, count = 8, dest_size = 1048576
Error while decoding stream #0:0: Invalid data found when processing input
[vqavideo @ 0x1edcb60] decode_format80 problem: next op would overflow dest_inde
x
[vqavideo @ 0x1edcb60] current src_pos = 1616, count = 8, dest_size = 1048576
Error while decoding stream #0:0: Invalid data found when processing input
[vqavideo @ 0x1edcb60] decode_format80 problem: next op would overflow dest_inde
x
[vqavideo @ 0x1edcb60] current src_pos = 86, count = 3, dest_size = 1048576
Error while decoding stream #0:0: Invalid data found when processing input
[vqavideo @ 0x1edcb60] decode_format80 problem: next op would overflow dest_inde
x
[vqavideo @ 0x1edcb60] current src_pos = 86, count = 3, dest_size = 1048576
Error while decoding stream #0:0: Invalid data found when processing input
[vqavideo @ 0x1edcb60] decode_format80 problem: next op would overflow dest_inde
x
[vqavideo @ 0x1edcb60] current src_pos = 86, count = 3, dest_size = 1048576
Error while decoding stream #0:0: Invalid data found when processing input
[vqavideo @ 0x1edcb60] decode_format80 problem: next op would overflow dest_inde
x
[vqavideo @ 0x1edcb60] current src_pos = 86, count = 3, dest_size = 1048576
Error while decoding stream #0:0: Invalid data found when processing input
[vqavideo @ 0x1edcb60] decode_format80 problem: next op would overflow dest_inde
x
[vqavideo @ 0x1edcb60] current src_pos = 86, count = 3, dest_size = 1048576
Error while decoding stream #0:0: Invalid data found when processing input
[vqavideo @ 0x1edcb60] decode_format80 problem: next op would overflow dest_inde
x
[vqavideo @ 0x1edcb60] current src_pos = 86, count = 3, dest_size = 1048576
Error while decoding stream #0:0: Invalid data found when processing input
[vqavideo @ 0x1edcb60] decode_format80 problem: next op would overflow dest_inde
x
[vqavideo @ 0x1edcb60] current src_pos = 86, count = 3, dest_size = 1048576
Error while decoding stream #0:0: Invalid data found when processing input
[vqavideo @ 0x1edcb60] decode_format80 problem: next op would overflow dest_inde
x
[vqavideo @ 0x1edcb60] current src_pos = 86, count = 3, dest_size = 1048576
Error while decoding stream #0:0: Invalid data found when processing input
[vqavideo @ 0x1edcb60] decode_format80 problem: next op would overflow dest_inde
x
[vqavideo @ 0x1edcb60] current src_pos = 86, count = 3, dest_size = 1048576
Error while decoding stream #0:0: Invalid data found when processing input
[vqavideo @ 0x1edcb60] decode_format80 problem: next op would overflow dest_inde
x
[vqavideo @ 0x1edcb60] current src_pos = 86, count = 3, dest_size = 1048576
Error while decoding stream #0:0: Invalid data found when processing input
[vqavideo @ 0x1edcb60] decode_format80 problem: next op would overflow dest_inde
x
[vqavideo @ 0x1edcb60] current src_pos = 86, count = 3, dest_size = 1048576
Error while decoding stream #0:0: Invalid data found when processing input
[vqavideo @ 0x1edcb60] decode_format80 problem: next op would overflow dest_inde
x
[vqavideo @ 0x1edcb60] current src_pos = 86, count = 3, dest_size = 1048576
Error while decoding stream #0:0: Invalid data found when processing input
[vqavideo @ 0x1edcb60] decode_format80 problem: next op would overflow dest_inde
x
[vqavideo @ 0x1edcb60] current src_pos = 86, count = 3, dest_size = 1048576
Error while decoding stream #0:0: Invalid data found when processing input
[vqavideo @ 0x1edcb60] decode_format80 problem: next op would overflow dest_inde
x
[vqavideo @ 0x1edcb60] current src_pos = 86, count = 3, dest_size = 1048576
Error while decoding stream #0:0: Invalid data found when processing input
[vqavideo @ 0x1edcb60] decode_format80 problem: next op would overflow dest_inde
x
[vqavideo @ 0x1edcb60] current src_pos = 86, count = 3, dest_size = 1048576
Error while decoding stream #0:0: Invalid data found when processing input
[vqavideo @ 0x1edcb60] decode_format80 problem: next op would overflow dest_inde
x
[vqavideo @ 0x1edcb60] current src_pos = 1616, count = 8, dest_size = 1048576
Error while decoding stream #0:0: Invalid data found when processing input
[vqavideo @ 0x1edcb60] decode_format80 problem: next op would overflow dest_inde
x
[vqavideo @ 0x1edcb60] current src_pos = 1616, count = 8, dest_size = 1048576
Error while decoding stream #0:0: Invalid data found when processing input
[vqavideo @ 0x1edcb60] decode_format80 problem: next op would overflow dest_inde
x
[vqavideo @ 0x1edcb60] current src_pos = 1616, count = 8, dest_size = 1048576
Error while decoding stream #0:0: Invalid data found when processing input
[vqavideo @ 0x1edcb60] decode_format80 problem: next op would overflow dest_inde
x
[vqavideo @ 0x1edcb60] current src_pos = 1616, count = 8, dest_size = 1048576
Error while decoding stream #0:0: Invalid data found when processing input
[vqavideo @ 0x1edcb60] decode_format80 problem: next op would overflow dest_inde
x
[vqavideo @ 0x1edcb60] current src_pos = 1616, count = 8, dest_size = 1048576
Error while decoding stream #0:0: Invalid data found when processing input
[vqavideo @ 0x1edcb60] decode_format80 problem: next op would overflow dest_inde
x
[vqavideo @ 0x1edcb60] current src_pos = 1616, count = 8, dest_size = 1048576
Error while decoding stream #0:0: Invalid data found when processing input
[vqavideo @ 0x1edcb60] decode_format80 problem: next op would overflow dest_inde
x
[vqavideo @ 0x1edcb60] current src_pos = 1616, count = 8, dest_size = 1048576
Error while decoding stream #0:0: Invalid data found when processing input
[vqavideo @ 0x1edcb60] decode_format80 problem: next op would overflow dest_inde
x
[vqavideo @ 0x1edcb60] current src_pos = 1616, count = 8, dest_size = 1048576
Error while decoding stream #0:0: Invalid data found when processing input
[vqavideo @ 0x1edcb60] decode_format80 problem: next op would overflow dest_inde
x
[vqavideo @ 0x1edcb60] current src_pos = 86, count = 3, dest_size = 1048576
Error while decoding stream #0:0: Invalid data found when processing input
[vqavideo @ 0x1edcb60] decode_format80 problem: next op would overflow dest_inde
x
[vqavideo @ 0x1edcb60] current src_pos = 1616, count = 8, dest_size = 1048576
Error while decoding stream #0:0: Invalid data found when processing input
[vqavideo @ 0x1edcb60] decode_format80 problem: next op would overflow dest_inde
x
[vqavideo @ 0x1edcb60] current src_pos = 1616, count = 8, dest_size = 1048576
Error while decoding stream #0:0: Invalid data found when processing input
[vqavideo @ 0x1edcb60] decode_format80 problem: next op would overflow dest_inde
x
[vqavideo @ 0x1edcb60] current src_pos = 1616, count = 8, dest_size = 1048576
Error while decoding stream #0:0: Invalid data found when processing input
[vqavideo @ 0x1edcb60] decode_format80 problem: next op would overflow dest_inde
x
[vqavideo @ 0x1edcb60] current src_pos = 1616, count = 8, dest_size = 1048576
Error while decoding stream #0:0: Invalid data found when processing input
[vqavideo @ 0x1edcb60] decode_format80 problem: next op would overflow dest_inde
x
[vqavideo @ 0x1edcb60] current src_pos = 1616, count = 8, dest_size = 1048576
Error while decoding stream #0:0: Invalid data found when processing input
[vqavideo @ 0x1edcb60] decode_format80 problem: next op would overflow dest_inde
x
[vqavideo @ 0x1edcb60] current src_pos = 1616, count = 8, dest_size = 1048576
Error while decoding stream #0:0: Invalid data found when processing input
[vqavideo @ 0x1edcb60] decode_format80 problem: next op would overflow dest_inde
x
[vqavideo @ 0x1edcb60] current src_pos = 1616, count = 8, dest_size = 1048576
Error while decoding stream #0:0: Invalid data found when processing input
[vqavideo @ 0x1edcb60] decode_format80 problem: next op would overflow dest_inde
x
[vqavideo @ 0x1edcb60] current src_pos = 86, count = 3, dest_size = 1048576
Error while decoding stream #0:0: Invalid data found when processing input
[vqavideo @ 0x1edcb60] decode_format80 problem: next op would overflow dest_inde
x
[vqavideo @ 0x1edcb60] current src_pos = 1616, count = 8, dest_size = 1048576
Error while decoding stream #0:0: Invalid data found when processing input
[vqavideo @ 0x1edcb60] decode_format80 problem: next op would overflow dest_inde
x
[vqavideo @ 0x1edcb60] current src_pos = 1616, count = 8, dest_size = 1048576
Error while decoding stream #0:0: Invalid data found when processing input
[vqavideo @ 0x1edcb60] decode_format80 problem: next op would overflow dest_inde
x
[vqavideo @ 0x1edcb60] current src_pos = 1616, count = 8, dest_size = 1048576
Error while decoding stream #0:0: Invalid data found when processing input
[vqavideo @ 0x1edcb60] decode_format80 problem: next op would overflow dest_inde
x
[vqavideo @ 0x1edcb60] current src_pos = 1616, count = 8, dest_size = 1048576
Error while decoding stream #0:0: Invalid data found when processing input
[vqavideo @ 0x1edcb60] decode_format80 problem: next op would overflow dest_inde
x
[vqavideo @ 0x1edcb60] current src_pos = 1616, count = 8, dest_size = 1048576
Error while decoding stream #0:0: Invalid data found when processing input
[vqavideo @ 0x1edcb60] decode_format80 problem: next op would overflow dest_inde
x
[vqavideo @ 0x1edcb60] current src_pos = 1616, count = 8, dest_size = 1048576
Error while decoding stream #0:0: Invalid data found when processing input
[vqavideo @ 0x1edcb60] decode_format80 problem: next op would overflow dest_inde
x
[vqavideo @ 0x1edcb60] current src_pos = 1616, count = 8, dest_size = 1048576
Error while decoding stream #0:0: Invalid data found when processing input
[vqavideo @ 0x1edcb60] decode_format80 problem: next op would overflow dest_inde
x
[vqavideo @ 0x1edcb60] current src_pos = 1616, count = 8, dest_size = 1048576
Error while decoding stream #0:0: Invalid data found when processing input
[vqavideo @ 0x1edcb60] decode_format80 problem: next op would overflow dest_inde
x
[vqavideo @ 0x1edcb60] current src_pos = 86, count = 3, dest_size = 1048576
Error while decoding stream #0:0: Invalid data found when processing input
[vqavideo @ 0x1edcb60] decode_format80 problem: next op would overflow dest_inde
x
[vqavideo @ 0x1edcb60] current src_pos = 86, count = 3, dest_size = 1048576
Error while decoding stream #0:0: Invalid data found when processing input
[vqavideo @ 0x1edcb60] decode_format80 problem: next op would overflow dest_inde
x
[vqavideo @ 0x1edcb60] current src_pos = 86, count = 3, dest_size = 1048576
Error while decoding stream #0:0: Invalid data found when processing input
[vqavideo @ 0x1edcb60] decode_format80 problem: next op would overflow dest_inde
x
[vqavideo @ 0x1edcb60] current src_pos = 86, count = 3, dest_size = 1048576
Error while decoding stream #0:0: Invalid data found when processing input
[vqavideo @ 0x1edcb60] decode_format80 problem: next op would overflow dest_inde
x
[vqavideo @ 0x1edcb60] current src_pos = 86, count = 3, dest_size = 1048576
Error while decoding stream #0:0: Invalid data found when processing input
[vqavideo @ 0x1edcb60] decode_format80 problem: next op would overflow dest_inde
x
[vqavideo @ 0x1edcb60] current src_pos = 86, count = 3, dest_size = 1048576
Error while decoding stream #0:0: Invalid data found when processing input
[vqavideo @ 0x1edcb60] decode_format80 problem: next op would overflow dest_inde
x
[vqavideo @ 0x1edcb60] current src_pos = 86, count = 3, dest_size = 1048576
Error while decoding stream #0:0: Invalid data found when processing input
[vqavideo @ 0x1edcb60] decode_format80 problem: next op would overflow dest_inde
x
[vqavideo @ 0x1edcb60] current src_pos = 86, count = 3, dest_size = 1048576
Error while decoding stream #0:0: Invalid data found when processing input
[vqavideo @ 0x1edcb60] decode_format80 problem: next op would overflow dest_inde
x
[vqavideo @ 0x1edcb60] current src_pos = 1616, count = 8, dest_size = 1048576
Error while decoding stream #0:0: Invalid data found when processing input
[vqavideo @ 0x1edcb60] decode_format80 problem: next op would overflow dest_inde
x
[vqavideo @ 0x1edcb60] current src_pos = 1616, count = 8, dest_size = 1048576
Error while decoding stream #0:0: Invalid data found when processing input
[vqavideo @ 0x1edcb60] decode_format80 problem: next op would overflow dest_inde
x
[vqavideo @ 0x1edcb60] current src_pos = 1616, count = 8, dest_size = 1048576
Error while decoding stream #0:0: Invalid data found when processing input
[vqavideo @ 0x1edcb60] decode_format80 problem: next op would overflow dest_inde
x
[vqavideo @ 0x1edcb60] current src_pos = 1616, count = 8, dest_size = 1048576
Error while decoding stream #0:0: Invalid data found when processing input
[vqavideo @ 0x1edcb60] decode_format80 problem: next op would overflow dest_inde
x
[vqavideo @ 0x1edcb60] current src_pos = 1616, count = 8, dest_size = 1048576
Error while decoding stream #0:0: Invalid data found when processing input
[vqavideo @ 0x1edcb60] decode_format80 problem: next op would overflow dest_inde
x
[vqavideo @ 0x1edcb60] current src_pos = 1616, count = 8, dest_size = 1048576
Error while decoding stream #0:0: Invalid data found when processing input
[vqavideo @ 0x1edcb60] decode_format80 problem: next op would overflow dest_inde
x
[vqavideo @ 0x1edcb60] current src_pos = 1616, count = 8, dest_size = 1048576
Error while decoding stream #0:0: Invalid data found when processing input
[vqavideo @ 0x1edcb60] decode_format80 problem: next op would overflow dest_inde
x
[vqavideo @ 0x1edcb60] current src_pos = 1616, count = 8, dest_size = 1048576
Error while decoding stream #0:0: Invalid data found when processing input
[vqavideo @ 0x1edcb60] decode_format80 problem: next op would overflow dest_inde
x
[vqavideo @ 0x1edcb60] current src_pos = 1616, count = 8, dest_size = 1048576
Error while decoding stream #0:0: Invalid data found when processing input
[vqavideo @ 0x1edcb60] decode_format80 problem: next op would overflow dest_inde
x
[vqavideo @ 0x1edcb60] current src_pos = 1616, count = 8, dest_size = 1048576
Error while decoding stream #0:0: Invalid data found when processing input
[vqavideo @ 0x1edcb60] decode_format80 problem: next op would overflow dest_inde
x
[vqavideo @ 0x1edcb60] current src_pos = 1616, count = 8, dest_size = 1048576
Error while decoding stream #0:0: Invalid data found when processing input
[vqavideo @ 0x1edcb60] decode_format80 problem: next op would overflow dest_inde
x
[vqavideo @ 0x1edcb60] current src_pos = 1616, count = 8, dest_size = 1048576
Error while decoding stream #0:0: Invalid data found when processing input
[vqavideo @ 0x1edcb60] decode_format80 problem: next op would overflow dest_inde
x
[vqavideo @ 0x1edcb60] current src_pos = 1616, count = 8, dest_size = 1048576
Error while decoding stream #0:0: Invalid data found when processing input
[vqavideo @ 0x1edcb60] decode_format80 problem: next op would overflow dest_inde
x
[vqavideo @ 0x1edcb60] current src_pos = 1616, count = 8, dest_size = 1048576
Error while decoding stream #0:0: Invalid data found when processing input
[vqavideo @ 0x1edcb60] decode_format80 problem: next op would overflow dest_inde
x
[vqavideo @ 0x1edcb60] current src_pos = 1616, count = 8, dest_size = 1048576
Error while decoding stream #0:0: Invalid data found when processing input
[vqavideo @ 0x1edcb60] decode_format80 problem: next op would overflow dest_inde
x
[vqavideo @ 0x1edcb60] current src_pos = 1616, count = 8, dest_size = 1048576
Error while decoding stream #0:0: Invalid data found when processing input
[vqavideo @ 0x1edcb60] decode_format80 problem: next op would overflow dest_inde
x
[vqavideo @ 0x1edcb60] current src_pos = 1616, count = 8, dest_size = 1048576
Error while decoding stream #0:0: Invalid data found when processing input
[vqavideo @ 0x1edcb60] decode_format80 problem: next op would overflow dest_inde
x
[vqavideo @ 0x1edcb60] current src_pos = 1616, count = 8, dest_size = 1048576
Error while decoding stream #0:0: Invalid data found when processing input
[vqavideo @ 0x1edcb60] decode_format80 problem: next op would overflow dest_inde
x
[vqavideo @ 0x1edcb60] current src_pos = 1616, count = 8, dest_size = 1048576
Error while decoding stream #0:0: Invalid data found when processing input
[vqavideo @ 0x1edcb60] decode_format80 problem: next op would overflow dest_inde
x
[vqavideo @ 0x1edcb60] current src_pos = 1616, count = 8, dest_size = 1048576
Error while decoding stream #0:0: Invalid data found when processing input
[vqavideo @ 0x1edcb60] decode_format80 problem: next op would overflow dest_inde
x
[vqavideo @ 0x1edcb60] current src_pos = 1616, count = 8, dest_size = 1048576
Error while decoding stream #0:0: Invalid data found when processing input
[vqavideo @ 0x1edcb60] decode_format80 problem: next op would overflow dest_inde
x
[vqavideo @ 0x1edcb60] current src_pos = 1616, count = 8, dest_size = 1048576
Error while decoding stream #0:0: Invalid data found when processing input
[vqavideo @ 0x1edcb60] decode_format80 problem: next op would overflow dest_inde
x
[vqavideo @ 0x1edcb60] current src_pos = 1616, count = 8, dest_size = 1048576
Error while decoding stream #0:0: Invalid data found when processing input
[vqavideo @ 0x1edcb60] decode_format80 problem: next op would overflow dest_inde
x
[vqavideo @ 0x1edcb60] current src_pos = 1616, count = 8, dest_size = 1048576
Error while decoding stream #0:0: Invalid data found when processing input
[vqavideo @ 0x1edcb60] decode_format80 problem: next op would overflow dest_inde
x
[vqavideo @ 0x1edcb60] current src_pos = 1616, count = 8, dest_size = 1048576
Error while decoding stream #0:0: Invalid data found when processing input
[vqavideo @ 0x1edcb60] decode_format80 problem: next op would overflow dest_inde
x
[vqavideo @ 0x1edcb60] current src_pos = 1616, count = 8, dest_size = 1048576
Error while decoding stream #0:0: Invalid data found when processing input
[vqavideo @ 0x1edcb60] decode_format80 problem: next op would overflow dest_inde
x
[vqavideo @ 0x1edcb60] current src_pos = 1616, count = 8, dest_size = 1048576
Error while decoding stream #0:0: Invalid data found when processing input
[vqavideo @ 0x1edcb60] decode_format80 problem: next op would overflow dest_inde
x
[vqavideo @ 0x1edcb60] current src_pos = 1616, count = 8, dest_size = 1048576
Error while decoding stream #0:0: Invalid data found when processing input
[vqavideo @ 0x1edcb60] decode_format80 problem: next op would overflow dest_inde
x
[vqavideo @ 0x1edcb60] current src_pos = 1616, count = 8, dest_size = 1048576
Error while decoding stream #0:0: Invalid data found when processing input
[vqavideo @ 0x1edcb60] decode_format80 problem: next op would overflow dest_inde
x
[vqavideo @ 0x1edcb60] current src_pos = 1616, count = 8, dest_size = 1048576
Error while decoding stream #0:0: Invalid data found when processing input
[vqavideo @ 0x1edcb60] decode_format80 problem: next op would overflow dest_inde
x
[vqavideo @ 0x1edcb60] current src_pos = 1616, count = 8, dest_size = 1048576
Error while decoding stream #0:0: Invalid data found when processing input
[vqavideo @ 0x1edcb60] decode_format80 problem: next op would overflow dest_inde
x
[vqavideo @ 0x1edcb60] current src_pos = 86, count = 3, dest_size = 1048576
Error while decoding stream #0:0: Invalid data found when processing input
[vqavideo @ 0x1edcb60] decode_format80 problem: next op would overflow dest_inde
x
[vqavideo @ 0x1edcb60] current src_pos = 1616, count = 8, dest_size = 1048576
Error while decoding stream #0:0: Invalid data found when processing input
[vqavideo @ 0x1edcb60] decode_format80 problem: next op would overflow dest_inde
x
[vqavideo @ 0x1edcb60] current src_pos = 1616, count = 8, dest_size = 1048576
Error while decoding stream #0:0: Invalid data found when processing input
[vqavideo @ 0x1edcb60] decode_format80 problem: next op would overflow dest_inde
x
[vqavideo @ 0x1edcb60] current src_pos = 1616, count = 8, dest_size = 1048576
Error while decoding stream #0:0: Invalid data found when processing input
[vqavideo @ 0x1edcb60] decode_format80 problem: next op would overflow dest_inde
x
[vqavideo @ 0x1edcb60] current src_pos = 1616, count = 8, dest_size = 1048576
Error while decoding stream #0:0: Invalid data found when processing input
[vqavideo @ 0x1edcb60] decode_format80 problem: next op would overflow dest_inde
x
[vqavideo @ 0x1edcb60] current src_pos = 1616, count = 8, dest_size = 1048576
Error while decoding stream #0:0: Invalid data found when processing input
[vqavideo @ 0x1edcb60] decode_format80 problem: next op would overflow dest_inde
x
[vqavideo @ 0x1edcb60] current src_pos = 1616, count = 8, dest_size = 1048576
Error while decoding stream #0:0: Invalid data found when processing input
[vqavideo @ 0x1edcb60] decode_format80 problem: next op would overflow dest_inde
x
[vqavideo @ 0x1edcb60] current src_pos = 1616, count = 8, dest_size = 1048576
Error while decoding stream #0:0: Invalid data found when processing input
[vqavideo @ 0x1edcb60] decode_format80 problem: next op would overflow dest_inde
x
[vqavideo @ 0x1edcb60] current src_pos = 86, count = 3, dest_size = 1048576
Error while decoding stream #0:0: Invalid data found when processing input
[vqavideo @ 0x1edcb60] decode_format80 problem: next op would overflow dest_inde
x
[vqavideo @ 0x1edcb60] current src_pos = 1616, count = 8, dest_size = 1048576
Error while decoding stream #0:0: Invalid data found when processing input
[vqavideo @ 0x1edcb60] decode_format80 problem: next op would overflow dest_inde
x
[vqavideo @ 0x1edcb60] current src_pos = 1616, count = 8, dest_size = 1048576
Error while decoding stream #0:0: Invalid data found when processing input
[vqavideo @ 0x1edcb60] decode_format80 problem: next op would overflow dest_inde
x
[vqavideo @ 0x1edcb60] current src_pos = 1616, count = 8, dest_size = 1048576
Error while decoding stream #0:0: Invalid data found when processing input
[vqavideo @ 0x1edcb60] decode_format80 problem: next op would overflow dest_inde
x
[vqavideo @ 0x1edcb60] current src_pos = 1616, count = 8, dest_size = 1048576
Error while decoding stream #0:0: Invalid data found when processing input
[vqavideo @ 0x1edcb60] decode_format80 problem: next op would overflow dest_inde
x
[vqavideo @ 0x1edcb60] current src_pos = 1616, count = 8, dest_size = 1048576
Error while decoding stream #0:0: Invalid data found when processing input
[vqavideo @ 0x1edcb60] decode_format80 problem: next op would overflow dest_inde
x
[vqavideo @ 0x1edcb60] current src_pos = 1616, count = 8, dest_size = 1048576
Error while decoding stream #0:0: Invalid data found when processing input
[vqavideo @ 0x1edcb60] decode_format80 problem: next op would overflow dest_inde
x
[vqavideo @ 0x1edcb60] current src_pos = 1616, count = 8, dest_size = 1048576
Error while decoding stream #0:0: Invalid data found when processing input
[vqavideo @ 0x1edcb60] decode_format80 problem: next op would overflow dest_inde
x
[vqavideo @ 0x1edcb60] current src_pos = 86, count = 3, dest_size = 1048576
Error while decoding stream #0:0: Invalid data found when processing input
[vqavideo @ 0x1edcb60] decode_format80 problem: next op would overflow dest_inde
x
[vqavideo @ 0x1edcb60] current src_pos = 1616, count = 8, dest_size = 1048576
Error while decoding stream #0:0: Invalid data found when processing input
[vqavideo @ 0x1edcb60] decode_format80 problem: next op would overflow dest_inde
x
[vqavideo @ 0x1edcb60] current src_pos = 1616, count = 8, dest_size = 1048576
Error while decoding stream #0:0: Invalid data found when processing input
[vqavideo @ 0x1edcb60] decode_format80 problem: next op would overflow dest_inde
x
[vqavideo @ 0x1edcb60] current src_pos = 1616, count = 8, dest_size = 1048576
Error while decoding stream #0:0: Invalid data found when processing input
[vqavideo @ 0x1edcb60] decode_format80 problem: next op would overflow dest_inde
x
[vqavideo @ 0x1edcb60] current src_pos = 1616, count = 8, dest_size = 1048576
Error while decoding stream #0:0: Invalid data found when processing input
[vqavideo @ 0x1edcb60] decode_format80 problem: next op would overflow dest_inde
x
[vqavideo @ 0x1edcb60] current src_pos = 1616, count = 8, dest_size = 1048576
Error while decoding stream #0:0: Invalid data found when processing input
[vqavideo @ 0x1edcb60] decode_format80 problem: next op would overflow dest_inde
x
[vqavideo @ 0x1edcb60] current src_pos = 1616, count = 8, dest_size = 1048576
Error while decoding stream #0:0: Invalid data found when processing input
[vqavideo @ 0x1edcb60] decode_format80 problem: next op would overflow dest_inde
x
[vqavideo @ 0x1edcb60] current src_pos = 1616, count = 8, dest_size = 1048576
Error while decoding stream #0:0: Invalid data found when processing input
[vqavideo @ 0x1edcb60] decode_format80 problem: next op would overflow dest_inde
x
[vqavideo @ 0x1edcb60] current src_pos = 86, count = 3, dest_size = 1048576
Error while decoding stream #0:0: Invalid data found when processing input
[vqavideo @ 0x1edcb60] decode_format80 problem: next op would overflow dest_inde
x
[vqavideo @ 0x1edcb60] current src_pos = 86, count = 3, dest_size = 1048576
Error while decoding stream #0:0: Invalid data found when processing input
[vqavideo @ 0x1edcb60] decode_format80 problem: next op would overflow dest_inde
x
[vqavideo @ 0x1edcb60] current src_pos = 86, count = 3, dest_size = 1048576
Error while decoding stream #0:0: Invalid data found when processing input
[vqavideo @ 0x1edcb60] decode_format80 problem: next op would overflow dest_inde
x
[vqavideo @ 0x1edcb60] current src_pos = 86, count = 3, dest_size = 1048576
Error while decoding stream #0:0: Invalid data found when processing input
[vqavideo @ 0x1edcb60] decode_format80 problem: next op would overflow dest_inde
x
[vqavideo @ 0x1edcb60] current src_pos = 86, count = 3, dest_size = 1048576
Error while decoding stream #0:0: Invalid data found when processing input
[vqavideo @ 0x1edcb60] decode_format80 problem: next op would overflow dest_inde
x
[vqavideo @ 0x1edcb60] current src_pos = 86, count = 3, dest_size = 1048576
Error while decoding stream #0:0: Invalid data found when processing input
[vqavideo @ 0x1edcb60] decode_format80 problem: next op would overflow dest_inde
x
[vqavideo @ 0x1edcb60] current src_pos = 86, count = 3, dest_size = 1048576
Error while decoding stream #0:0: Invalid data found when processing input
[vqavideo @ 0x1edcb60] decode_format80 problem: next op would overflow dest_inde
x
[vqavideo @ 0x1edcb60] current src_pos = 86, count = 3, dest_size = 1048576
Error while decoding stream #0:0: Invalid data found when processing input
[vqavideo @ 0x1edcb60] decode_format80 problem: next op would overflow dest_inde
x
[vqavideo @ 0x1edcb60] current src_pos = 1616, count = 8, dest_size = 1048576
Error while decoding stream #0:0: Invalid data found when processing input
[vqavideo @ 0x1edcb60] decode_format80 problem: next op would overflow dest_inde
x
[vqavideo @ 0x1edcb60] current src_pos = 86, count = 3, dest_size = 1048576
Error while decoding stream #0:0: Invalid data found when processing input
[vqavideo @ 0x1edcb60] decode_format80 problem: next op would overflow dest_inde
x
[vqavideo @ 0x1edcb60] current src_pos = 86, count = 3, dest_size = 1048576
Error while decoding stream #0:0: Invalid data found when processing input
[vqavideo @ 0x1edcb60] decode_format80 problem: next op would overflow dest_inde
x
[vqavideo @ 0x1edcb60] current src_pos = 86, count = 3, dest_size = 1048576
Error while decoding stream #0:0: Invalid data found when processing input
[vqavideo @ 0x1edcb60] decode_format80 problem: next op would overflow dest_inde
x
[vqavideo @ 0x1edcb60] current src_pos = 86, count = 3, dest_size = 1048576
Error while decoding stream #0:0: Invalid data found when processing input
[vqavideo @ 0x1edcb60] decode_format80 problem: next op would overflow dest_inde
x
[vqavideo @ 0x1edcb60] current src_pos = 86, count = 3, dest_size = 1048576
Error while decoding stream #0:0: Invalid data found when processing input
[vqavideo @ 0x1edcb60] decode_format80 problem: next op would overflow dest_inde
x
[vqavideo @ 0x1edcb60] current src_pos = 86, count = 3, dest_size = 1048576
Error while decoding stream #0:0: Invalid data found when processing input
[vqavideo @ 0x1edcb60] decode_format80 problem: next op would overflow dest_inde
x
[vqavideo @ 0x1edcb60] current src_pos = 86, count = 3, dest_size = 1048576
Error while decoding stream #0:0: Invalid data found when processing input
[vqavideo @ 0x1edcb60] decode_format80 problem: next op would overflow dest_inde
x
[vqavideo @ 0x1edcb60] current src_pos = 1616, count = 8, dest_size = 1048576
Error while decoding stream #0:0: Invalid data found when processing input
[vqavideo @ 0x1edcb60] decode_format80 problem: next op would overflow dest_inde
x
[vqavideo @ 0x1edcb60] current src_pos = 1616, count = 8, dest_size = 1048576
Error while decoding stream #0:0: Invalid data found when processing input
[vqavideo @ 0x1edcb60] decode_format80 problem: next op would overflow dest_inde
x
[vqavideo @ 0x1edcb60] current src_pos = 1616, count = 8, dest_size = 1048576
Error while decoding stream #0:0: Invalid data found when processing input
[vqavideo @ 0x1edcb60] decode_format80 problem: next op would overflow dest_inde
x
[vqavideo @ 0x1edcb60] current src_pos = 1616, count = 8, dest_size = 1048576
Error while decoding stream #0:0: Invalid data found when processing input
[vqavideo @ 0x1edcb60] decode_format80 problem: next op would overflow dest_inde
x
[vqavideo @ 0x1edcb60] current src_pos = 1616, count = 8, dest_size = 1048576
Error while decoding stream #0:0: Invalid data found when processing input
[vqavideo @ 0x1edcb60] decode_format80 problem: next op would overflow dest_inde
x
[vqavideo @ 0x1edcb60] current src_pos = 1616, count = 8, dest_size = 1048576
Error while decoding stream #0:0: Invalid data found when processing input
[vqavideo @ 0x1edcb60] decode_format80 problem: next op would overflow dest_inde
x
[vqavideo @ 0x1edcb60] current src_pos = 1616, count = 8, dest_size = 1048576
Error while decoding stream #0:0: Invalid data found when processing input
[vqavideo @ 0x1edcb60] decode_format80 problem: next op would overflow dest_inde
x
[vqavideo @ 0x1edcb60] current src_pos = 1616, count = 8, dest_size = 1048576
Error while decoding stream #0:0: Invalid data found when processing input
[vqavideo @ 0x1edcb60] decode_format80 problem: next op would overflow dest_inde
x
[vqavideo @ 0x1edcb60] current src_pos = 1616, count = 8, dest_size = 1048576
Error while decoding stream #0:0: Invalid data found when processing input
[vqavideo @ 0x1edcb60] decode_format80 problem: next op would overflow dest_inde
x
[vqavideo @ 0x1edcb60] current src_pos = 86, count = 3, dest_size = 1048576
Error while decoding stream #0:0: Invalid data found when processing input
[vqavideo @ 0x1edcb60] decode_format80 problem: next op would overflow dest_inde
x
[vqavideo @ 0x1edcb60] current src_pos = 86, count = 3, dest_size = 1048576
Error while decoding stream #0:0: Invalid data found when processing input
[vqavideo @ 0x1edcb60] decode_format80 problem: next op would overflow dest_inde
x
[vqavideo @ 0x1edcb60] current src_pos = 86, count = 3, dest_size = 1048576
Error while decoding stream #0:0: Invalid data found when processing input
[vqavideo @ 0x1edcb60] decode_format80 problem: next op would overflow dest_inde
x
[vqavideo @ 0x1edcb60] current src_pos = 86, count = 3, dest_size = 1048576
Error while decoding stream #0:0: Invalid data found when processing input
[vqavideo @ 0x1edcb60] decode_format80 problem: next op would overflow dest_inde
x
[vqavideo @ 0x1edcb60] current src_pos = 86, count = 3, dest_size = 1048576
Error while decoding stream #0:0: Invalid data found when processing input
[vqavideo @ 0x1edcb60] decode_format80 problem: next op would overflow dest_inde
x
[vqavideo @ 0x1edcb60] current src_pos = 86, count = 3, dest_size = 1048576
Error while decoding stream #0:0: Invalid data found when processing input
[vqavideo @ 0x1edcb60] decode_format80 problem: next op would overflow dest_inde
x
[vqavideo @ 0x1edcb60] current src_pos = 86, count = 3, dest_size = 1048576
Error while decoding stream #0:0: Invalid data found when processing input
[vqavideo @ 0x1edcb60] decode_format80 problem: next op would overflow dest_inde
x
[vqavideo @ 0x1edcb60] current src_pos = 1616, count = 8, dest_size = 1048576
Error while decoding stream #0:0: Invalid data found when processing input
nukestok.vqa: Operation not permitted
frame=   15 fps=0.0 q=18.6 Lsize=     208kB time=00:00:11.18 bitrate= 152.3kbits
/s
video:140kB audio:44kB subtitle:0 global headers:0kB muxing overhead 12.882857%
}}

Change History (5)

comment:1 follow-up: Changed 5 years ago by richardpl

The dates you provided do not make any sense, nothing changed for vqavideo and westwood_vqa in that period.

comment:2 in reply to: ↑ 1 Changed 5 years ago by ami_stuff

  • Description modified (diff)

Replying to richardpl:

The dates you provided do not make any sense, nothing changed for vqavideo and westwood_vqa in that period.

Then maybe some other files changed, no idea I did only bin search.

C:\>ffmpeg -i nukestok.vqa out.avi
ffmpeg version N-41578-ga5c1a0c Copyright (c) 2000-2012 the FFmpeg developers
  built on Jun 13 2012 22:34:53 with gcc 4.6.3
  configuration: --enable-gpl --enable-version3 --disable-w32threads --enable-ru
ntime-cpudetect --enable-avisynth --enable-bzlib --enable-frei0r --enable-libass
 --enable-libcelt --enable-libopencore-amrnb --enable-libopencore-amrwb --enable
-libfreetype --enable-libgsm --enable-libmp3lame --enable-libnut --enable-libope
njpeg --enable-librtmp --enable-libschroedinger --enable-libspeex --enable-libth
eora --enable-libutvideo --enable-libvo-aacenc --enable-libvo-amrwbenc --enable-
libvorbis --enable-libvpx --ena  libavutil      51. 58.100 / 51. 58.100
  libavcodec     54. 25.100 / 54. 25.100
  libavformat    54.  6.101 / 54.  6.101
  libavdevice    54.  0.100 / 54.  0.100
  libavfilter     2. 79.100 /  2. 79.100
  libswscale      2.  1.100 /  2.  1.100
  libswresample   0. 15.100 /  0. 15.100
  libpostproc    52.  0.100 / 52.  0.100
[wsvqa @ 0230ce40] max_analyze_duration 5000000 reached at 5000000
Guessed Channel Layout for  Input Stream #0.1 : mono
Input #0, wsvqa, from 'nukestok.vqa':
  Duration: 00:00:10.66, start: 0.000000, bitrate: 1408 kb/s
    Stream #0:0: Video: ws_vqa, pal8, 320x156, 15 fps, 15 tbr, 15 tbn, 15 tbc
    Stream #0:1: Audio: adpcm_ima_ws, 22050 Hz, mono, s16, 88 kb/s
w:320 h:156 pixfmt:pal8 tb:1/15 fr:15/1 sar:0/1 sws_param:flags=2
[ffmpeg_buffersink @ 024da4a0] No opaque field provided
[format @ 024daec0] auto-inserting filter 'auto-inserted scaler 0' between the f
ilter 'Parsed_null_0' and the filter 'format'
[auto-inserted scaler 0 @ 024ee560] w:320 h:156 fmt:pal8 sar:0/1 -> w:320 h:156
fmt:yuv420p sar:0/1 flags:0x4
Output #0, avi, to 'out.avi':
  Metadata:
    ISFT            : Lavf54.6.101
    Stream #0:0: Video: mpeg4 (FMP4 / 0x34504D46), yuv420p, 320x156, q=2-31, 200
 kb/s, 15 tbn, 15 tbc
    Stream #0:1: Audio: mp3 (U[0][0][0] / 0x0055), 22050 Hz, mono, s16
Stream mapping:
  Stream #0:0 -> #0:0 (vqavideo -> mpeg4)
  Stream #0:1 -> #0:1 (adpcm_ima_ws -> libmp3lame)
Press [q] to stop, [?] for help
frame=   76 fps=0.0 q=6.3 size=     227kB time=00:00:05.06 bitrate= 366.6kbits/s
frame=  160 fps=0.0 q=6.8 Lsize=     405kB time=00:00:10.66 bitrate= 310.8kbits/
s
video:337kB audio:44kB global headers:0kB muxing overhead 6.248237%
C:\>ffmpeg -i nukestok.vqa out.avi
ffmpeg version N-41668-g564bb24 Copyright (c) 2000-2012 the FFmpeg developers
  built on Jun 17 2012 20:14:34 with gcc 4.6.3
  configuration: --enable-gpl --enable-version3 --disable-w32threads --enable-ru
ntime-cpudetect --enable-avisynth --enable-bzlib --enable-frei0r --enable-libass
 --enable-libcelt --enable-libopencore-amrnb --enable-libopencore-amrwb --enable
-libfreetype --enable-libgsm --enable-libmp3lame --enable-libnut --enable-libope
njpeg --enable-librtmp --enable-libschroedinger --enable-libspeex --enable-libth
eora --enable-libutvideo --enable-libvo-aacenc --enable-libvo-amrwbenc --enable-
libvorbis --enable-libvpx --ena  libavutil      51. 58.100 / 51. 58.100
  libavcodec     54. 25.100 / 54. 25.100
  libavformat    54.  6.101 / 54.  6.101
  libavdevice    54.  0.100 / 54.  0.100
  libavfilter     2. 81.100 /  2. 81.100
  libswscale      2.  1.100 /  2.  1.100
  libswresample   0. 15.100 /  0. 15.100
  libpostproc    52.  0.100 / 52.  0.100
[wsvqa @ 0230ce40] max_analyze_duration 5000000 reached at 5000000
Guessed Channel Layout for  Input Stream #0.1 : mono
Input #0, wsvqa, from 'nukestok.vqa':
  Duration: 00:00:10.66, start: 0.000000, bitrate: 1408 kb/s
    Stream #0:0: Video: ws_vqa, pal8, 320x156, 15 fps, 15 tbr, 15 tbn, 15 tbc
    Stream #0:1: Audio: adpcm_ima_ws, 22050 Hz, mono, s16, 88 kb/s
w:320 h:156 pixfmt:pal8 tb:1/15 fr:15/1 sar:0/1 sws_param:flags=2
[ffmpeg_buffersink @ 024da4e0] No opaque field provided
[format @ 024daf00] auto-inserting filter 'auto-inserted scaler 0' between the f
ilter 'Parsed_null_0' and the filter 'format'
[auto-inserted scaler 0 @ 024ee560] w:320 h:156 fmt:pal8 sar:0/1 -> w:320 h:156
fmt:yuv420p sar:0/1 flags:0x4
Output #0, avi, to 'out.avi':
  Metadata:
    ISFT            : Lavf54.6.101
    Stream #0:0: Video: mpeg4 (FMP4 / 0x34504D46), yuv420p, 320x156, q=2-31, 200
 kb/s, 15 tbn, 15 tbc
    Stream #0:1: Audio: mp3 (U[0][0][0] / 0x0055), 22050 Hz, mono, s16
Stream mapping:
  Stream #0:0 -> #0:0 (vqavideo -> mpeg4)
  Stream #0:1 -> #0:1 (adpcm_ima_ws -> libmp3lame)
Press [q] to stop, [?] for help
[vqavideo @ 0230d740] decode_format80 problem: next op would overflow dest_index

[vqavideo @ 0230d740] current src_pos = 86, count = 3, dest_size = 1048576
Error while decoding stream #0:0: Invalid data found when processing input
[vqavideo @ 0230d740] decode_format80 problem: next op would overflow dest_index

[vqavideo @ 0230d740] current src_pos = 1616, count = 8, dest_size = 1048576
Error while decoding stream #0:0: Invalid data found when processing input
[vqavideo @ 0230d740] decode_format80 problem: next op would overflow dest_index

[vqavideo @ 0230d740] current src_pos = 1616, count = 8, dest_size = 1048576
Error while decoding stream #0:0: Invalid data found when processing input
[vqavideo @ 0230d740] decode_format80 problem: next op would overflow dest_index

[vqavideo @ 0230d740] current src_pos = 1616, count = 8, dest_size = 1048576
Error while decoding stream #0:0: Invalid data found when processing input
[vqavideo @ 0230d740] decode_format80 problem: next op would overflow dest_index

[vqavideo @ 0230d740] current src_pos = 1616, count = 8, dest_size = 1048576
Error while decoding stream #0:0: Invalid data found when processing input
[vqavideo @ 0230d740] decode_format80 problem: next op would overflow dest_index

[vqavideo @ 0230d740] current src_pos = 1616, count = 8, dest_size = 1048576
Error while decoding stream #0:0: Invalid data found when processing input
[vqavideo @ 0230d740] decode_format80 problem: next op would overflow dest_index

[vqavideo @ 0230d740] current src_pos = 1616, count = 8, dest_size = 1048576
Error while decoding stream #0:0: Invalid data found when processing input
[vqavideo @ 0230d740] decode_format80 problem: next op would overflow dest_index

[vqavideo @ 0230d740] current src_pos = 1616, count = 8, dest_size = 1048576
Error while decoding stream #0:0: Invalid data found when processing input
[vqavideo @ 0230d740] decode_format80 problem: next op would overflow dest_index

[vqavideo @ 0230d740] current src_pos = 1616, count = 8, dest_size = 1048576
Error while decoding stream #0:0: Invalid data found when processing input
[vqavideo @ 0230d740] decode_format80 problem: next op would overflow dest_index

[vqavideo @ 0230d740] current src_pos = 86, count = 3, dest_size = 1048576
Error while decoding stream #0:0: Invalid data found when processing input
[vqavideo @ 0230d740] decode_format80 problem: next op would overflow dest_index

[vqavideo @ 0230d740] current src_pos = 86, count = 3, dest_size = 1048576
Error while decoding stream #0:0: Invalid data found when processing input
[vqavideo @ 0230d740] decode_format80 problem: next op would overflow dest_index

[vqavideo @ 0230d740] current src_pos = 86, count = 3, dest_size = 1048576
Error while decoding stream #0:0: Invalid data found when processing input
[vqavideo @ 0230d740] decode_format80 problem: next op would overflow dest_index

[vqavideo @ 0230d740] current src_pos = 86, count = 3, dest_size = 1048576
Error while decoding stream #0:0: Invalid data found when processing input
[vqavideo @ 0230d740] decode_format80 problem: next op would overflow dest_index

[vqavideo @ 0230d740] current src_pos = 86, count = 3, dest_size = 1048576
Error while decoding stream #0:0: Invalid data found when processing input
[vqavideo @ 0230d740] decode_format80 problem: next op would overflow dest_index

[vqavideo @ 0230d740] current src_pos = 86, count = 3, dest_size = 1048576
Error while decoding stream #0:0: Invalid data found when processing input
[vqavideo @ 0230d740] decode_format80 problem: next op would overflow dest_index

[vqavideo @ 0230d740] current src_pos = 86, count = 3, dest_size = 1048576
Error while decoding stream #0:0: Invalid data found when processing input
[vqavideo @ 0230d740] decode_format80 problem: next op would overflow dest_index

[vqavideo @ 0230d740] current src_pos = 86, count = 3, dest_size = 1048576
Error while decoding stream #0:0: Invalid data found when processing input
[vqavideo @ 0230d740] decode_format80 problem: next op would overflow dest_index

[vqavideo @ 0230d740] current src_pos = 86, count = 3, dest_size = 1048576
Error while decoding stream #0:0: Invalid data found when processing input
[vqavideo @ 0230d740] decode_format80 problem: next op would overflow dest_index

[vqavideo @ 0230d740] current src_pos = 86, count = 3, dest_size = 1048576
Error while decoding stream #0:0: Invalid data found when processing input
[vqavideo @ 0230d740] decode_format80 problem: next op would overflow dest_index

[vqavideo @ 0230d740] current src_pos = 86, count = 3, dest_size = 1048576
Error while decoding stream #0:0: Invalid data found when processing input
[vqavideo @ 0230d740] decode_format80 problem: next op would overflow dest_index

[vqavideo @ 0230d740] current src_pos = 86, count = 3, dest_size = 1048576
Error while decoding stream #0:0: Invalid data found when processing input
[vqavideo @ 0230d740] decode_format80 problem: next op would overflow dest_index

[vqavideo @ 0230d740] current src_pos = 86, count = 3, dest_size = 1048576
Error while decoding stream #0:0: Invalid data found when processing input
[vqavideo @ 0230d740] decode_format80 problem: next op would overflow dest_index

[vqavideo @ 0230d740] current src_pos = 86, count = 3, dest_size = 1048576
Error while decoding stream #0:0: Invalid data found when processing input
[vqavideo @ 0230d740] decode_format80 problem: next op would overflow dest_index

[vqavideo @ 0230d740] current src_pos = 86, count = 3, dest_size = 1048576
Error while decoding stream #0:0: Invalid data found when processing input
[vqavideo @ 0230d740] decode_format80 problem: next op would overflow dest_index

[vqavideo @ 0230d740] current src_pos = 1616, count = 8, dest_size = 1048576
Error while decoding stream #0:0: Invalid data found when processing input
[vqavideo @ 0230d740] decode_format80 problem: next op would overflow dest_index

[vqavideo @ 0230d740] current src_pos = 1616, count = 8, dest_size = 1048576
Error while decoding stream #0:0: Invalid data found when processing input
[vqavideo @ 0230d740] decode_format80 problem: next op would overflow dest_index

[vqavideo @ 0230d740] current src_pos = 1616, count = 8, dest_size = 1048576
Error while decoding stream #0:0: Invalid data found when processing input
[vqavideo @ 0230d740] decode_format80 problem: next op would overflow dest_index

[vqavideo @ 0230d740] current src_pos = 1616, count = 8, dest_size = 1048576
Error while decoding stream #0:0: Invalid data found when processing input
[vqavideo @ 0230d740] decode_format80 problem: next op would overflow dest_index

[vqavideo @ 0230d740] current src_pos = 1616, count = 8, dest_size = 1048576
Error while decoding stream #0:0: Invalid data found when processing input
[vqavideo @ 0230d740] decode_format80 problem: next op would overflow dest_index

[vqavideo @ 0230d740] current src_pos = 1616, count = 8, dest_size = 1048576
Error while decoding stream #0:0: Invalid data found when processing input
[vqavideo @ 0230d740] decode_format80 problem: next op would overflow dest_index

[vqavideo @ 0230d740] current src_pos = 1616, count = 8, dest_size = 1048576
Error while decoding stream #0:0: Invalid data found when processing input
[vqavideo @ 0230d740] decode_format80 problem: next op would overflow dest_index

[vqavideo @ 0230d740] current src_pos = 1616, count = 8, dest_size = 1048576
Error while decoding stream #0:0: Invalid data found when processing input
[vqavideo @ 0230d740] decode_format80 problem: next op would overflow dest_index

[vqavideo @ 0230d740] current src_pos = 86, count = 3, dest_size = 1048576
Error while decoding stream #0:0: Invalid data found when processing input
[vqavideo @ 0230d740] decode_format80 problem: next op would overflow dest_index

[vqavideo @ 0230d740] current src_pos = 1616, count = 8, dest_size = 1048576
Error while decoding stream #0:0: Invalid data found when processing input
[vqavideo @ 0230d740] decode_format80 problem: next op would overflow dest_index

[vqavideo @ 0230d740] current src_pos = 1616, count = 8, dest_size = 1048576
Error while decoding stream #0:0: Invalid data found when processing input
[vqavideo @ 0230d740] decode_format80 problem: next op would overflow dest_index

[vqavideo @ 0230d740] current src_pos = 1616, count = 8, dest_size = 1048576
Error while decoding stream #0:0: Invalid data found when processing input
[vqavideo @ 0230d740] decode_format80 problem: next op would overflow dest_index

[vqavideo @ 0230d740] current src_pos = 1616, count = 8, dest_size = 1048576
Error while decoding stream #0:0: Invalid data found when processing input
[vqavideo @ 0230d740] decode_format80 problem: next op would overflow dest_index

[vqavideo @ 0230d740] current src_pos = 1616, count = 8, dest_size = 1048576
Error while decoding stream #0:0: Invalid data found when processing input
[vqavideo @ 0230d740] decode_format80 problem: next op would overflow dest_index

[vqavideo @ 0230d740] current src_pos = 1616, count = 8, dest_size = 1048576
Error while decoding stream #0:0: Invalid data found when processing input
[vqavideo @ 0230d740] decode_format80 problem: next op would overflow dest_index

[vqavideo @ 0230d740] current src_pos = 1616, count = 8, dest_size = 1048576
Error while decoding stream #0:0: Invalid data found when processing input
[vqavideo @ 0230d740] decode_format80 problem: next op would overflow dest_index

[vqavideo @ 0230d740] current src_pos = 86, count = 3, dest_size = 1048576
Error while decoding stream #0:0: Invalid data found when processing input
[vqavideo @ 0230d740] decode_format80 problem: next op would overflow dest_index

[vqavideo @ 0230d740] current src_pos = 1616, count = 8, dest_size = 1048576
Error while decoding stream #0:0: Invalid data found when processing input
[vqavideo @ 0230d740] decode_format80 problem: next op would overflow dest_index

[vqavideo @ 0230d740] current src_pos = 1616, count = 8, dest_size = 1048576
Error while decoding stream #0:0: Invalid data found when processing input
[vqavideo @ 0230d740] decode_format80 problem: next op would overflow dest_index

[vqavideo @ 0230d740] current src_pos = 1616, count = 8, dest_size = 1048576
Error while decoding stream #0:0: Invalid data found when processing input
[vqavideo @ 0230d740] decode_format80 problem: next op would overflow dest_index

[vqavideo @ 0230d740] current src_pos = 1616, count = 8, dest_size = 1048576
Error while decoding stream #0:0: Invalid data found when processing input
[vqavideo @ 0230d740] decode_format80 problem: next op would overflow dest_index

[vqavideo @ 0230d740] current src_pos = 1616, count = 8, dest_size = 1048576
Error while decoding stream #0:0: Invalid data found when processing input
[vqavideo @ 0230d740] decode_format80 problem: next op would overflow dest_index

[vqavideo @ 0230d740] current src_pos = 1616, count = 8, dest_size = 1048576
Error while decoding stream #0:0: Invalid data found when processing input
[vqavideo @ 0230d740] decode_format80 problem: next op would overflow dest_index

[vqavideo @ 0230d740] current src_pos = 1616, count = 8, dest_size = 1048576
Error while decoding stream #0:0: Invalid data found when processing input
[vqavideo @ 0230d740] decode_format80 problem: next op would overflow dest_index

[vqavideo @ 0230d740] current src_pos = 1616, count = 8, dest_size = 1048576
Error while decoding stream #0:0: Invalid data found when processing input
[vqavideo @ 0230d740] decode_format80 problem: next op would overflow dest_index

[vqavideo @ 0230d740] current src_pos = 86, count = 3, dest_size = 1048576
Error while decoding stream #0:0: Invalid data found when processing input
[vqavideo @ 0230d740] decode_format80 problem: next op would overflow dest_index

[vqavideo @ 0230d740] current src_pos = 86, count = 3, dest_size = 1048576
Error while decoding stream #0:0: Invalid data found when processing input
[vqavideo @ 0230d740] decode_format80 problem: next op would overflow dest_index

[vqavideo @ 0230d740] current src_pos = 86, count = 3, dest_size = 1048576
Error while decoding stream #0:0: Invalid data found when processing input
[vqavideo @ 0230d740] decode_format80 problem: next op would overflow dest_index

[vqavideo @ 0230d740] current src_pos = 86, count = 3, dest_size = 1048576
Error while decoding stream #0:0: Invalid data found when processing input
[vqavideo @ 0230d740] decode_format80 problem: next op would overflow dest_index

[vqavideo @ 0230d740] current src_pos = 86, count = 3, dest_size = 1048576
Error while decoding stream #0:0: Invalid data found when processing input
[vqavideo @ 0230d740] decode_format80 problem: next op would overflow dest_index

[vqavideo @ 0230d740] current src_pos = 86, count = 3, dest_size = 1048576
Error while decoding stream #0:0: Invalid data found when processing input
[vqavideo @ 0230d740] decode_format80 problem: next op would overflow dest_index

[vqavideo @ 0230d740] current src_pos = 86, count = 3, dest_size = 1048576
Error while decoding stream #0:0: Invalid data found when processing input
[vqavideo @ 0230d740] decode_format80 problem: next op would overflow dest_index

[vqavideo @ 0230d740] current src_pos = 86, count = 3, dest_size = 1048576
Error while decoding stream #0:0: Invalid data found when processing input
[vqavideo @ 0230d740] decode_format80 problem: next op would overflow dest_index

[vqavideo @ 0230d740] current src_pos = 1616, count = 8, dest_size = 1048576
Error while decoding stream #0:0: Invalid data found when processing input
[vqavideo @ 0230d740] decode_format80 problem: next op would overflow dest_index

[vqavideo @ 0230d740] current src_pos = 1616, count = 8, dest_size = 1048576
Error while decoding stream #0:0: Invalid data found when processing input
[vqavideo @ 0230d740] decode_format80 problem: next op would overflow dest_index

[vqavideo @ 0230d740] current src_pos = 1616, count = 8, dest_size = 1048576
Error while decoding stream #0:0: Invalid data found when processing input
[vqavideo @ 0230d740] decode_format80 problem: next op would overflow dest_index

[vqavideo @ 0230d740] current src_pos = 1616, count = 8, dest_size = 1048576
Error while decoding stream #0:0: Invalid data found when processing input
[vqavideo @ 0230d740] decode_format80 problem: next op would overflow dest_index

[vqavideo @ 0230d740] current src_pos = 1616, count = 8, dest_size = 1048576
Error while decoding stream #0:0: Invalid data found when processing input
[vqavideo @ 0230d740] decode_format80 problem: next op would overflow dest_index

[vqavideo @ 0230d740] current src_pos = 1616, count = 8, dest_size = 1048576
Error while decoding stream #0:0: Invalid data found when processing input
[vqavideo @ 0230d740] decode_format80 problem: next op would overflow dest_index

[vqavideo @ 0230d740] current src_pos = 1616, count = 8, dest_size = 1048576
Error while decoding stream #0:0: Invalid data found when processing input
[vqavideo @ 0230d740] decode_format80 problem: next op would overflow dest_index

[vqavideo @ 0230d740] current src_pos = 1616, count = 8, dest_size = 1048576
Error while decoding stream #0:0: Invalid data found when processing input
[vqavideo @ 0230d740] decode_format80 problem: next op would overflow dest_index

[vqavideo @ 0230d740] current src_pos = 1616, count = 8, dest_size = 1048576
Error while decoding stream #0:0: Invalid data found when processing input
[vqavideo @ 0230d740] decode_format80 problem: next op would overflow dest_index

[vqavideo @ 0230d740] current src_pos = 1616, count = 8, dest_size = 1048576
Error while decoding stream #0:0: Invalid data found when processing input
[vqavideo @ 0230d740] decode_format80 problem: next op would overflow dest_index

[vqavideo @ 0230d740] current src_pos = 1616, count = 8, dest_size = 1048576
Error while decoding stream #0:0: Invalid data found when processing input
[vqavideo @ 0230d740] decode_format80 problem: next op would overflow dest_index

[vqavideo @ 0230d740] current src_pos = 1616, count = 8, dest_size = 1048576
Error while decoding stream #0:0: Invalid data found when processing input
[vqavideo @ 0230d740] decode_format80 problem: next op would overflow dest_index

[vqavideo @ 0230d740] current src_pos = 1616, count = 8, dest_size = 1048576
Error while decoding stream #0:0: Invalid data found when processing input
[vqavideo @ 0230d740] decode_format80 problem: next op would overflow dest_index

[vqavideo @ 0230d740] current src_pos = 1616, count = 8, dest_size = 1048576
Error while decoding stream #0:0: Invalid data found when processing input
[vqavideo @ 0230d740] decode_format80 problem: next op would overflow dest_index

[vqavideo @ 0230d740] current src_pos = 1616, count = 8, dest_size = 1048576
Error while decoding stream #0:0: Invalid data found when processing input
[vqavideo @ 0230d740] decode_format80 problem: next op would overflow dest_index

[vqavideo @ 0230d740] current src_pos = 1616, count = 8, dest_size = 1048576
Error while decoding stream #0:0: Invalid data found when processing input
frame=    7 fps=0.0 q=4.7 size=      77kB time=00:00:00.46 bitrate=1343.9kbits/s
decode_format80 problem: next op would overflow dest_index
[vqavideo @ 0230d740] current src_pos = 1616, count = 8, dest_size = 1048576
Error while decoding stream #0:0: Invalid data found when processing input
[vqavideo @ 0230d740] decode_format80 problem: next op would overflow dest_index

[vqavideo @ 0230d740] current src_pos = 1616, count = 8, dest_size = 1048576
Error while decoding stream #0:0: Invalid data found when processing input
[vqavideo @ 0230d740] decode_format80 problem: next op would overflow dest_index

[vqavideo @ 0230d740] current src_pos = 1616, count = 8, dest_size = 1048576
Error while decoding stream #0:0: Invalid data found when processing input
[vqavideo @ 0230d740] decode_format80 problem: next op would overflow dest_index

[vqavideo @ 0230d740] current src_pos = 1616, count = 8, dest_size = 1048576
Error while decoding stream #0:0: Invalid data found when processing input
[vqavideo @ 0230d740] decode_format80 problem: next op would overflow dest_index

[vqavideo @ 0230d740] current src_pos = 1616, count = 8, dest_size = 1048576
Error while decoding stream #0:0: Invalid data found when processing input
[vqavideo @ 0230d740] decode_format80 problem: next op would overflow dest_index

[vqavideo @ 0230d740] current src_pos = 1616, count = 8, dest_size = 1048576
Error while decoding stream #0:0: Invalid data found when processing input
[vqavideo @ 0230d740] decode_format80 problem: next op would overflow dest_index

[vqavideo @ 0230d740] current src_pos = 1616, count = 8, dest_size = 1048576
Error while decoding stream #0:0: Invalid data found when processing input
[vqavideo @ 0230d740] decode_format80 problem: next op would overflow dest_index

[vqavideo @ 0230d740] current src_pos = 1616, count = 8, dest_size = 1048576
Error while decoding stream #0:0: Invalid data found when processing input
[vqavideo @ 0230d740] decode_format80 problem: next op would overflow dest_index

[vqavideo @ 0230d740] current src_pos = 1616, count = 8, dest_size = 1048576
Error while decoding stream #0:0: Invalid data found when processing input
[vqavideo @ 0230d740] decode_format80 problem: next op would overflow dest_index

[vqavideo @ 0230d740] current src_pos = 1616, count = 8, dest_size = 1048576
Error while decoding stream #0:0: Invalid data found when processing input
[vqavideo @ 0230d740] decode_format80 problem: next op would overflow dest_index

[vqavideo @ 0230d740] current src_pos = 1616, count = 8, dest_size = 1048576
Error while decoding stream #0:0: Invalid data found when processing input
[vqavideo @ 0230d740] decode_format80 problem: next op would overflow dest_index

[vqavideo @ 0230d740] current src_pos = 1616, count = 8, dest_size = 1048576
Error while decoding stream #0:0: Invalid data found when processing input
[vqavideo @ 0230d740] decode_format80 problem: next op would overflow dest_index

[vqavideo @ 0230d740] current src_pos = 1616, count = 8, dest_size = 1048576
Error while decoding stream #0:0: Invalid data found when processing input
[vqavideo @ 0230d740] decode_format80 problem: next op would overflow dest_index

[vqavideo @ 0230d740] current src_pos = 1616, count = 8, dest_size = 1048576
Error while decoding stream #0:0: Invalid data found when processing input
[vqavideo @ 0230d740] decode_format80 problem: next op would overflow dest_index

[vqavideo @ 0230d740] current src_pos = 1616, count = 8, dest_size = 1048576
Error while decoding stream #0:0: Invalid data found when processing input
[vqavideo @ 0230d740] decode_format80 problem: next op would overflow dest_index

[vqavideo @ 0230d740] current src_pos = 86, count = 3, dest_size = 1048576
Error while decoding stream #0:0: Invalid data found when processing input
[vqavideo @ 0230d740] decode_format80 problem: next op would overflow dest_index

[vqavideo @ 0230d740] current src_pos = 1616, count = 8, dest_size = 1048576
Error while decoding stream #0:0: Invalid data found when processing input
[vqavideo @ 0230d740] decode_format80 problem: next op would overflow dest_index

[vqavideo @ 0230d740] current src_pos = 1616, count = 8, dest_size = 1048576
Error while decoding stream #0:0: Invalid data found when processing input
[vqavideo @ 0230d740] decode_format80 problem: next op would overflow dest_index

[vqavideo @ 0230d740] current src_pos = 1616, count = 8, dest_size = 1048576
Error while decoding stream #0:0: Invalid data found when processing input
[vqavideo @ 0230d740] decode_format80 problem: next op would overflow dest_index

[vqavideo @ 0230d740] current src_pos = 1616, count = 8, dest_size = 1048576
Error while decoding stream #0:0: Invalid data found when processing input
[vqavideo @ 0230d740] decode_format80 problem: next op would overflow dest_index

[vqavideo @ 0230d740] current src_pos = 1616, count = 8, dest_size = 1048576
Error while decoding stream #0:0: Invalid data found when processing input
[vqavideo @ 0230d740] decode_format80 problem: next op would overflow dest_index

[vqavideo @ 0230d740] current src_pos = 1616, count = 8, dest_size = 1048576
Error while decoding stream #0:0: Invalid data found when processing input
[vqavideo @ 0230d740] decode_format80 problem: next op would overflow dest_index

[vqavideo @ 0230d740] current src_pos = 1616, count = 8, dest_size = 1048576
Error while decoding stream #0:0: Invalid data found when processing input
[vqavideo @ 0230d740] decode_format80 problem: next op would overflow dest_index

[vqavideo @ 0230d740] current src_pos = 86, count = 3, dest_size = 1048576
Error while decoding stream #0:0: Invalid data found when processing input
[vqavideo @ 0230d740] decode_format80 problem: next op would overflow dest_index

[vqavideo @ 0230d740] current src_pos = 1616, count = 8, dest_size = 1048576
Error while decoding stream #0:0: Invalid data found when processing input
[vqavideo @ 0230d740] decode_format80 problem: next op would overflow dest_index

[vqavideo @ 0230d740] current src_pos = 1616, count = 8, dest_size = 1048576
Error while decoding stream #0:0: Invalid data found when processing input
[vqavideo @ 0230d740] decode_format80 problem: next op would overflow dest_index

[vqavideo @ 0230d740] current src_pos = 1616, count = 8, dest_size = 1048576
Error while decoding stream #0:0: Invalid data found when processing input
[vqavideo @ 0230d740] decode_format80 problem: next op would overflow dest_index

[vqavideo @ 0230d740] current src_pos = 1616, count = 8, dest_size = 1048576
Error while decoding stream #0:0: Invalid data found when processing input
[vqavideo @ 0230d740] decode_format80 problem: next op would overflow dest_index

[vqavideo @ 0230d740] current src_pos = 1616, count = 8, dest_size = 1048576
Error while decoding stream #0:0: Invalid data found when processing input
[vqavideo @ 0230d740] decode_format80 problem: next op would overflow dest_index

[vqavideo @ 0230d740] current src_pos = 1616, count = 8, dest_size = 1048576
Error while decoding stream #0:0: Invalid data found when processing input
[vqavideo @ 0230d740] decode_format80 problem: next op would overflow dest_index

[vqavideo @ 0230d740] current src_pos = 1616, count = 8, dest_size = 1048576
Error while decoding stream #0:0: Invalid data found when processing input
[vqavideo @ 0230d740] decode_format80 problem: next op would overflow dest_index

[vqavideo @ 0230d740] current src_pos = 86, count = 3, dest_size = 1048576
Error while decoding stream #0:0: Invalid data found when processing input
[vqavideo @ 0230d740] decode_format80 problem: next op would overflow dest_index

[vqavideo @ 0230d740] current src_pos = 1616, count = 8, dest_size = 1048576
Error while decoding stream #0:0: Invalid data found when processing input
[vqavideo @ 0230d740] decode_format80 problem: next op would overflow dest_index

[vqavideo @ 0230d740] current src_pos = 1616, count = 8, dest_size = 1048576
Error while decoding stream #0:0: Invalid data found when processing input
[vqavideo @ 0230d740] decode_format80 problem: next op would overflow dest_index

[vqavideo @ 0230d740] current src_pos = 1616, count = 8, dest_size = 1048576
Error while decoding stream #0:0: Invalid data found when processing input
[vqavideo @ 0230d740] decode_format80 problem: next op would overflow dest_index

[vqavideo @ 0230d740] current src_pos = 1616, count = 8, dest_size = 1048576
Error while decoding stream #0:0: Invalid data found when processing input
[vqavideo @ 0230d740] decode_format80 problem: next op would overflow dest_index

[vqavideo @ 0230d740] current src_pos = 1616, count = 8, dest_size = 1048576
Error while decoding stream #0:0: Invalid data found when processing input
[vqavideo @ 0230d740] decode_format80 problem: next op would overflow dest_index

[vqavideo @ 0230d740] current src_pos = 1616, count = 8, dest_size = 1048576
Error while decoding stream #0:0: Invalid data found when processing input
[vqavideo @ 0230d740] decode_format80 problem: next op would overflow dest_index

[vqavideo @ 0230d740] current src_pos = 1616, count = 8, dest_size = 1048576
Error while decoding stream #0:0: Invalid data found when processing input
[vqavideo @ 0230d740] decode_format80 problem: next op would overflow dest_index

[vqavideo @ 0230d740] current src_pos = 86, count = 3, dest_size = 1048576
Error while decoding stream #0:0: Invalid data found when processing input
[vqavideo @ 0230d740] decode_format80 problem: next op would overflow dest_index

[vqavideo @ 0230d740] current src_pos = 86, count = 3, dest_size = 1048576
Error while decoding stream #0:0: Invalid data found when processing input
[vqavideo @ 0230d740] decode_format80 problem: next op would overflow dest_index

[vqavideo @ 0230d740] current src_pos = 86, count = 3, dest_size = 1048576
Error while decoding stream #0:0: Invalid data found when processing input
[vqavideo @ 0230d740] decode_format80 problem: next op would overflow dest_index

[vqavideo @ 0230d740] current src_pos = 86, count = 3, dest_size = 1048576
Error while decoding stream #0:0: Invalid data found when processing input
[vqavideo @ 0230d740] decode_format80 problem: next op would overflow dest_index

[vqavideo @ 0230d740] current src_pos = 86, count = 3, dest_size = 1048576
Error while decoding stream #0:0: Invalid data found when processing input
[vqavideo @ 0230d740] decode_format80 problem: next op would overflow dest_index

[vqavideo @ 0230d740] current src_pos = 86, count = 3, dest_size = 1048576
Error while decoding stream #0:0: Invalid data found when processing input
[vqavideo @ 0230d740] decode_format80 problem: next op would overflow dest_index

[vqavideo @ 0230d740] current src_pos = 86, count = 3, dest_size = 1048576
Error while decoding stream #0:0: Invalid data found when processing input
[vqavideo @ 0230d740] decode_format80 problem: next op would overflow dest_index

[vqavideo @ 0230d740] current src_pos = 86, count = 3, dest_size = 1048576
Error while decoding stream #0:0: Invalid data found when processing input
[vqavideo @ 0230d740] decode_format80 problem: next op would overflow dest_index

[vqavideo @ 0230d740] current src_pos = 1616, count = 8, dest_size = 1048576
Error while decoding stream #0:0: Invalid data found when processing input
[vqavideo @ 0230d740] decode_format80 problem: next op would overflow dest_index

[vqavideo @ 0230d740] current src_pos = 86, count = 3, dest_size = 1048576
Error while decoding stream #0:0: Invalid data found when processing input
[vqavideo @ 0230d740] decode_format80 problem: next op would overflow dest_index

[vqavideo @ 0230d740] current src_pos = 86, count = 3, dest_size = 1048576
Error while decoding stream #0:0: Invalid data found when processing input
[vqavideo @ 0230d740] decode_format80 problem: next op would overflow dest_index

[vqavideo @ 0230d740] current src_pos = 86, count = 3, dest_size = 1048576
Error while decoding stream #0:0: Invalid data found when processing input
[vqavideo @ 0230d740] decode_format80 problem: next op would overflow dest_index

[vqavideo @ 0230d740] current src_pos = 86, count = 3, dest_size = 1048576
Error while decoding stream #0:0: Invalid data found when processing input
[vqavideo @ 0230d740] decode_format80 problem: next op would overflow dest_index

[vqavideo @ 0230d740] current src_pos = 86, count = 3, dest_size = 1048576
Error while decoding stream #0:0: Invalid data found when processing input
[vqavideo @ 0230d740] decode_format80 problem: next op would overflow dest_index

[vqavideo @ 0230d740] current src_pos = 86, count = 3, dest_size = 1048576
Error while decoding stream #0:0: Invalid data found when processing input
[vqavideo @ 0230d740] decode_format80 problem: next op would overflow dest_index

[vqavideo @ 0230d740] current src_pos = 86, count = 3, dest_size = 1048576
Error while decoding stream #0:0: Invalid data found when processing input
[vqavideo @ 0230d740] decode_format80 problem: next op would overflow dest_index

[vqavideo @ 0230d740] current src_pos = 1616, count = 8, dest_size = 1048576
Error while decoding stream #0:0: Invalid data found when processing input
[vqavideo @ 0230d740] decode_format80 problem: next op would overflow dest_index

[vqavideo @ 0230d740] current src_pos = 1616, count = 8, dest_size = 1048576
Error while decoding stream #0:0: Invalid data found when processing input
[vqavideo @ 0230d740] decode_format80 problem: next op would overflow dest_index

[vqavideo @ 0230d740] current src_pos = 1616, count = 8, dest_size = 1048576
Error while decoding stream #0:0: Invalid data found when processing input
[vqavideo @ 0230d740] decode_format80 problem: next op would overflow dest_index

[vqavideo @ 0230d740] current src_pos = 1616, count = 8, dest_size = 1048576
Error while decoding stream #0:0: Invalid data found when processing input
[vqavideo @ 0230d740] decode_format80 problem: next op would overflow dest_index

[vqavideo @ 0230d740] current src_pos = 1616, count = 8, dest_size = 1048576
Error while decoding stream #0:0: Invalid data found when processing input
[vqavideo @ 0230d740] decode_format80 problem: next op would overflow dest_index

[vqavideo @ 0230d740] current src_pos = 1616, count = 8, dest_size = 1048576
Error while decoding stream #0:0: Invalid data found when processing input
[vqavideo @ 0230d740] decode_format80 problem: next op would overflow dest_index

[vqavideo @ 0230d740] current src_pos = 1616, count = 8, dest_size = 1048576
Error while decoding stream #0:0: Invalid data found when processing input
[vqavideo @ 0230d740] decode_format80 problem: next op would overflow dest_index

[vqavideo @ 0230d740] current src_pos = 1616, count = 8, dest_size = 1048576
Error while decoding stream #0:0: Invalid data found when processing input
[vqavideo @ 0230d740] decode_format80 problem: next op would overflow dest_index

[vqavideo @ 0230d740] current src_pos = 1616, count = 8, dest_size = 1048576
Error while decoding stream #0:0: Invalid data found when processing input
[vqavideo @ 0230d740] decode_format80 problem: next op would overflow dest_index

[vqavideo @ 0230d740] current src_pos = 86, count = 3, dest_size = 1048576
Error while decoding stream #0:0: Invalid data found when processing input
[vqavideo @ 0230d740] decode_format80 problem: next op would overflow dest_index

[vqavideo @ 0230d740] current src_pos = 86, count = 3, dest_size = 1048576
Error while decoding stream #0:0: Invalid data found when processing input
[vqavideo @ 0230d740] decode_format80 problem: next op would overflow dest_index

[vqavideo @ 0230d740] current src_pos = 86, count = 3, dest_size = 1048576
Error while decoding stream #0:0: Invalid data found when processing input
[vqavideo @ 0230d740] decode_format80 problem: next op would overflow dest_index

[vqavideo @ 0230d740] current src_pos = 86, count = 3, dest_size = 1048576
Error while decoding stream #0:0: Invalid data found when processing input
[vqavideo @ 0230d740] decode_format80 problem: next op would overflow dest_index

[vqavideo @ 0230d740] current src_pos = 86, count = 3, dest_size = 1048576
Error while decoding stream #0:0: Invalid data found when processing input
[vqavideo @ 0230d740] decode_format80 problem: next op would overflow dest_index

[vqavideo @ 0230d740] current src_pos = 86, count = 3, dest_size = 1048576
Error while decoding stream #0:0: Invalid data found when processing input
[vqavideo @ 0230d740] decode_format80 problem: next op would overflow dest_index

[vqavideo @ 0230d740] current src_pos = 86, count = 3, dest_size = 1048576
Error while decoding stream #0:0: Invalid data found when processing input
[vqavideo @ 0230d740] decode_format80 problem: next op would overflow dest_index

[vqavideo @ 0230d740] current src_pos = 1616, count = 8, dest_size = 1048576
Error while decoding stream #0:0: Invalid data found when processing input
frame=   15 fps=0.0 q=18.6 Lsize=     208kB time=00:00:10.66 bitrate= 159.7kbits
/s
video:140kB audio:44kB global headers:0kB muxing overhead 12.882857%

comment:3 Changed 5 years ago by cehoyos

  • Keywords vqa regression added
  • Priority changed from normal to important
  • Reproduced by developer set
  • Status changed from new to open
  • Version changed from unspecified to git-master

Regression since 0f73ac3 (change in line 573 was not correct).

comment:4 Changed 5 years ago by cehoyos

  • Component changed from undetermined to avcodec

comment:5 Changed 5 years ago by cehoyos

  • Resolution set to fixed
  • Status changed from open to closed

Should be fixed, thank you for the report!

Note: See TracTickets for help on using tickets.