Opened 4 years ago

Closed 12 months ago

#1866 closed defect (fixed)

Half speed video output ts -> flv transcode

Reported by: larvalho Owned by:
Priority: normal Component: undetermined
Version: git-master Keywords: h264 mpegts desync
Cc: Blocked By:
Blocking: Reproduced by developer: yes
Analyzed by developer: no

Description

Summary of the bug:
Some mpeg 2 ts files (h264 + aac, generated by Crestron Lecture Capture), when transcoded using ffmpeg to flv, produce video that plays back at half the speed (frame rate is retained but number of frames is doubled), while the audio is rendered correctly. There is a 10 minute delay to the video, but this is in the original file, and eliminated with a '-vf setpts=PTS-STARTPTS'.

The file plays back fine in VLC, mPlayer, etc.

ffmpeg started on 2012-10-29 at 15:21:55
Report written to "ffmpeg-20121029-152155.log"
Command line:
ffmpeg -i CAPTURE-HD2959dd_1970-01-02_01_26_49.ts -f flv -vf "setpts=PTS-STARTPTS" -ar 44100 CAPTURE2.flv -report
ffmpeg version N-46127-g7d1e003 Copyright (c) 2000-2012 the FFmpeg developers
  built on Oct 29 2012 14:08:25 with gcc 4.4.6 (GCC) 20120305 (Red Hat 4.4.6-4)
  configuration: --disable-shared --enable-nonfree --enable-gpl --enable-libfaac --enable-libmp3lame --enable-libopenjpeg --enable-libschroedinger --enable-libtheora --enable-libvorbis --enable-libx264 --enable-libxvid --disable-encoder=nellymoser --enable-avfilter --disable-debug --enable-postproc --enable-pthreads --enable-mmx --enable-sse --enable-ssse3 --enable-yasm --enable-libgsm --enable-libspeex --enable-libopencore-amrnb --enable-libopencore-amrwb --enable-version3 --extra-ldflags='-L/usr/local/lib -Wl,-rpath /usr/local/lib'
  libavutil      52.  1.100 / 52.  1.100
  libavcodec     54. 69.100 / 54. 69.100
  libavformat    54. 35.100 / 54. 35.100
  libavdevice    54.  3.100 / 54.  3.100
  libavfilter     3. 20.106 /  3. 20.106
  libswscale      2.  1.101 /  2.  1.101
  libswresample   0. 16.100 /  0. 16.100
  libpostproc    52.  1.100 / 52.  1.100
[mpegts @ 0x32dc040] Format mpegts probed with size=2048 and score=100
[mpegts @ 0x32dc040] stream=0 stream_type=1b pid=1011 prog_reg_desc=
[mpegts @ 0x32dc040] stream=1 stream_type=f pid=1012 prog_reg_desc=
[mpegts @ 0x32dc040] stream=2 stream_type=6 pid=1013 prog_reg_desc=
[mpegts @ 0x32dc040] File position before avformat_find_stream_info() is 0
[mpegts @ 0x32dc040] parser not found for codec none, packets or times may be invalid.
[h264 @ 0x32dfe40] Current profile doesn't provide more RBSP data in PPS, skipping
[h264 @ 0x32dfe40] Current profile doesn't provide more RBSP data in PPS, skipping
[h264 @ 0x32dfe40] Current profile doesn't provide more RBSP data in PPS, skipping
[h264 @ 0x32dfe40] Current profile doesn't provide more RBSP data in PPS, skipping
[h264 @ 0x32dfe40] Current profile doesn't provide more RBSP data in PPS, skipping
[h264 @ 0x32dfe40] Current profile doesn't provide more RBSP data in PPS, skipping
[h264 @ 0x32dfe40] Current profile doesn't provide more RBSP data in PPS, skipping
[h264 @ 0x32dfe40] Current profile doesn't provide more RBSP data in PPS, skipping
[h264 @ 0x32dfe40] Current profile doesn't provide more RBSP data in PPS, skipping
[h264 @ 0x32dfe40] Current profile doesn't provide more RBSP data in PPS, skipping
[mpegts @ 0x32dc040] max_analyze_duration 5000000 reached at 5013333
[mpegts @ 0x32dc040] Could not find codec parameters for stream 2 (Unknown: none ([6][0][0][0] / 0x0006)): unknown codec
Consider increasing the value for the 'analyzeduration' and 'probesize' options
[NULL @ 0x32e1080] start time is not set in estimate_timings_from_pts
[mpegts @ 0x32dc040] File position after avformat_find_stream_info() is 0
Input #0, mpegts, from 'CAPTURE-HD2959dd_1970-01-02_01_26_49.ts':
  Duration: 00:00:24.57, start: 599.983333, bitrate: 2824 kb/s
  Program 1 
    Stream #0:0[0x1011], 295, 1/90000: Video: h264 (Main) ([27][0][0][0] / 0x001B), yuv420p, 1280x720 [SAR 1:1 DAR 16:9], 60 fps, 60 tbr, 90k tbn, 120 tbc
    Stream #0:1[0x1012], 237, 1/90000: Audio: aac ([15][0][0][0] / 0x000F), 48000 Hz, stereo, s16, 134 kb/s
    Stream #0:2[0x1013], 0, 1/90000: Unknown: none ([6][0][0][0] / 0x0006)
Setting entry with key 'video_size' to value '1280x720'
[buffer @ 0x32d1500] Setting entry with key 'pix_fmt' to value '0'
[buffer @ 0x32d1500] Setting entry with key 'time_base' to value '1/90000'
[buffer @ 0x32d1500] Setting entry with key 'pixel_aspect' to value '1/1'
[buffer @ 0x32d1500] Setting entry with key 'sws_param' to value 'flags=2'
[buffer @ 0x32d1500] Setting entry with key 'frame_rate' to value '60/1'
[graph 0 input from stream 0:0 @ 0x32d1980] w:1280 h:720 pixfmt:yuv420p tb:1/90000 fr:60/1 sar:1/1 sws_param:flags=2
[graph 0 input from stream 0:0 @ 0x32d1980] TB:0.000011 FRAME_RATE:60.000000 SAMPLE_RATE:nan
[abuffer @ 0x32d18a0] Setting entry with key 'time_base' to value '1/48000'
[abuffer @ 0x32d18a0] Setting entry with key 'sample_rate' to value '48000'
[abuffer @ 0x32d18a0] Setting entry with key 'sample_fmt' to value 's16'
[abuffer @ 0x32d18a0] Setting entry with key 'channel_layout' to value '0x3'
[graph 1 input from stream 0:1 @ 0x32d1480] tb:1/48000 samplefmt:s16 samplerate:48000 chlayout:0x3
[aformat @ 0x32d2060] Setting entry with key 'sample_fmts' to value 's32p,fltp,s16p'
[aformat @ 0x32d2060] Setting entry with key 'sample_rates' to value '44100'
[aformat @ 0x32d2060] Setting entry with key 'channel_layouts' to value '0x4,0x3'
[audio format for output stream 0:1 @ 0x32d32a0] auto-inserting filter 'auto-inserted resampler 0' between the filter 'Parsed_anull_0' and the filter 'audio format for output stream 0:1'
[auto-inserted resampler 0 @ 0x32d93c0] chl:stereo fmt:s16 r:48000Hz -> chl:stereo fmt:s16p r:44100Hz
[flv @ 0x32e4180] intra_quant_bias = 0 inter_quant_bias = -64
[h264 @ 0x32dfe40] detected 2 logical cores
Output #0, flv, to 'CAPTURE2.flv':
  Metadata:
    encoder         : Lavf54.35.100
    Stream #0:0, 0, 1/1000: Video: flv1 ([2][0][0][0] / 0x0002), yuv420p, 1280x720 [SAR 1:1 DAR 16:9], q=2-31, 200 kb/s, 1k tbn, 60 tbc
    Stream #0:1, 0, 1/1000: Audio: mp3 ([2][0][0][0] / 0x0002), 44100 Hz, stereo, s16p
Stream mapping:
  Stream #0:0 -> #0:0 (h264 -> flv)
  Stream #0:1 -> #0:1 (aac -> libmp3lame)
Press [q] to stop, [?] for help
[h264 @ 0x32dfe40] Current profile doesn't provide more RBSP data in PPS, skipping
[h264 @ 0x3305320] Using externally provided dimensions
timestamp discontinuity 0, new offset= -599983333
timestamp discontinuity 0, new offset= -599983333
timestamp discontinuity -1, new offset= -599983332
timestamp discontinuity 0, new offset= -599983332
timestamp discontinuity 0, new offset= -599983332
timestamp discontinuity -1, new offset= -599983331
timestamp discontinuity 0, new offset= -599983331
timestamp discontinuity 0, new offset= -599983331
timestamp discontinuity -1, new offset= -599983330
timestamp discontinuity 0, new offset= -599983330
timestamp discontinuity 0, new offset= -599983330
timestamp discontinuity -1, new offset= -599983329
timestamp discontinuity 0, new offset= -599983329
timestamp discontinuity 0, new offset= -599983329
timestamp discontinuity -1, new offset= -599983328
timestamp discontinuity 0, new offset= -599983328
timestamp discontinuity 0, new offset= -599983328
timestamp discontinuity -1, new offset= -599983327
timestamp discontinuity 11, new offset= -599983338
timestamp discontinuity 0, new offset= -599983338
timestamp discontinuity -1, new offset= -599983337
timestamp discontinuity 0, new offset= -599983337
timestamp discontinuity 0, new offset= -599983337
timestamp discontinuity -1, new offset= -599983336
timestamp discontinuity 0, new offset= -599983336
timestamp discontinuity 0, new offset= -599983336
timestamp discontinuity -1, new offset= -599983335
timestamp discontinuity 0, new offset= -599983335
[h264 @ 0x32dfe40] Current profile doesn't provide more RBSP data in PPS, skipping
timestamp discontinuity 0, new offset= -599983335
timestamp discontinuity -1, new offset= -599983334
timestamp discontinuity 0, new offset= -599983334
timestamp discontinuity 0, new offset= -599983334
timestamp discontinuity -1, new offset= -599983333
timestamp discontinuity 0, new offset= -599983333
timestamp discontinuity 0, new offset= -599983333
timestamp discontinuity -1, new offset= -599983332
timestamp discontinuity 0, new offset= -599983332
timestamp discontinuity 0, new offset= -599983332
timestamp discontinuity -1, new offset= -599983331
timestamp discontinuity 0, new offset= -599983331
timestamp discontinuity 0, new offset= -599983331
timestamp discontinuity -1, new offset= -599983330
timestamp discontinuity 0, new offset= -599983330
timestamp discontinuity 0, new offset= -599983330
timestamp discontinuity -1, new offset= -599983329
timestamp discontinuity 0, new offset= -599983329
timestamp discontinuity 0, new offset= -599983329
timestamp discontinuity -1, new offset= -599983328
timestamp discontinuity 0, new offset= -599983328
timestamp discontinuity 0, new offset= -599983328
timestamp discontinuity -1, new offset= -599983327
timestamp discontinuity 11, new offset= -599983338
timestamp discontinuity 0, new offset= -599983338
timestamp discontinuity -1, new offset= -599983337
timestamp discontinuity 0, new offset= -599983337
timestamp discontinuity 0, new offset= -599983337
timestamp discontinuity -1, new offset= -599983336
timestamp discontinuity 0, new offset= -599983336
timestamp discontinuity 0, new offset= -599983336
[h264 @ 0x32dfe40] Current profile doesn't provide more RBSP data in PPS, skipping
timestamp discontinuity -1, new offset= -599983335
timestamp discontinuity 0, new offset= -599983335
timestamp discontinuity 0, new offset= -599983335
timestamp discontinuity -1, new offset= -599983334
timestamp discontinuity 0, new offset= -599983334
timestamp discontinuity 0, new offset= -599983334
timestamp discontinuity -1, new offset= -599983333
timestamp discontinuity 0, new offset= -599983333
timestamp discontinuity 0, new offset= -599983333
timestamp discontinuity -1, new offset= -599983332
timestamp discontinuity 0, new offset= -599983332
timestamp discontinuity 0, new offset= -599983332
timestamp discontinuity -1, new offset= -599983331
timestamp discontinuity 0, new offset= -599983331
timestamp discontinuity 0, new offset= -599983331
timestamp discontinuity -1, new offset= -599983330
timestamp discontinuity 0, new offset= -599983330
timestamp discontinuity 0, new offset= -599983330
timestamp discontinuity -1, new offset= -599983329
timestamp discontinuity 0, new offset= -599983329
frame=   80 fps=0.0 q=31.0 size=     309kB time=00:00:02.63 bitrate= 961.7kbits/s    
timestamp discontinuity 0, new offset= -599983329
timestamp discontinuity -1, new offset= -599983328
timestamp discontinuity 0, new offset= -599983328
timestamp discontinuity 0, new offset= -599983328
timestamp discontinuity -1, new offset= -599983327
timestamp discontinuity 11, new offset= -599983338
timestamp discontinuity 0, new offset= -599983338
timestamp discontinuity -1, new offset= -599983337
timestamp discontinuity 0, new offset= -599983337
timestamp discontinuity 0, new offset= -599983337
timestamp discontinuity -1, new offset= -599983336
[h264 @ 0x32dfe40] Current profile doesn't provide more RBSP data in PPS, skipping
timestamp discontinuity 0, new offset= -599983336
timestamp discontinuity 0, new offset= -599983336
timestamp discontinuity -1, new offset= -599983335
timestamp discontinuity 0, new offset= -599983335
timestamp discontinuity 0, new offset= -599983335
timestamp discontinuity -1, new offset= -599983334
timestamp discontinuity 0, new offset= -599983334
timestamp discontinuity 0, new offset= -599983334
timestamp discontinuity -1, new offset= -599983333
timestamp discontinuity 0, new offset= -599983333
timestamp discontinuity 0, new offset= -599983333
timestamp discontinuity -1, new offset= -599983332
timestamp discontinuity 0, new offset= -599983332
timestamp discontinuity 0, new offset= -599983332
timestamp discontinuity -1, new offset= -599983331
timestamp discontinuity 0, new offset= -599983331
timestamp discontinuity 0, new offset= -599983331
timestamp discontinuity -1, new offset= -599983330
timestamp discontinuity 0, new offset= -599983330
timestamp discontinuity 0, new offset= -599983330
timestamp discontinuity -1, new offset= -599983329
timestamp discontinuity 0, new offset= -599983329
timestamp discontinuity 0, new offset= -599983329
timestamp discontinuity -1, new offset= -599983328
timestamp discontinuity 0, new offset= -599983328
timestamp discontinuity 0, new offset= -599983328
timestamp discontinuity -1, new offset= -599983327
timestamp discontinuity 11, new offset= -599983338
timestamp discontinuity 0, new offset= -599983338
timestamp discontinuity -1, new offset= -599983337
timestamp discontinuity 0, new offset= -599983337
[h264 @ 0x32dfe40] Current profile doesn't provide more RBSP data in PPS, skipping
timestamp discontinuity 0, new offset= -599983337
timestamp discontinuity -1, new offset= -599983336
timestamp discontinuity 0, new offset= -599983336
timestamp discontinuity 0, new offset= -599983336
timestamp discontinuity -1, new offset= -599983335
timestamp discontinuity 0, new offset= -599983335
timestamp discontinuity 0, new offset= -599983335
timestamp discontinuity -1, new offset= -599983334
timestamp discontinuity 0, new offset= -599983334
timestamp discontinuity 0, new offset= -599983334
timestamp discontinuity -1, new offset= -599983333
timestamp discontinuity 0, new offset= -599983333
timestamp discontinuity 0, new offset= -599983333
timestamp discontinuity -1, new offset= -599983332
timestamp discontinuity 0, new offset= -599983332
timestamp discontinuity 0, new offset= -599983332
timestamp discontinuity -1, new offset= -599983331
timestamp discontinuity 0, new offset= -599983331
timestamp discontinuity 0, new offset= -599983331
timestamp discontinuity -1, new offset= -599983330
timestamp discontinuity 0, new offset= -599983330
timestamp discontinuity 0, new offset= -599983330
timestamp discontinuity -1, new offset= -599983329
timestamp discontinuity 0, new offset= -599983329
timestamp discontinuity 0, new offset= -599983329
timestamp discontinuity -1, new offset= -599983328
timestamp discontinuity 0, new offset= -599983328
timestamp discontinuity 0, new offset= -599983328
timestamp discontinuity -1, new offset= -599983327
timestamp discontinuity 11, new offset= -599983338
timestamp discontinuity 0, new offset= -599983338
[h264 @ 0x32dfe40] Current profile doesn't provide more RBSP data in PPS, skipping
timestamp discontinuity -1, new offset= -599983337
timestamp discontinuity 0, new offset= -599983337
timestamp discontinuity 0, new offset= -599983337
timestamp discontinuity -1, new offset= -599983336
timestamp discontinuity 0, new offset= -599983336
frame=  158 fps=157 q=31.0 size=     460kB time=00:00:05.23 bitrate= 720.2kbits/s    
timestamp discontinuity 0, new offset= -599983336
timestamp discontinuity -1, new offset= -599983335
timestamp discontinuity 0, new offset= -599983335
timestamp discontinuity 0, new offset= -599983335
timestamp discontinuity -1, new offset= -599983334
timestamp discontinuity 0, new offset= -599983334
timestamp discontinuity 0, new offset= -599983334
timestamp discontinuity -1, new offset= -599983333
timestamp discontinuity 0, new offset= -599983333
timestamp discontinuity 0, new offset= -599983333
timestamp discontinuity -1, new offset= -599983332
timestamp discontinuity 0, new offset= -599983332
timestamp discontinuity 0, new offset= -599983332
timestamp discontinuity -1, new offset= -599983331
timestamp discontinuity 0, new offset= -599983331
timestamp discontinuity 0, new offset= -599983331
timestamp discontinuity -1, new offset= -599983330
timestamp discontinuity 0, new offset= -599983330
timestamp discontinuity 0, new offset= -599983330
timestamp discontinuity -1, new offset= -599983329
timestamp discontinuity 0, new offset= -599983329
timestamp discontinuity 0, new offset= -599983329
timestamp discontinuity -1, new offset= -599983328
timestamp discontinuity 0, new offset= -599983328
timestamp discontinuity 0, new offset= -599983328
timestamp discontinuity -1, new offset= -599983327
[h264 @ 0x32dfe40] Current profile doesn't provide more RBSP data in PPS, skipping
timestamp discontinuity 11, new offset= -599983338
timestamp discontinuity 0, new offset= -599983338
timestamp discontinuity -1, new offset= -599983337
timestamp discontinuity 0, new offset= -599983337
timestamp discontinuity 0, new offset= -599983337
timestamp discontinuity -1, new offset= -599983336
timestamp discontinuity 0, new offset= -599983336
timestamp discontinuity 0, new offset= -599983336
timestamp discontinuity -1, new offset= -599983335
timestamp discontinuity 0, new offset= -599983335
timestamp discontinuity 0, new offset= -599983335
timestamp discontinuity -1, new offset= -599983334
timestamp discontinuity 0, new offset= -599983334
timestamp discontinuity 0, new offset= -599983334
timestamp discontinuity -1, new offset= -599983333
timestamp discontinuity 0, new offset= -599983333
timestamp discontinuity 0, new offset= -599983333
timestamp discontinuity -1, new offset= -599983332
timestamp discontinuity 0, new offset= -599983332
timestamp discontinuity 0, new offset= -599983332
timestamp discontinuity -1, new offset= -599983331
timestamp discontinuity 0, new offset= -599983331
timestamp discontinuity 0, new offset= -599983331
timestamp discontinuity -1, new offset= -599983330
timestamp discontinuity 0, new offset= -599983330
timestamp discontinuity 0, new offset= -599983330
timestamp discontinuity -1, new offset= -599983329
timestamp discontinuity 0, new offset= -599983329
timestamp discontinuity 0, new offset= -599983329
timestamp discontinuity -1, new offset= -599983328
timestamp discontinuity 0, new offset= -599983328
[h264 @ 0x32dfe40] Current profile doesn't provide more RBSP data in PPS, skipping
timestamp discontinuity 0, new offset= -599983328
timestamp discontinuity -1, new offset= -599983327
timestamp discontinuity 11, new offset= -599983338
timestamp discontinuity 0, new offset= -599983338
timestamp discontinuity -1, new offset= -599983337
timestamp discontinuity 0, new offset= -599983337
timestamp discontinuity 0, new offset= -599983337
timestamp discontinuity -1, new offset= -599983336
timestamp discontinuity 0, new offset= -599983336
timestamp discontinuity 0, new offset= -599983336
timestamp discontinuity -1, new offset= -599983335
timestamp discontinuity 0, new offset= -599983335
timestamp discontinuity 0, new offset= -599983335
timestamp discontinuity -1, new offset= -599983334
timestamp discontinuity 0, new offset= -599983334
timestamp discontinuity 0, new offset= -599983334
timestamp discontinuity -1, new offset= -599983333
timestamp discontinuity 0, new offset= -599983333
timestamp discontinuity 0, new offset= -599983333
timestamp discontinuity -1, new offset= -599983332
timestamp discontinuity 0, new offset= -599983332
timestamp discontinuity 0, new offset= -599983332
timestamp discontinuity -1, new offset= -599983331
timestamp discontinuity 0, new offset= -599983331
timestamp discontinuity 0, new offset= -599983331
frame=  240 fps=159 q=31.0 size=     612kB time=00:00:07.96 bitrate= 629.5kbits/s    
timestamp discontinuity -1, new offset= -599983330
timestamp discontinuity 0, new offset= -599983330
timestamp discontinuity 0, new offset= -599983330
timestamp discontinuity -1, new offset= -599983329
timestamp discontinuity 0, new offset= -599983329
timestamp discontinuity 0, new offset= -599983329
[h264 @ 0x32dfe40] Current profile doesn't provide more RBSP data in PPS, skipping
timestamp discontinuity -1, new offset= -599983328
timestamp discontinuity 0, new offset= -599983328
timestamp discontinuity 0, new offset= -599983328
timestamp discontinuity -1, new offset= -599983327
timestamp discontinuity 11, new offset= -599983338
timestamp discontinuity 0, new offset= -599983338
timestamp discontinuity -1, new offset= -599983337
timestamp discontinuity 0, new offset= -599983337
timestamp discontinuity 0, new offset= -599983337
timestamp discontinuity -1, new offset= -599983336
timestamp discontinuity 0, new offset= -599983336
timestamp discontinuity 0, new offset= -599983336
timestamp discontinuity -1, new offset= -599983335
timestamp discontinuity 0, new offset= -599983335
timestamp discontinuity 0, new offset= -599983335
timestamp discontinuity -1, new offset= -599983334
timestamp discontinuity 0, new offset= -599983334
timestamp discontinuity 0, new offset= -599983334
timestamp discontinuity -1, new offset= -599983333
timestamp discontinuity 0, new offset= -599983333
timestamp discontinuity 0, new offset= -599983333
timestamp discontinuity -1, new offset= -599983332
timestamp discontinuity 0, new offset= -599983332
timestamp discontinuity 0, new offset= -599983332
timestamp discontinuity -1, new offset= -599983331
timestamp discontinuity 0, new offset= -599983331
timestamp discontinuity 0, new offset= -599983331
timestamp discontinuity -1, new offset= -599983330
timestamp discontinuity 0, new offset= -599983330
timestamp discontinuity 0, new offset= -599983330
timestamp discontinuity -1, new offset= -599983329
[h264 @ 0x32dfe40] Current profile doesn't provide more RBSP data in PPS, skipping
timestamp discontinuity 0, new offset= -599983329
timestamp discontinuity 0, new offset= -599983329
timestamp discontinuity -1, new offset= -599983328
timestamp discontinuity 0, new offset= -599983328
timestamp discontinuity 0, new offset= -599983328
timestamp discontinuity -1, new offset= -599983327
timestamp discontinuity 11, new offset= -599983338
timestamp discontinuity 0, new offset= -599983338
timestamp discontinuity -1, new offset= -599983337
timestamp discontinuity 0, new offset= -599983337
timestamp discontinuity 0, new offset= -599983337
timestamp discontinuity -1, new offset= -599983336
timestamp discontinuity 0, new offset= -599983336
timestamp discontinuity 0, new offset= -599983336
timestamp discontinuity -1, new offset= -599983335
timestamp discontinuity 0, new offset= -599983335
timestamp discontinuity 0, new offset= -599983335
timestamp discontinuity -1, new offset= -599983334
timestamp discontinuity 0, new offset= -599983334
timestamp discontinuity 0, new offset= -599983334
timestamp discontinuity -1, new offset= -599983333
timestamp discontinuity 0, new offset= -599983333
timestamp discontinuity 0, new offset= -599983333
timestamp discontinuity -1, new offset= -599983332
timestamp discontinuity 0, new offset= -599983332
timestamp discontinuity 0, new offset= -599983332
timestamp discontinuity -1, new offset= -599983331
timestamp discontinuity 0, new offset= -599983331
timestamp discontinuity 0, new offset= -599983331
timestamp discontinuity -1, new offset= -599983330
timestamp discontinuity 0, new offset= -599983330
[h264 @ 0x32dfe40] Current profile doesn't provide more RBSP data in PPS, skipping
timestamp discontinuity 0, new offset= -599983330
timestamp discontinuity -1, new offset= -599983329
timestamp discontinuity 0, new offset= -599983329
timestamp discontinuity 0, new offset= -599983329
timestamp discontinuity -1, new offset= -599983328
timestamp discontinuity 0, new offset= -599983328
frame=  314 fps=156 q=31.0 size=     801kB time=00:00:10.48 bitrate= 625.9kbits/s    
timestamp discontinuity 0, new offset= -599983328
timestamp discontinuity -1, new offset= -599983327
timestamp discontinuity 11, new offset= -599983338
timestamp discontinuity 0, new offset= -599983338
timestamp discontinuity -1, new offset= -599983337
timestamp discontinuity 0, new offset= -599983337
timestamp discontinuity 0, new offset= -599983337
timestamp discontinuity -1, new offset= -599983336
timestamp discontinuity 0, new offset= -599983336
timestamp discontinuity 0, new offset= -599983336
timestamp discontinuity -1, new offset= -599983335
timestamp discontinuity 0, new offset= -599983335
timestamp discontinuity 0, new offset= -599983335
timestamp discontinuity -1, new offset= -599983334
timestamp discontinuity 0, new offset= -599983334
timestamp discontinuity 0, new offset= -599983334
timestamp discontinuity -1, new offset= -599983333
timestamp discontinuity 0, new offset= -599983333
timestamp discontinuity 0, new offset= -599983333
timestamp discontinuity -1, new offset= -599983332
timestamp discontinuity 0, new offset= -599983332
timestamp discontinuity 0, new offset= -599983332
timestamp discontinuity -1, new offset= -599983331
timestamp discontinuity 0, new offset= -599983331
timestamp discontinuity 0, new offset= -599983331
[h264 @ 0x32dfe40] Current profile doesn't provide more RBSP data in PPS, skipping
timestamp discontinuity -1, new offset= -599983330
timestamp discontinuity 0, new offset= -599983330
timestamp discontinuity 0, new offset= -599983330
timestamp discontinuity -1, new offset= -599983329
timestamp discontinuity 0, new offset= -599983329
timestamp discontinuity 0, new offset= -599983329
timestamp discontinuity -1, new offset= -599983328
timestamp discontinuity 0, new offset= -599983328
timestamp discontinuity 0, new offset= -599983328
timestamp discontinuity -1, new offset= -599983327
timestamp discontinuity 11, new offset= -599983338
timestamp discontinuity 0, new offset= -599983338
timestamp discontinuity -1, new offset= -599983337
timestamp discontinuity 0, new offset= -599983337
timestamp discontinuity 0, new offset= -599983337
timestamp discontinuity -1, new offset= -599983336
timestamp discontinuity 0, new offset= -599983336
timestamp discontinuity 0, new offset= -599983336
timestamp discontinuity -1, new offset= -599983335
timestamp discontinuity 0, new offset= -599983335
timestamp discontinuity 0, new offset= -599983335
timestamp discontinuity -1, new offset= -599983334
timestamp discontinuity 0, new offset= -599983334
timestamp discontinuity 0, new offset= -599983334
timestamp discontinuity -1, new offset= -599983333
timestamp discontinuity 0, new offset= -599983333
timestamp discontinuity 0, new offset= -599983333
timestamp discontinuity -1, new offset= -599983332
timestamp discontinuity 0, new offset= -599983332
timestamp discontinuity 0, new offset= -599983332
timestamp discontinuity -1, new offset= -599983331
[h264 @ 0x32dfe40] Current profile doesn't provide more RBSP data in PPS, skipping
timestamp discontinuity 0, new offset= -599983331
timestamp discontinuity 0, new offset= -599983331
timestamp discontinuity -1, new offset= -599983330
timestamp discontinuity 0, new offset= -599983330
timestamp discontinuity 0, new offset= -599983330
timestamp discontinuity -1, new offset= -599983329
timestamp discontinuity 0, new offset= -599983329
timestamp discontinuity 0, new offset= -599983329
timestamp discontinuity -1, new offset= -599983328
timestamp discontinuity 0, new offset= -599983328
timestamp discontinuity 0, new offset= -599983328
timestamp discontinuity -1, new offset= -599983327
timestamp discontinuity 11, new offset= -599983338
timestamp discontinuity 0, new offset= -599983338
timestamp discontinuity -1, new offset= -599983337
timestamp discontinuity 0, new offset= -599983337
timestamp discontinuity 0, new offset= -599983337
timestamp discontinuity -1, new offset= -599983336
timestamp discontinuity 0, new offset= -599983336
timestamp discontinuity 0, new offset= -599983336
timestamp discontinuity -1, new offset= -599983335
timestamp discontinuity 0, new offset= -599983335
frame=  392 fps=156 q=31.0 size=     957kB time=00:00:13.08 bitrate= 599.1kbits/s    
timestamp discontinuity 0, new offset= -599983335
timestamp discontinuity -1, new offset= -599983334
timestamp discontinuity 0, new offset= -599983334
timestamp discontinuity 0, new offset= -599983334
timestamp discontinuity -1, new offset= -599983333
timestamp discontinuity 0, new offset= -599983333
timestamp discontinuity 0, new offset= -599983333
timestamp discontinuity -1, new offset= -599983332
timestamp discontinuity 0, new offset= -599983332
[h264 @ 0x32dfe40] Current profile doesn't provide more RBSP data in PPS, skipping
timestamp discontinuity 0, new offset= -599983332
timestamp discontinuity -1, new offset= -599983331
timestamp discontinuity 0, new offset= -599983331
timestamp discontinuity 0, new offset= -599983331
timestamp discontinuity -1, new offset= -599983330
timestamp discontinuity 0, new offset= -599983330
timestamp discontinuity 0, new offset= -599983330
timestamp discontinuity -1, new offset= -599983329
timestamp discontinuity 0, new offset= -599983329
timestamp discontinuity 0, new offset= -599983329
timestamp discontinuity -1, new offset= -599983328
timestamp discontinuity 0, new offset= -599983328
timestamp discontinuity 0, new offset= -599983328
timestamp discontinuity -1, new offset= -599983327
timestamp discontinuity 11, new offset= -599983338
timestamp discontinuity 0, new offset= -599983338
timestamp discontinuity -1, new offset= -599983337
timestamp discontinuity 0, new offset= -599983337
timestamp discontinuity 0, new offset= -599983337
timestamp discontinuity -1, new offset= -599983336
timestamp discontinuity 0, new offset= -599983336
timestamp discontinuity 0, new offset= -599983336
timestamp discontinuity -1, new offset= -599983335
timestamp discontinuity 0, new offset= -599983335
timestamp discontinuity 0, new offset= -599983335
timestamp discontinuity -1, new offset= -599983334
timestamp discontinuity 0, new offset= -599983334
timestamp discontinuity 0, new offset= -599983334
timestamp discontinuity -1, new offset= -599983333
timestamp discontinuity 0, new offset= -599983333
timestamp discontinuity 0, new offset= -599983333
[h264 @ 0x32dfe40] Current profile doesn't provide more RBSP data in PPS, skipping
timestamp discontinuity -1, new offset= -599983332
timestamp discontinuity 0, new offset= -599983332
timestamp discontinuity 0, new offset= -599983332
timestamp discontinuity -1, new offset= -599983331
timestamp discontinuity 0, new offset= -599983331
timestamp discontinuity 0, new offset= -599983331
timestamp discontinuity -1, new offset= -599983330
timestamp discontinuity 0, new offset= -599983330
timestamp discontinuity 0, new offset= -599983330
timestamp discontinuity -1, new offset= -599983329
timestamp discontinuity 0, new offset= -599983329
timestamp discontinuity 0, new offset= -599983329
timestamp discontinuity -1, new offset= -599983328
timestamp discontinuity 0, new offset= -599983328
timestamp discontinuity 0, new offset= -599983328
timestamp discontinuity -1, new offset= -599983327
timestamp discontinuity 11, new offset= -599983338
timestamp discontinuity 0, new offset= -599983338
timestamp discontinuity -1, new offset= -599983337
timestamp discontinuity 0, new offset= -599983337
timestamp discontinuity 0, new offset= -599983337
timestamp discontinuity -1, new offset= -599983336
timestamp discontinuity 0, new offset= -599983336
timestamp discontinuity 0, new offset= -599983336
timestamp discontinuity -1, new offset= -599983335
timestamp discontinuity 0, new offset= -599983335
timestamp discontinuity 0, new offset= -599983335
timestamp discontinuity -1, new offset= -599983334
timestamp discontinuity 0, new offset= -599983334
timestamp discontinuity 0, new offset= -599983334
timestamp discontinuity -1, new offset= -599983333
[h264 @ 0x32dfe40] Current profile doesn't provide more RBSP data in PPS, skipping
timestamp discontinuity 0, new offset= -599983333
timestamp discontinuity 0, new offset= -599983333
timestamp discontinuity -1, new offset= -599983332
timestamp discontinuity 0, new offset= -599983332
timestamp discontinuity 0, new offset= -599983332
timestamp discontinuity -1, new offset= -599983331
timestamp discontinuity 0, new offset= -599983331
timestamp discontinuity 0, new offset= -599983331
frame=  471 fps=156 q=31.0 size=    1113kB time=00:00:15.73 bitrate= 579.7kbits/s    
timestamp discontinuity -1, new offset= -599983330
timestamp discontinuity 0, new offset= -599983330
timestamp discontinuity 0, new offset= -599983330
timestamp discontinuity -1, new offset= -599983329
timestamp discontinuity 0, new offset= -599983329
timestamp discontinuity 0, new offset= -599983329
timestamp discontinuity -1, new offset= -599983328
timestamp discontinuity 0, new offset= -599983328
timestamp discontinuity 0, new offset= -599983328
timestamp discontinuity -1, new offset= -599983327
timestamp discontinuity 11, new offset= -599983338
timestamp discontinuity 0, new offset= -599983338
timestamp discontinuity -1, new offset= -599983337
timestamp discontinuity 0, new offset= -599983337
timestamp discontinuity 0, new offset= -599983337
timestamp discontinuity -1, new offset= -599983336
timestamp discontinuity 0, new offset= -599983336
timestamp discontinuity 0, new offset= -599983336
timestamp discontinuity -1, new offset= -599983335
timestamp discontinuity 0, new offset= -599983335
timestamp discontinuity 0, new offset= -599983335
timestamp discontinuity -1, new offset= -599983334
timestamp discontinuity 0, new offset= -599983334
[h264 @ 0x32dfe40] Current profile doesn't provide more RBSP data in PPS, skipping
timestamp discontinuity 0, new offset= -599983334
timestamp discontinuity -1, new offset= -599983333
timestamp discontinuity 0, new offset= -599983333
timestamp discontinuity 0, new offset= -599983333
timestamp discontinuity -1, new offset= -599983332
timestamp discontinuity 0, new offset= -599983332
timestamp discontinuity 0, new offset= -599983332
timestamp discontinuity -1, new offset= -599983331
timestamp discontinuity 0, new offset= -599983331
timestamp discontinuity 0, new offset= -599983331
timestamp discontinuity -1, new offset= -599983330
timestamp discontinuity 0, new offset= -599983330
timestamp discontinuity 0, new offset= -599983330
timestamp discontinuity -1, new offset= -599983329
timestamp discontinuity 0, new offset= -599983329
timestamp discontinuity 0, new offset= -599983329
timestamp discontinuity -1, new offset= -599983328
timestamp discontinuity 0, new offset= -599983328
timestamp discontinuity 0, new offset= -599983328
timestamp discontinuity -1, new offset= -599983327
timestamp discontinuity 11, new offset= -599983338
timestamp discontinuity 0, new offset= -599983338
timestamp discontinuity -1, new offset= -599983337
timestamp discontinuity 0, new offset= -599983337
timestamp discontinuity 0, new offset= -599983337
timestamp discontinuity -1, new offset= -599983336
timestamp discontinuity 0, new offset= -599983336
timestamp discontinuity 0, new offset= -599983336
timestamp discontinuity -1, new offset= -599983335
timestamp discontinuity 0, new offset= -599983335
timestamp discontinuity 0, new offset= -599983335
[h264 @ 0x32dfe40] Current profile doesn't provide more RBSP data in PPS, skipping
timestamp discontinuity -1, new offset= -599983334
timestamp discontinuity 0, new offset= -599983334
timestamp discontinuity 0, new offset= -599983334
timestamp discontinuity -1, new offset= -599983333
timestamp discontinuity 0, new offset= -599983333
timestamp discontinuity 0, new offset= -599983333
timestamp discontinuity -1, new offset= -599983332
timestamp discontinuity 0, new offset= -599983332
timestamp discontinuity 0, new offset= -599983332
timestamp discontinuity -1, new offset= -599983331
timestamp discontinuity 0, new offset= -599983331
timestamp discontinuity 0, new offset= -599983331
timestamp discontinuity -1, new offset= -599983330
timestamp discontinuity 0, new offset= -599983330
timestamp discontinuity 0, new offset= -599983330
timestamp discontinuity -1, new offset= -599983329
timestamp discontinuity 0, new offset= -599983329
timestamp discontinuity 0, new offset= -599983329
timestamp discontinuity -1, new offset= -599983328
timestamp discontinuity 0, new offset= -599983328
timestamp discontinuity 0, new offset= -599983328
timestamp discontinuity -1, new offset= -599983327
timestamp discontinuity 11, new offset= -599983338
timestamp discontinuity 0, new offset= -599983338
timestamp discontinuity -1, new offset= -599983337
timestamp discontinuity 0, new offset= -599983337
frame=  551 fps=156 q=31.0 size=    1312kB time=00:00:18.54 bitrate= 579.4kbits/s    
timestamp discontinuity 0, new offset= -599983337
timestamp discontinuity -1, new offset= -599983336
timestamp discontinuity 0, new offset= -599983336
timestamp discontinuity 0, new offset= -599983336
timestamp discontinuity -1, new offset= -599983335
[h264 @ 0x32dfe40] Current profile doesn't provide more RBSP data in PPS, skipping
timestamp discontinuity 0, new offset= -599983335
timestamp discontinuity 0, new offset= -599983335
timestamp discontinuity -1, new offset= -599983334
timestamp discontinuity 0, new offset= -599983334
timestamp discontinuity 0, new offset= -599983334
timestamp discontinuity -1, new offset= -599983333
timestamp discontinuity 0, new offset= -599983333
timestamp discontinuity 0, new offset= -599983333
timestamp discontinuity -1, new offset= -599983332
timestamp discontinuity 0, new offset= -599983332
timestamp discontinuity 0, new offset= -599983332
timestamp discontinuity -1, new offset= -599983331
timestamp discontinuity 0, new offset= -599983331
timestamp discontinuity 0, new offset= -599983331
timestamp discontinuity -1, new offset= -599983330
timestamp discontinuity 0, new offset= -599983330
timestamp discontinuity 0, new offset= -599983330
timestamp discontinuity -1, new offset= -599983329
timestamp discontinuity 0, new offset= -599983329
timestamp discontinuity 0, new offset= -599983329
timestamp discontinuity -1, new offset= -599983328
timestamp discontinuity 0, new offset= -599983328
timestamp discontinuity 0, new offset= -599983328
timestamp discontinuity -1, new offset= -599983327
timestamp discontinuity 11, new offset= -599983338
timestamp discontinuity 0, new offset= -599983338
timestamp discontinuity -1, new offset= -599983337
timestamp discontinuity 0, new offset= -599983337
timestamp discontinuity 0, new offset= -599983337
timestamp discontinuity -1, new offset= -599983336
timestamp discontinuity 0, new offset= -599983336
[h264 @ 0x32dfe40] Current profile doesn't provide more RBSP data in PPS, skipping
timestamp discontinuity 0, new offset= -599983336
timestamp discontinuity -1, new offset= -599983335
timestamp discontinuity 0, new offset= -599983335
timestamp discontinuity 0, new offset= -599983335
timestamp discontinuity -1, new offset= -599983334
timestamp discontinuity 0, new offset= -599983334
timestamp discontinuity 0, new offset= -599983334
timestamp discontinuity -1, new offset= -599983333
timestamp discontinuity 0, new offset= -599983333
timestamp discontinuity 0, new offset= -599983333
timestamp discontinuity -1, new offset= -599983332
timestamp discontinuity 0, new offset= -599983332
timestamp discontinuity 0, new offset= -599983332
timestamp discontinuity -1, new offset= -599983331
timestamp discontinuity 0, new offset= -599983331
timestamp discontinuity 0, new offset= -599983331
timestamp discontinuity -1, new offset= -599983330
timestamp discontinuity 0, new offset= -599983330
timestamp discontinuity 0, new offset= -599983330
timestamp discontinuity -1, new offset= -599983329
timestamp discontinuity 0, new offset= -599983329
timestamp discontinuity 0, new offset= -599983329
timestamp discontinuity -1, new offset= -599983328
timestamp discontinuity 0, new offset= -599983328
timestamp discontinuity 0, new offset= -599983328
timestamp discontinuity -1, new offset= -599983327
timestamp discontinuity 11, new offset= -599983338
timestamp discontinuity 0, new offset= -599983338
timestamp discontinuity -1, new offset= -599983337
timestamp discontinuity 0, new offset= -599983337
timestamp discontinuity 0, new offset= -599983337
[h264 @ 0x32dfe40] Current profile doesn't provide more RBSP data in PPS, skipping
timestamp discontinuity -1, new offset= -599983336
timestamp discontinuity 0, new offset= -599983336
timestamp discontinuity 0, new offset= -599983336
timestamp discontinuity -1, new offset= -599983335
timestamp discontinuity 0, new offset= -599983335
timestamp discontinuity 0, new offset= -599983335
timestamp discontinuity -1, new offset= -599983334
timestamp discontinuity 0, new offset= -599983334
timestamp discontinuity 0, new offset= -599983334
timestamp discontinuity -1, new offset= -599983333
timestamp discontinuity 0, new offset= -599983333
timestamp discontinuity 0, new offset= -599983333
timestamp discontinuity -1, new offset= -599983332
timestamp discontinuity 0, new offset= -599983332
timestamp discontinuity 0, new offset= -599983332
frame=  633 fps=157 q=31.0 size=    1469kB time=00:00:21.28 bitrate= 565.5kbits/s    
timestamp discontinuity -1, new offset= -599983331
timestamp discontinuity 0, new offset= -599983331
timestamp discontinuity 0, new offset= -599983331
timestamp discontinuity -1, new offset= -599983330
timestamp discontinuity 0, new offset= -599983330
timestamp discontinuity 0, new offset= -599983330
timestamp discontinuity -1, new offset= -599983329
timestamp discontinuity 0, new offset= -599983329
timestamp discontinuity 0, new offset= -599983329
timestamp discontinuity -1, new offset= -599983328
timestamp discontinuity 0, new offset= -599983328
timestamp discontinuity 0, new offset= -599983328
timestamp discontinuity -1, new offset= -599983327
timestamp discontinuity 11, new offset= -599983338
timestamp discontinuity 0, new offset= -599983338
timestamp discontinuity -1, new offset= -599983337
[h264 @ 0x32dfe40] Current profile doesn't provide more RBSP data in PPS, skipping
timestamp discontinuity 0, new offset= -599983337
timestamp discontinuity 0, new offset= -599983337
timestamp discontinuity -1, new offset= -599983336
timestamp discontinuity 0, new offset= -599983336
timestamp discontinuity 0, new offset= -599983336
timestamp discontinuity -1, new offset= -599983335
timestamp discontinuity 0, new offset= -599983335
timestamp discontinuity 0, new offset= -599983335
timestamp discontinuity -1, new offset= -599983334
timestamp discontinuity 0, new offset= -599983334
timestamp discontinuity 0, new offset= -599983334
timestamp discontinuity -1, new offset= -599983333
timestamp discontinuity 0, new offset= -599983333
timestamp discontinuity 0, new offset= -599983333
timestamp discontinuity -1, new offset= -599983332
timestamp discontinuity 0, new offset= -599983332
timestamp discontinuity 0, new offset= -599983332
timestamp discontinuity -1, new offset= -599983331
timestamp discontinuity 0, new offset= -599983331
timestamp discontinuity 0, new offset= -599983331
timestamp discontinuity -1, new offset= -599983330
timestamp discontinuity 0, new offset= -599983330
timestamp discontinuity 0, new offset= -599983330
timestamp discontinuity -1, new offset= -599983329
timestamp discontinuity 0, new offset= -599983329
timestamp discontinuity 0, new offset= -599983329
timestamp discontinuity -1, new offset= -599983328
timestamp discontinuity 0, new offset= -599983328
timestamp discontinuity 0, new offset= -599983328
timestamp discontinuity -1, new offset= -599983327
timestamp discontinuity 11, new offset= -599983338
[h264 @ 0x32dfe40] Current profile doesn't provide more RBSP data in PPS, skipping
timestamp discontinuity 0, new offset= -599983338
timestamp discontinuity -1, new offset= -599983337
timestamp discontinuity 0, new offset= -599983337
timestamp discontinuity 0, new offset= -599983337
timestamp discontinuity -1, new offset= -599983336
timestamp discontinuity 0, new offset= -599983336
timestamp discontinuity 0, new offset= -599983336
timestamp discontinuity -1, new offset= -599983335
timestamp discontinuity 0, new offset= -599983335
timestamp discontinuity 0, new offset= -599983335
timestamp discontinuity -1, new offset= -599983334
timestamp discontinuity 0, new offset= -599983334
timestamp discontinuity 0, new offset= -599983334
timestamp discontinuity -1, new offset= -599983333
timestamp discontinuity 0, new offset= -599983333
timestamp discontinuity 0, new offset= -599983333
timestamp discontinuity -1, new offset= -599983332
timestamp discontinuity 0, new offset= -599983332
timestamp discontinuity 0, new offset= -599983332
timestamp discontinuity -1, new offset= -599983331
timestamp discontinuity 0, new offset= -599983331
timestamp discontinuity 0, new offset= -599983331
timestamp discontinuity -1, new offset= -599983330
timestamp discontinuity 0, new offset= -599983330
timestamp discontinuity 0, new offset= -599983330
timestamp discontinuity -1, new offset= -599983329
timestamp discontinuity 0, new offset= -599983329
timestamp discontinuity 0, new offset= -599983329
timestamp discontinuity -1, new offset= -599983328
timestamp discontinuity 0, new offset= -599983328
timestamp discontinuity 0, new offset= -599983328
[h264 @ 0x32dfe40] Current profile doesn't provide more RBSP data in PPS, skipping
timestamp discontinuity -1, new offset= -599983327
timestamp discontinuity 11, new offset= -599983338
frame=  713 fps=158 q=31.0 size=    1663kB time=00:00:23.99 bitrate= 567.7kbits/s    
timestamp discontinuity 0, new offset= -599983338
timestamp discontinuity -1, new offset= -599983337
timestamp discontinuity 0, new offset= -599983337
timestamp discontinuity 0, new offset= -599983337
timestamp discontinuity -1, new offset= -599983336
timestamp discontinuity 0, new offset= -599983336
timestamp discontinuity 0, new offset= -599983336
timestamp discontinuity -1, new offset= -599983335
timestamp discontinuity 0, new offset= -599983335
timestamp discontinuity 0, new offset= -599983335
timestamp discontinuity -1, new offset= -599983334
timestamp discontinuity 0, new offset= -599983334
timestamp discontinuity 0, new offset= -599983334
timestamp discontinuity -1, new offset= -599983333
timestamp discontinuity 0, new offset= -599983333
timestamp discontinuity 0, new offset= -599983333
timestamp discontinuity -1, new offset= -599983332
timestamp discontinuity 0, new offset= -599983332
timestamp discontinuity 0, new offset= -599983332
timestamp discontinuity -1, new offset= -599983331
timestamp discontinuity 0, new offset= -599983331
timestamp discontinuity 0, new offset= -599983331
timestamp discontinuity -1, new offset= -599983330
timestamp discontinuity 0, new offset= -599983330
timestamp discontinuity 0, new offset= -599983330
timestamp discontinuity -1, new offset= -599983329
timestamp discontinuity 0, new offset= -599983329
timestamp discontinuity 0, new offset= -599983329
timestamp discontinuity -1, new offset= -599983328
[h264 @ 0x32dfe40] Current profile doesn't provide more RBSP data in PPS, skipping
timestamp discontinuity 0, new offset= -599983328
timestamp discontinuity 0, new offset= -599983328
timestamp discontinuity -1, new offset= -599983327
timestamp discontinuity 11, new offset= -599983338
timestamp discontinuity 0, new offset= -599983338
timestamp discontinuity -1, new offset= -599983337
timestamp discontinuity 0, new offset= -599983337
timestamp discontinuity 0, new offset= -599983337
timestamp discontinuity -1, new offset= -599983336
timestamp discontinuity 0, new offset= -599983336
timestamp discontinuity 0, new offset= -599983336
timestamp discontinuity -1, new offset= -599983335
timestamp discontinuity 0, new offset= -599983335
timestamp discontinuity 0, new offset= -599983335
timestamp discontinuity -1, new offset= -599983334
timestamp discontinuity 0, new offset= -599983334
timestamp discontinuity 0, new offset= -599983334
timestamp discontinuity -1, new offset= -599983333
timestamp discontinuity 0, new offset= -599983333
timestamp discontinuity 0, new offset= -599983333
timestamp discontinuity -1, new offset= -599983332
timestamp discontinuity 0, new offset= -599983332
timestamp discontinuity 0, new offset= -599983332
timestamp discontinuity -1, new offset= -599983331
timestamp discontinuity 0, new offset= -599983331
timestamp discontinuity 0, new offset= -599983331
timestamp discontinuity -1, new offset= -599983330
timestamp discontinuity 0, new offset= -599983330
timestamp discontinuity 0, new offset= -599983330
timestamp discontinuity -1, new offset= -599983329
timestamp discontinuity 0, new offset= -599983329
[h264 @ 0x32dfe40] Current profile doesn't provide more RBSP data in PPS, skipping
timestamp discontinuity 0, new offset= -599983329
timestamp discontinuity -1, new offset= -599983328
timestamp discontinuity 0, new offset= -599983328
timestamp discontinuity 0, new offset= -599983328
timestamp discontinuity -1, new offset= -599983327
timestamp discontinuity 11, new offset= -599983338
timestamp discontinuity 0, new offset= -599983338
timestamp discontinuity -1, new offset= -599983337
timestamp discontinuity 0, new offset= -599983337
timestamp discontinuity 0, new offset= -599983337
timestamp discontinuity -1, new offset= -599983336
timestamp discontinuity 0, new offset= -599983336
timestamp discontinuity 0, new offset= -599983336
frame=  786 fps=156 q=31.0 size=    1819kB time=00:00:26.43 bitrate= 563.6kbits/s    
timestamp discontinuity -1, new offset= -599983335
timestamp discontinuity 0, new offset= -599983335
timestamp discontinuity 0, new offset= -599983335
timestamp discontinuity -1, new offset= -599983334
timestamp discontinuity 0, new offset= -599983334
timestamp discontinuity 0, new offset= -599983334
timestamp discontinuity -1, new offset= -599983333
timestamp discontinuity 0, new offset= -599983333
timestamp discontinuity 0, new offset= -599983333
timestamp discontinuity -1, new offset= -599983332
timestamp discontinuity 0, new offset= -599983332
timestamp discontinuity 0, new offset= -599983332
timestamp discontinuity -1, new offset= -599983331
timestamp discontinuity 0, new offset= -599983331
timestamp discontinuity 0, new offset= -599983331
timestamp discontinuity -1, new offset= -599983330
timestamp discontinuity 0, new offset= -599983330
timestamp discontinuity 0, new offset= -599983330
[h264 @ 0x32dfe40] Current profile doesn't provide more RBSP data in PPS, skipping
timestamp discontinuity -1, new offset= -599983329
timestamp discontinuity 0, new offset= -599983329
timestamp discontinuity 0, new offset= -599983329
timestamp discontinuity -1, new offset= -599983328
timestamp discontinuity 0, new offset= -599983328
timestamp discontinuity 0, new offset= -599983328
timestamp discontinuity -1, new offset= -599983327
timestamp discontinuity 11, new offset= -599983338
timestamp discontinuity 0, new offset= -599983338
timestamp discontinuity -1, new offset= -599983337
timestamp discontinuity 0, new offset= -599983337
timestamp discontinuity 0, new offset= -599983337
timestamp discontinuity -1, new offset= -599983336
timestamp discontinuity 0, new offset= -599983336
timestamp discontinuity 0, new offset= -599983336
timestamp discontinuity -1, new offset= -599983335
timestamp discontinuity 0, new offset= -599983335
timestamp discontinuity 0, new offset= -599983335
timestamp discontinuity -1, new offset= -599983334
timestamp discontinuity 0, new offset= -599983334
timestamp discontinuity 0, new offset= -599983334
timestamp discontinuity -1, new offset= -599983333
timestamp discontinuity 0, new offset= -599983333
timestamp discontinuity 0, new offset= -599983333
timestamp discontinuity -1, new offset= -599983332
timestamp discontinuity 0, new offset= -599983332
timestamp discontinuity 0, new offset= -599983332
timestamp discontinuity -1, new offset= -599983331
timestamp discontinuity 0, new offset= -599983331
timestamp discontinuity 0, new offset= -599983331
timestamp discontinuity -1, new offset= -599983330
[h264 @ 0x32dfe40] Current profile doesn't provide more RBSP data in PPS, skipping
timestamp discontinuity 0, new offset= -599983330
timestamp discontinuity 0, new offset= -599983330
timestamp discontinuity -1, new offset= -599983329
timestamp discontinuity 0, new offset= -599983329
timestamp discontinuity 0, new offset= -599983329
timestamp discontinuity -1, new offset= -599983328
timestamp discontinuity 0, new offset= -599983328
timestamp discontinuity 0, new offset= -599983328
timestamp discontinuity -1, new offset= -599983327
timestamp discontinuity 11, new offset= -599983338
timestamp discontinuity 0, new offset= -599983338
timestamp discontinuity -1, new offset= -599983337
timestamp discontinuity 0, new offset= -599983337
timestamp discontinuity 0, new offset= -599983337
timestamp discontinuity -1, new offset= -599983336
timestamp discontinuity 0, new offset= -599983336
timestamp discontinuity 0, new offset= -599983336
timestamp discontinuity -1, new offset= -599983335
timestamp discontinuity 0, new offset= -599983335
timestamp discontinuity 0, new offset= -599983335
timestamp discontinuity -1, new offset= -599983334
timestamp discontinuity 0, new offset= -599983334
timestamp discontinuity 0, new offset= -599983334
timestamp discontinuity -1, new offset= -599983333
timestamp discontinuity 0, new offset= -599983333
timestamp discontinuity 0, new offset= -599983333
timestamp discontinuity -1, new offset= -599983332
frame=  862 fps=156 q=31.0 size=    1969kB time=00:00:29.03 bitrate= 555.7kbits/s    
timestamp discontinuity 0, new offset= -599983332
timestamp discontinuity 0, new offset= -599983332
timestamp discontinuity -1, new offset= -599983331
timestamp discontinuity 0, new offset= -599983331
[h264 @ 0x32dfe40] Current profile doesn't provide more RBSP data in PPS, skipping
timestamp discontinuity 0, new offset= -599983331
timestamp discontinuity -1, new offset= -599983330
timestamp discontinuity 0, new offset= -599983330
timestamp discontinuity 0, new offset= -599983330
timestamp discontinuity -1, new offset= -599983329
timestamp discontinuity 0, new offset= -599983329
timestamp discontinuity 0, new offset= -599983329
timestamp discontinuity -1, new offset= -599983328
timestamp discontinuity 0, new offset= -599983328
timestamp discontinuity 0, new offset= -599983328
timestamp discontinuity -1, new offset= -599983327
timestamp discontinuity 11, new offset= -599983338
timestamp discontinuity 0, new offset= -599983338
timestamp discontinuity -1, new offset= -599983337
timestamp discontinuity 0, new offset= -599983337
timestamp discontinuity 0, new offset= -599983337
timestamp discontinuity -1, new offset= -599983336
timestamp discontinuity 0, new offset= -599983336
timestamp discontinuity 0, new offset= -599983336
timestamp discontinuity -1, new offset= -599983335
timestamp discontinuity 0, new offset= -599983335
timestamp discontinuity 0, new offset= -599983335
timestamp discontinuity -1, new offset= -599983334
timestamp discontinuity 0, new offset= -599983334
timestamp discontinuity 0, new offset= -599983334
timestamp discontinuity -1, new offset= -599983333
timestamp discontinuity 0, new offset= -599983333
timestamp discontinuity 0, new offset= -599983333
timestamp discontinuity -1, new offset= -599983332
timestamp discontinuity 0, new offset= -599983332
timestamp discontinuity 0, new offset= -599983332
[h264 @ 0x32dfe40] Current profile doesn't provide more RBSP data in PPS, skipping
timestamp discontinuity -1, new offset= -599983331
timestamp discontinuity 0, new offset= -599983331
timestamp discontinuity 0, new offset= -599983331
timestamp discontinuity -1, new offset= -599983330
timestamp discontinuity 0, new offset= -599983330
timestamp discontinuity 0, new offset= -599983330
timestamp discontinuity -1, new offset= -599983329
timestamp discontinuity 0, new offset= -599983329
timestamp discontinuity 0, new offset= -599983329
timestamp discontinuity -1, new offset= -599983328
timestamp discontinuity 0, new offset= -599983328
timestamp discontinuity 0, new offset= -599983328
timestamp discontinuity -1, new offset= -599983327
timestamp discontinuity 11, new offset= -599983338
timestamp discontinuity 0, new offset= -599983338
timestamp discontinuity -1, new offset= -599983337
timestamp discontinuity 0, new offset= -599983337
timestamp discontinuity 0, new offset= -599983337
timestamp discontinuity -1, new offset= -599983336
timestamp discontinuity 0, new offset= -599983336
timestamp discontinuity 0, new offset= -599983336
timestamp discontinuity -1, new offset= -599983335
timestamp discontinuity 0, new offset= -599983335
timestamp discontinuity 0, new offset= -599983335
timestamp discontinuity -1, new offset= -599983334
timestamp discontinuity 0, new offset= -599983334
timestamp discontinuity 0, new offset= -599983334
timestamp discontinuity -1, new offset= -599983333
timestamp discontinuity 0, new offset= -599983333
timestamp discontinuity 0, new offset= -599983333
timestamp discontinuity -1, new offset= -599983332
[h264 @ 0x32dfe40] Current profile doesn't provide more RBSP data in PPS, skipping
timestamp discontinuity 0, new offset= -599983332
timestamp discontinuity 0, new offset= -599983332
timestamp discontinuity -1, new offset= -599983331
timestamp discontinuity 0, new offset= -599983331
timestamp discontinuity 0, new offset= -599983331
timestamp discontinuity -1, new offset= -599983330
timestamp discontinuity 0, new offset= -599983330
timestamp discontinuity 0, new offset= -599983330
timestamp discontinuity -1, new offset= -599983329
timestamp discontinuity 0, new offset= -599983329
timestamp discontinuity 0, new offset= -599983329
timestamp discontinuity -1, new offset= -599983328
timestamp discontinuity 0, new offset= -599983328
frame=  941 fps=156 q=31.0 size=    2165kB time=00:00:31.69 bitrate= 559.6kbits/s    
timestamp discontinuity 0, new offset= -599983328
timestamp discontinuity -1, new offset= -599983327
timestamp discontinuity 11, new offset= -599983338
timestamp discontinuity 0, new offset= -599983338
timestamp discontinuity -1, new offset= -599983337
timestamp discontinuity 0, new offset= -599983337
timestamp discontinuity 0, new offset= -599983337
timestamp discontinuity -1, new offset= -599983336
timestamp discontinuity 0, new offset= -599983336
timestamp discontinuity 0, new offset= -599983336
timestamp discontinuity -1, new offset= -599983335
timestamp discontinuity 0, new offset= -599983335
timestamp discontinuity 0, new offset= -599983335
timestamp discontinuity -1, new offset= -599983334
timestamp discontinuity 0, new offset= -599983334
timestamp discontinuity 0, new offset= -599983334
timestamp discontinuity -1, new offset= -599983333
timestamp discontinuity 0, new offset= -599983333
[h264 @ 0x32dfe40] Current profile doesn't provide more RBSP data in PPS, skipping
timestamp discontinuity 0, new offset= -599983333
timestamp discontinuity -1, new offset= -599983332
timestamp discontinuity 0, new offset= -599983332
timestamp discontinuity 0, new offset= -599983332
timestamp discontinuity -1, new offset= -599983331
timestamp discontinuity 0, new offset= -599983331
timestamp discontinuity 0, new offset= -599983331
timestamp discontinuity -1, new offset= -599983330
timestamp discontinuity 0, new offset= -599983330
timestamp discontinuity 0, new offset= -599983330
timestamp discontinuity -1, new offset= -599983329
timestamp discontinuity 0, new offset= -599983329
timestamp discontinuity 0, new offset= -599983329
timestamp discontinuity -1, new offset= -599983328
timestamp discontinuity 0, new offset= -599983328
timestamp discontinuity 0, new offset= -599983328
timestamp discontinuity -1, new offset= -599983327
timestamp discontinuity 11, new offset= -599983338
timestamp discontinuity 0, new offset= -599983338
timestamp discontinuity -1, new offset= -599983337
timestamp discontinuity 0, new offset= -599983337
timestamp discontinuity 0, new offset= -599983337
timestamp discontinuity -1, new offset= -599983336
timestamp discontinuity 0, new offset= -599983336
timestamp discontinuity 0, new offset= -599983336
timestamp discontinuity -1, new offset= -599983335
timestamp discontinuity 0, new offset= -599983335
timestamp discontinuity 0, new offset= -599983335
timestamp discontinuity -1, new offset= -599983334
timestamp discontinuity 0, new offset= -599983334
timestamp discontinuity 0, new offset= -599983334
[h264 @ 0x32dfe40] Current profile doesn't provide more RBSP data in PPS, skipping
timestamp discontinuity -1, new offset= -599983333
timestamp discontinuity 0, new offset= -599983333
timestamp discontinuity 0, new offset= -599983333
timestamp discontinuity -1, new offset= -599983332
timestamp discontinuity 0, new offset= -599983332
timestamp discontinuity 0, new offset= -599983332
timestamp discontinuity -1, new offset= -599983331
timestamp discontinuity 0, new offset= -599983331
timestamp discontinuity 0, new offset= -599983331
timestamp discontinuity -1, new offset= -599983330
timestamp discontinuity 0, new offset= -599983330
timestamp discontinuity 0, new offset= -599983330
timestamp discontinuity -1, new offset= -599983329
timestamp discontinuity 0, new offset= -599983329
timestamp discontinuity 0, new offset= -599983329
timestamp discontinuity -1, new offset= -599983328
timestamp discontinuity 0, new offset= -599983328
timestamp discontinuity 0, new offset= -599983328
timestamp discontinuity -1, new offset= -599983327
timestamp discontinuity 11, new offset= -599983338
timestamp discontinuity 0, new offset= -599983338
timestamp discontinuity -1, new offset= -599983337
timestamp discontinuity 0, new offset= -599983337
timestamp discontinuity 0, new offset= -599983337
timestamp discontinuity -1, new offset= -599983336
timestamp discontinuity 0, new offset= -599983336
timestamp discontinuity 0, new offset= -599983336
frame= 1017 fps=156 q=31.0 size=    2278kB time=00:00:34.26 bitrate= 544.7kbits/s    
timestamp discontinuity -1, new offset= -599983335
timestamp discontinuity 0, new offset= -599983335
timestamp discontinuity 0, new offset= -599983335
timestamp discontinuity -1, new offset= -599983334
[h264 @ 0x32dfe40] Current profile doesn't provide more RBSP data in PPS, skipping
timestamp discontinuity 0, new offset= -599983334
timestamp discontinuity 0, new offset= -599983334
timestamp discontinuity -1, new offset= -599983333
timestamp discontinuity 0, new offset= -599983333
timestamp discontinuity 0, new offset= -599983333
timestamp discontinuity -1, new offset= -599983332
timestamp discontinuity 0, new offset= -599983332
timestamp discontinuity 0, new offset= -599983332
timestamp discontinuity -1, new offset= -599983331
timestamp discontinuity 0, new offset= -599983331
timestamp discontinuity 0, new offset= -599983331
timestamp discontinuity -1, new offset= -599983330
timestamp discontinuity 0, new offset= -599983330
timestamp discontinuity 0, new offset= -599983330
timestamp discontinuity -1, new offset= -599983329
timestamp discontinuity 0, new offset= -599983329
timestamp discontinuity 0, new offset= -599983329
timestamp discontinuity -1, new offset= -599983328
timestamp discontinuity 0, new offset= -599983328
timestamp discontinuity 0, new offset= -599983328
timestamp discontinuity -1, new offset= -599983327
timestamp discontinuity 11, new offset= -599983338
timestamp discontinuity 0, new offset= -599983338
timestamp discontinuity -1, new offset= -599983337
timestamp discontinuity 0, new offset= -599983337
timestamp discontinuity 0, new offset= -599983337
timestamp discontinuity -1, new offset= -599983336
timestamp discontinuity 0, new offset= -599983336
timestamp discontinuity 0, new offset= -599983336
timestamp discontinuity -1, new offset= -599983335
timestamp discontinuity 0, new offset= -599983335
[h264 @ 0x32dfe40] Current profile doesn't provide more RBSP data in PPS, skipping
timestamp discontinuity 0, new offset= -599983335
timestamp discontinuity -1, new offset= -599983334
timestamp discontinuity 0, new offset= -599983334
timestamp discontinuity 0, new offset= -599983334
timestamp discontinuity -1, new offset= -599983333
timestamp discontinuity 0, new offset= -599983333
timestamp discontinuity 0, new offset= -599983333
timestamp discontinuity -1, new offset= -599983332
timestamp discontinuity 0, new offset= -599983332
timestamp discontinuity 0, new offset= -599983332
timestamp discontinuity -1, new offset= -599983331
timestamp discontinuity 0, new offset= -599983331
timestamp discontinuity 0, new offset= -599983331
timestamp discontinuity -1, new offset= -599983330
timestamp discontinuity 0, new offset= -599983330
timestamp discontinuity 0, new offset= -599983330
timestamp discontinuity -1, new offset= -599983329
timestamp discontinuity 0, new offset= -599983329
timestamp discontinuity 0, new offset= -599983329
timestamp discontinuity -1, new offset= -599983328
timestamp discontinuity 0, new offset= -599983328
timestamp discontinuity 0, new offset= -599983328
timestamp discontinuity -1, new offset= -599983327
timestamp discontinuity 11, new offset= -599983338
timestamp discontinuity 0, new offset= -599983338
timestamp discontinuity -1, new offset= -599983337
timestamp discontinuity 0, new offset= -599983337
timestamp discontinuity 0, new offset= -599983337
timestamp discontinuity -1, new offset= -599983336
timestamp discontinuity 0, new offset= -599983336
timestamp discontinuity 0, new offset= -599983336
[h264 @ 0x32dfe40] Current profile doesn't provide more RBSP data in PPS, skipping
timestamp discontinuity -1, new offset= -599983335
timestamp discontinuity 0, new offset= -599983335
timestamp discontinuity 0, new offset= -599983335
timestamp discontinuity -1, new offset= -599983334
timestamp discontinuity 0, new offset= -599983334
timestamp discontinuity 0, new offset= -599983334
timestamp discontinuity -1, new offset= -599983333
timestamp discontinuity 0, new offset= -599983333
timestamp discontinuity 0, new offset= -599983333
timestamp discontinuity -1, new offset= -599983332
frame= 1093 fps=155 q=24.8 size=    2470kB time=00:00:36.80 bitrate= 549.8kbits/s    
timestamp discontinuity 0, new offset= -599983332
timestamp discontinuity 0, new offset= -599983332
timestamp discontinuity -1, new offset= -599983331
timestamp discontinuity 0, new offset= -599983331
timestamp discontinuity 0, new offset= -599983331
timestamp discontinuity -1, new offset= -599983330
timestamp discontinuity 0, new offset= -599983330
timestamp discontinuity 0, new offset= -599983330
timestamp discontinuity -1, new offset= -599983329
timestamp discontinuity 0, new offset= -599983329
timestamp discontinuity 0, new offset= -599983329
timestamp discontinuity -1, new offset= -599983328
timestamp discontinuity 0, new offset= -599983328
timestamp discontinuity 0, new offset= -599983328
timestamp discontinuity -1, new offset= -599983327
timestamp discontinuity 11, new offset= -599983338
timestamp discontinuity 0, new offset= -599983338
timestamp discontinuity -1, new offset= -599983337
timestamp discontinuity 0, new offset= -599983337
timestamp discontinuity 0, new offset= -599983337
timestamp discontinuity -1, new offset= -599983336
[h264 @ 0x32dfe40] Current profile doesn't provide more RBSP data in PPS, skipping
timestamp discontinuity 0, new offset= -599983336
timestamp discontinuity 0, new offset= -599983336
timestamp discontinuity -1, new offset= -599983335
timestamp discontinuity 0, new offset= -599983335
timestamp discontinuity 0, new offset= -599983335
timestamp discontinuity -1, new offset= -599983334
timestamp discontinuity 0, new offset= -599983334
timestamp discontinuity 0, new offset= -599983334
timestamp discontinuity -1, new offset= -599983333
timestamp discontinuity 0, new offset= -599983333
timestamp discontinuity 0, new offset= -599983333
timestamp discontinuity -1, new offset= -599983332
timestamp discontinuity 0, new offset= -599983332
timestamp discontinuity 0, new offset= -599983332
timestamp discontinuity -1, new offset= -599983331
timestamp discontinuity 0, new offset= -599983331
timestamp discontinuity 0, new offset= -599983331
timestamp discontinuity -1, new offset= -599983330
timestamp discontinuity 0, new offset= -599983330
timestamp discontinuity 0, new offset= -599983330
timestamp discontinuity -1, new offset= -599983329
timestamp discontinuity 0, new offset= -599983329
timestamp discontinuity 0, new offset= -599983329
timestamp discontinuity -1, new offset= -599983328
timestamp discontinuity 0, new offset= -599983328
timestamp discontinuity 0, new offset= -599983328
timestamp discontinuity -1, new offset= -599983327
timestamp discontinuity 11, new offset= -599983338
timestamp discontinuity 0, new offset= -599983338
timestamp discontinuity -1, new offset= -599983337
timestamp discontinuity 0, new offset= -599983337
[h264 @ 0x32dfe40] Current profile doesn't provide more RBSP data in PPS, skipping
timestamp discontinuity 0, new offset= -599983337
timestamp discontinuity -1, new offset= -599983336
timestamp discontinuity 0, new offset= -599983336
timestamp discontinuity 0, new offset= -599983336
timestamp discontinuity -1, new offset= -599983335
timestamp discontinuity 0, new offset= -599983335
timestamp discontinuity 0, new offset= -599983335
timestamp discontinuity -1, new offset= -599983334
timestamp discontinuity 0, new offset= -599983334
timestamp discontinuity 0, new offset= -599983334
timestamp discontinuity -1, new offset= -599983333
timestamp discontinuity 0, new offset= -599983333
timestamp discontinuity 0, new offset= -599983333
timestamp discontinuity -1, new offset= -599983332
timestamp discontinuity 0, new offset= -599983332
timestamp discontinuity 0, new offset= -599983332
timestamp discontinuity -1, new offset= -599983331
timestamp discontinuity 0, new offset= -599983331
timestamp discontinuity 0, new offset= -599983331
timestamp discontinuity -1, new offset= -599983330
timestamp discontinuity 0, new offset= -599983330
timestamp discontinuity 0, new offset= -599983330
timestamp discontinuity -1, new offset= -599983329
timestamp discontinuity 0, new offset= -599983329
timestamp discontinuity 0, new offset= -599983329
timestamp discontinuity -1, new offset= -599983328
frame= 1171 fps=155 q=31.0 size=    2623kB time=00:00:39.40 bitrate= 545.3kbits/s    
timestamp discontinuity 0, new offset= -599983328
timestamp discontinuity 0, new offset= -599983328
timestamp discontinuity -1, new offset= -599983327
timestamp discontinuity 11, new offset= -599983338
timestamp discontinuity 0, new offset= -599983338
[h264 @ 0x32dfe40] Current profile doesn't provide more RBSP data in PPS, skipping
timestamp discontinuity -1, new offset= -599983337
timestamp discontinuity 0, new offset= -599983337
timestamp discontinuity 0, new offset= -599983337
timestamp discontinuity -1, new offset= -599983336
timestamp discontinuity 0, new offset= -599983336
timestamp discontinuity 0, new offset= -599983336
timestamp discontinuity -1, new offset= -599983335
timestamp discontinuity 0, new offset= -599983335
timestamp discontinuity 0, new offset= -599983335
timestamp discontinuity -1, new offset= -599983334
timestamp discontinuity 0, new offset= -599983334
timestamp discontinuity 0, new offset= -599983334
timestamp discontinuity -1, new offset= -599983333
timestamp discontinuity 0, new offset= -599983333
timestamp discontinuity 0, new offset= -599983333
timestamp discontinuity -1, new offset= -599983332
timestamp discontinuity 0, new offset= -599983332
timestamp discontinuity 0, new offset= -599983332
timestamp discontinuity -1, new offset= -599983331
timestamp discontinuity 0, new offset= -599983331
timestamp discontinuity 0, new offset= -599983331
timestamp discontinuity -1, new offset= -599983330
timestamp discontinuity 0, new offset= -599983330
timestamp discontinuity 0, new offset= -599983330
timestamp discontinuity -1, new offset= -599983329
timestamp discontinuity 0, new offset= -599983329
timestamp discontinuity 0, new offset= -599983329
timestamp discontinuity -1, new offset= -599983328
timestamp discontinuity 0, new offset= -599983328
timestamp discontinuity 0, new offset= -599983328
timestamp discontinuity -1, new offset= -599983327
[h264 @ 0x32dfe40] Current profile doesn't provide more RBSP data in PPS, skipping
timestamp discontinuity 11, new offset= -599983338
timestamp discontinuity 0, new offset= -599983338
timestamp discontinuity -1, new offset= -599983337
timestamp discontinuity 0, new offset= -599983337
timestamp discontinuity 0, new offset= -599983337
timestamp discontinuity -1, new offset= -599983336
timestamp discontinuity 0, new offset= -599983336
timestamp discontinuity 0, new offset= -599983336
timestamp discontinuity -1, new offset= -599983335
timestamp discontinuity 0, new offset= -599983335
timestamp discontinuity 0, new offset= -599983335
timestamp discontinuity -1, new offset= -599983334
timestamp discontinuity 0, new offset= -599983334
timestamp discontinuity 0, new offset= -599983334
timestamp discontinuity -1, new offset= -599983333
timestamp discontinuity 0, new offset= -599983333
timestamp discontinuity 0, new offset= -599983333
timestamp discontinuity -1, new offset= -599983332
timestamp discontinuity 0, new offset= -599983332
timestamp discontinuity 0, new offset= -599983332
timestamp discontinuity -1, new offset= -599983331
timestamp discontinuity 0, new offset= -599983331
timestamp discontinuity 0, new offset= -599983331
timestamp discontinuity -1, new offset= -599983330
timestamp discontinuity 0, new offset= -599983330
timestamp discontinuity 0, new offset= -599983330
timestamp discontinuity -1, new offset= -599983329
timestamp discontinuity 0, new offset= -599983329
timestamp discontinuity 0, new offset= -599983329
timestamp discontinuity -1, new offset= -599983328
timestamp discontinuity 0, new offset= -599983328
[h264 @ 0x32dfe40] Current profile doesn't provide more RBSP data in PPS, skipping
timestamp discontinuity 0, new offset= -599983328
timestamp discontinuity -1, new offset= -599983327
timestamp discontinuity 11, new offset= -599983338
timestamp discontinuity 0, new offset= -599983338
timestamp discontinuity -1, new offset= -599983337
timestamp discontinuity 0, new offset= -599983337
timestamp discontinuity 0, new offset= -599983337
timestamp discontinuity -1, new offset= -599983336
timestamp discontinuity 0, new offset= -599983336
frame= 1247 fps=155 q=31.0 size=    2824kB time=00:00:42.28 bitrate= 547.1kbits/s    
timestamp discontinuity 0, new offset= -599983336
timestamp discontinuity -1, new offset= -599983335
timestamp discontinuity 0, new offset= -599983335
timestamp discontinuity 0, new offset= -599983335
timestamp discontinuity -1, new offset= -599983334
timestamp discontinuity 0, new offset= -599983334
timestamp discontinuity 0, new offset= -599983334
timestamp discontinuity -1, new offset= -599983333
timestamp discontinuity 0, new offset= -599983333
timestamp discontinuity 0, new offset= -599983333
timestamp discontinuity -1, new offset= -599983332
timestamp discontinuity 0, new offset= -599983332
timestamp discontinuity 0, new offset= -599983332
timestamp discontinuity -1, new offset= -599983331
timestamp discontinuity 0, new offset= -599983331
timestamp discontinuity 0, new offset= -599983331
timestamp discontinuity -1, new offset= -599983330
timestamp discontinuity 0, new offset= -599983330
timestamp discontinuity 0, new offset= -599983330
timestamp discontinuity -1, new offset= -599983329
timestamp discontinuity 0, new offset= -599983329
timestamp discontinuity 0, new offset= -599983329
[h264 @ 0x32dfe40] Current profile doesn't provide more RBSP data in PPS, skipping
timestamp discontinuity -1, new offset= -599983328
timestamp discontinuity 0, new offset= -599983328
timestamp discontinuity 0, new offset= -599983328
timestamp discontinuity -1, new offset= -599983327
timestamp discontinuity 11, new offset= -599983338
timestamp discontinuity 0, new offset= -599983338
timestamp discontinuity -1, new offset= -599983337
timestamp discontinuity 0, new offset= -599983337
timestamp discontinuity 0, new offset= -599983337
timestamp discontinuity -1, new offset= -599983336
timestamp discontinuity 0, new offset= -599983336
timestamp discontinuity 0, new offset= -599983336
timestamp discontinuity -1, new offset= -599983335
timestamp discontinuity 0, new offset= -599983335
timestamp discontinuity 0, new offset= -599983335
timestamp discontinuity -1, new offset= -599983334
timestamp discontinuity 0, new offset= -599983334
timestamp discontinuity 0, new offset= -599983334
timestamp discontinuity -1, new offset= -599983333
timestamp discontinuity 0, new offset= -599983333
timestamp discontinuity 0, new offset= -599983333
timestamp discontinuity -1, new offset= -599983332
timestamp discontinuity 0, new offset= -599983332
timestamp discontinuity 0, new offset= -599983332
timestamp discontinuity -1, new offset= -599983331
timestamp discontinuity 0, new offset= -599983331
timestamp discontinuity 0, new offset= -599983331
timestamp discontinuity -1, new offset= -599983330
timestamp discontinuity 0, new offset= -599983330
timestamp discontinuity 0, new offset= -599983330
timestamp discontinuity -1, new offset= -599983329
[h264 @ 0x32dfe40] Current profile doesn't provide more RBSP data in PPS, skipping
timestamp discontinuity 0, new offset= -599983329
timestamp discontinuity 0, new offset= -599983329
timestamp discontinuity -1, new offset= -599983328
timestamp discontinuity 0, new offset= -599983328
timestamp discontinuity 0, new offset= -599983328
timestamp discontinuity -1, new offset= -599983327
timestamp discontinuity 11, new offset= -599983338
timestamp discontinuity 0, new offset= -599983338
timestamp discontinuity -1, new offset= -599983337
timestamp discontinuity 0, new offset= -599983337
timestamp discontinuity 0, new offset= -599983337
timestamp discontinuity -1, new offset= -599983336
timestamp discontinuity 0, new offset= -599983336
timestamp discontinuity 0, new offset= -599983336
timestamp discontinuity -1, new offset= -599983335
timestamp discontinuity 0, new offset= -599983335
timestamp discontinuity 0, new offset= -599983335
timestamp discontinuity -1, new offset= -599983334
timestamp discontinuity 0, new offset= -599983334
timestamp discontinuity 0, new offset= -599983334
timestamp discontinuity -1, new offset= -599983333
timestamp discontinuity 0, new offset= -599983333
timestamp discontinuity 0, new offset= -599983333
timestamp discontinuity -1, new offset= -599983332
frame= 1324 fps=155 q=31.0 size=    2973kB time=00:00:44.85 bitrate= 543.1kbits/s    
timestamp discontinuity 0, new offset= -599983332
timestamp discontinuity 0, new offset= -599983332
timestamp discontinuity -1, new offset= -599983331
timestamp discontinuity 0, new offset= -599983331
timestamp discontinuity 0, new offset= -599983331
timestamp discontinuity -1, new offset= -599983330
timestamp discontinuity 0, new offset= -599983330
[h264 @ 0x32dfe40] Current profile doesn't provide more RBSP data in PPS, skipping
timestamp discontinuity 0, new offset= -599983330
timestamp discontinuity -1, new offset= -599983329
timestamp discontinuity 0, new offset= -599983329
timestamp discontinuity 0, new offset= -599983329
timestamp discontinuity -1, new offset= -599983328
timestamp discontinuity 0, new offset= -599983328
timestamp discontinuity 0, new offset= -599983328
timestamp discontinuity -1, new offset= -599983327
timestamp discontinuity 11, new offset= -599983338
timestamp discontinuity 0, new offset= -599983338
timestamp discontinuity -1, new offset= -599983337
timestamp discontinuity 0, new offset= -599983337
timestamp discontinuity 0, new offset= -599983337
timestamp discontinuity -1, new offset= -599983336
timestamp discontinuity 0, new offset= -599983336
timestamp discontinuity 0, new offset= -599983336
timestamp discontinuity -1, new offset= -599983335
timestamp discontinuity 0, new offset= -599983335
timestamp discontinuity 0, new offset= -599983335
timestamp discontinuity -1, new offset= -599983334
timestamp discontinuity 0, new offset= -599983334
timestamp discontinuity 0, new offset= -599983334
timestamp discontinuity -1, new offset= -599983333
timestamp discontinuity 0, new offset= -599983333
timestamp discontinuity 0, new offset= -599983333
timestamp discontinuity -1, new offset= -599983332
timestamp discontinuity 0, new offset= -599983332
timestamp discontinuity 0, new offset= -599983332
timestamp discontinuity -1, new offset= -599983331
timestamp discontinuity 0, new offset= -599983331
timestamp discontinuity 0, new offset= -599983331
[h264 @ 0x32dfe40] Current profile doesn't provide more RBSP data in PPS, skipping
timestamp discontinuity -1, new offset= -599983330
timestamp discontinuity 0, new offset= -599983330
timestamp discontinuity 0, new offset= -599983330
timestamp discontinuity -1, new offset= -599983329
timestamp discontinuity 0, new offset= -599983329
timestamp discontinuity 0, new offset= -599983329
timestamp discontinuity -1, new offset= -599983328
timestamp discontinuity 0, new offset= -599983328
timestamp discontinuity 0, new offset= -599983328
timestamp discontinuity -1, new offset= -599983327
timestamp discontinuity 11, new offset= -599983338
timestamp discontinuity 0, new offset= -599983338
timestamp discontinuity -1, new offset= -599983337
timestamp discontinuity 0, new offset= -599983337
timestamp discontinuity 0, new offset= -599983337
timestamp discontinuity -1, new offset= -599983336
timestamp discontinuity 0, new offset= -599983336
timestamp discontinuity 0, new offset= -599983336
timestamp discontinuity -1, new offset= -599983335
timestamp discontinuity 0, new offset= -599983335
timestamp discontinuity 0, new offset= -599983335
timestamp discontinuity -1, new offset= -599983334
timestamp discontinuity 0, new offset= -599983334
timestamp discontinuity 0, new offset= -599983334
timestamp discontinuity -1, new offset= -599983333
timestamp discontinuity 0, new offset= -599983333
timestamp discontinuity 0, new offset= -599983333
timestamp discontinuity -1, new offset= -599983332
timestamp discontinuity 0, new offset= -599983332
timestamp discontinuity 0, new offset= -599983332
timestamp discontinuity -1, new offset= -599983331
[h264 @ 0x32dfe40] Current profile doesn't provide more RBSP data in PPS, skipping
timestamp discontinuity 0, new offset= -599983331
timestamp discontinuity 0, new offset= -599983331
timestamp discontinuity -1, new offset= -599983330
timestamp discontinuity 0, new offset= -599983330
timestamp discontinuity 0, new offset= -599983330
timestamp discontinuity -1, new offset= -599983329
timestamp discontinuity 0, new offset= -599983329
timestamp discontinuity 0, new offset= -599983329
timestamp discontinuity -1, new offset= -599983328
frame= 1402 fps=155 q=31.0 size=    3125kB time=00:00:47.45 bitrate= 539.5kbits/s    
timestamp discontinuity 0, new offset= -599983328
timestamp discontinuity 0, new offset= -599983328
timestamp discontinuity -1, new offset= -599983327
timestamp discontinuity 11, new offset= -599983338
timestamp discontinuity 0, new offset= -599983338
timestamp discontinuity -1, new offset= -599983337
timestamp discontinuity 0, new offset= -599983337
timestamp discontinuity 0, new offset= -599983337
[output stream 0:1 @ 0x32d3ae0] EOF on sink link output stream 0:1:default.
[output stream 0:0 @ 0x32d1f00] EOF on sink link output stream 0:0:default.
No more output streams to write to, finishing.
[libmp3lame @ 0x32d7c80] Trying to remove 488 more samples than are in the que
frame= 1412 fps=155 q=31.0 Lsize=    5794kB time=00:00:47.78 bitrate= 993.4kbits/s    

video:5372kB audio:385kB subtitle:0 global headers:0kB muxing overhead 0.644591%
Statistics: 10762900 bytes read, 2 seeks

Attachments (1)

CAPTURE_cut.ts (2.0 MB) - added by larvalho 4 years ago.
A cut down version of the input file with which I can reproduce the problem.

Download all attachments as: .zip

Change History (6)

Changed 4 years ago by larvalho

A cut down version of the input file with which I can reproduce the problem.

comment:1 in reply to: ↑ description ; follow-up: Changed 4 years ago by cehoyos

  • Component changed from FFmpeg to undetermined

Replying to larvalho:

Summary of the bug:
Some mpeg 2 ts files (h264 + aac, generated by Crestron Lecture Capture), when transcoded using ffmpeg to flv, produce video that plays back at half the speed (frame rate is retained but number of frames is doubled), while the audio is rendered correctly. There is a 10 minute delay to the video, but this is in the original file, and eliminated with a '-vf setpts=PTS-STARTPTS'.

I am not sure I understand:
Is the original file supposed to play (ie with video and audio)?
Or is the 10 minute delay intentional?
In the first case, I would suspect this is a duplicate of ticket #424, in the second case, I wonder how ffmpeg is supposed to transcode the stream? Shouldn't it try hard to eliminate the A/V desync (leading to slow or fast video)?

comment:2 in reply to: ↑ 1 Changed 4 years ago by larvalho

Replying to cehoyos:

I am not sure I understand:
Is the original file supposed to play (ie with video and audio)?
Or is the 10 minute delay intentional?
In the first case, I would suspect this is a duplicate of ticket #424, in the second case, I wonder how ffmpeg is supposed to transcode the stream? Shouldn't it try hard to eliminate the A/V desync (leading to slow or fast video)?

The original file does play in VLC, etc. without the delay, and with audio correctly in sync. The 10 minute delay is not intentional, though it is indicated in the above output:

Input #0, mpegts, from 'CAPTURE-HD2959dd_1970-01-02_01_26_49.ts':
  Duration: 00:00:24.57, start: 599.983333, bitrate: 2824 kb/s

And with 'mediainfo -f':

Video
Delay                            : 599983.333
Delay                            : 9mn 59s
Delay                            : 9mn 59s 983ms
Delay                            : 9mn 59s
Delay                            : 00:09:59.983
Delay_Source                     : Container

Audio
Delay                            : 600047.333
Delay                            : 10mn 0s
Delay                            : 10mn 0s 47ms
Delay                            : 10mn 0s
Delay                            : 00:10:00.047
Delay_Source                     : Container
Video delay                      : 64
Video delay                      : 64ms
Video delay                      : 64ms
Video delay                      : 64ms
Video delay                      : 00:00:00.064
Video0 delay                     : 64
Video0 delay                     : 64ms
Video0 delay                     : 64ms
Video0 delay                     : 64ms
Video0 delay                     : 00:00:00.064

So I suppose it should be honoured.

If I discard the audio when transcoding (-an), I get the same half speed video.

On another note, running the same file through ffmpegX (using a particularly old version of ffmpeg) and HandBrake? on OS X, I get no delay and correctly synced (normal speed) video and audio.

Version 0, edited 4 years ago by larvalho (next)

comment:3 Changed 4 years ago by cehoyos

  • Keywords h264 mpegts added
  • Reproduced by developer set
  • Status changed from new to open
  • Version changed from 1.0 to git-master

comment:4 Changed 4 years ago by cehoyos

  • Keywords desync added

comment:5 Changed 12 months ago by cehoyos

  • Resolution set to fixed
  • Status changed from open to closed

Fixed by Michael in 1e5271a9fd6ddcceb083f2185a4bbd8d44c9a813 (FFmpeg 2.1), indeed a duplicate of ticket #424.

Note: See TracTickets for help on using tickets.