Changes between Initial Version and Version 1 of Ticket #1839, comment 4


Ignore:
Timestamp:
Nov 19, 2012, 11:23:08 AM (4 years ago)
Author:
cehoyos
Comment:

Legend:

Unmodified
Added
Removed
Modified
  • Ticket #1839, comment 4

    initial v1  
    44Hi cehoyos, 
    55command line is : 
     6{{{ 
    67./ffmpeg -y -ss 00:00:10.00 -t 10  -i kaka.mkv -strict experimental -acodec aac -vcodec libx264 -r 15 -s 1280x720 -b:v 2000k  -b:a 88k -ar 44100 -preset ultrafast -vprofile baseline -vlevel 1.0  -map 0:0 -map 0:1 -copyts -bsf h264_mp4toannexb -vsync 1 -f mpegts  test-12.ts 
    78 
     
    9899    Stream #0:0[0x100]: Video: h264 (Constrained Baseline) ([27][0][0][0] / 0x001B), yuv420p, 1280x720 [SAR 270:199 DAR 480:199], 15 fps, 15 tbr, 90k tbn, 30 tbc 
    99100    Stream #0:1[0x101](eng): Audio: aac ([15][0][0][0] / 0x000F), 44100 Hz, 5.1, s16, 45 kb/s 
    100  
     101}}} 
    101102 
    102103Thanks