Changes between Initial Version and Version 1 of Ticket #1798, comment 4


Ignore:
Timestamp:
Oct 10, 2012, 5:12:28 PM (4 years ago)
Author:
cehoyos
Comment:

Legend:

Unmodified
Added
Removed
Modified
  • Ticket #1798, comment 4

    initial v1  
    11It was recorded with tvheadend-git (07/Oct/2012). 
    2  
     2{{{ 
    33ffmpeg version N-45169-g43c157f Copyright (c) 2000-2012 the FFmpeg developers 
    44  built on Oct  8 2012 10:02:26 with gcc 4.4.5 (Debian 4.4.5-8) 
     
    2525    Stream #0:0[0x1043]: Video: h264 (High) ([27][0][0][0] / 0x001B), yuv420p, 1920x1080 [SAR 1:1 DAR 16:9], 59.94 fps, 59.94 tbr, 90k tbn, 59.94 tbc 
    2626    Stream #0:1[0x1041](por): Audio: ac3 ([129][0][0][0] / 0x0081), 44100 Hz, 4.1, s16, 384 kb/s (comment) 
     27}}}