Changes between Initial Version and Version 1 of Ticket #1778, comment 11


Ignore:
Timestamp:
Jul 31, 2015, 10:39:36 PM (4 years ago)
Author:
cjplay93
Comment:

Legend:

Unmodified
Added
Removed
Modified
  • Ticket #1778, comment 11

    initial v1  
    6060f used)
    6161}}}
     62
     63Without lavfi, you see a c708 codec detection:
     64
     65{{{
     66
     67Input #0, mov,mp4,m4a,3gp,3g2,mj2, from 'OPEN_HOUSE_5275_WITH_CC_5mins.mov':
     68  Metadata:
     69    major_brand     : qt
     70    minor_version   : 537199360
     71    compatible_brands: qt
     72    creation_time   : 2015-04-15 21:12:03
     73  Duration: 00:05:00.03, start: 0.000000, bitrate: 138315 kb/s
     74    Stream #0:0(und): Video: prores (apcn / 0x6E637061), yuv422p10le(bt709), 192
     750x1080, 135984 kb/s, SAR 1:1 DAR 16:9, 29.97 fps, 29.97 tbr, 30k tbn, 30k tbc (d
     76efault)
     77    Metadata:
     78      creation_time   : 2015-04-15 21:12:03
     79      handler_name    : Apple Alias Data Handler
     80      encoder         : Apple ProRes 422
     81      timecode        : 00:59:00;02
     82    Stream #0:1(und): Audio: pcm_s24le (in24 / 0x34326E69), 48000 Hz, stereo, s3
     832 (24 bit), 2304 kb/s (default)
     84    Metadata:
     85      creation_time   : 2015-04-15 21:12:04
     86      handler_name    : Apple Alias Data Handler
     87    Stream #0:2(und): Data: none (tmcd / 0x64636D74) (default)
     88    Metadata:
     89      creation_time   : 2015-04-15 21:12:04
     90      handler_name    : Apple Alias Data Handler
     91      timecode        : 00:59:00;02
     92    Stream #0:3(eng): Subtitle: none (c708 / 0x38303763), 1920x1080, 23 kb/s (de
     93fault)
     94    Metadata:
     95      creation_time   : 2015-04-15 21:12:04
     96      handler_name    : Apple Alias Data Handler
     97At least one output file must be specified
     98}}}
     99
     100I can't even do a "rawvideo" or -c:s copy on that stream to anywhere.