Changes between Initial Version and Version 1 of Ticket #1722, comment 9


Ignore:
Timestamp:
Sep 11, 2012, 11:27:35 PM (4 years ago)
Author:
cehoyos
Comment:

Legend:

Unmodified
Added
Removed
Modified
  • Ticket #1722, comment 9

    initial v1  
     1{{{ 
    12ffplay version N-44264-g070b0e1 Copyright (c) 2003-2012 the FFmpeg developers 
    23  built on Sep  7 2012 17:35:17 with gcc 4.7.1 (GCC) 
    3   configuration: --enable-gpl --enable-version3 --disable-pthreads --enable-runt 
    4 ime-cpudetect --enable-avisynth --enable-bzlib --enable-frei0r --enable-libass - 
    5 -enable-libcelt --enable-libopencore-amrnb --enable-libopencore-amrwb --enable-l 
    6 ibfreetype --enable-libgsm --enable-libmp3lame --enable-libnut --enable-libopenj 
    7 peg --enable-librtmp --enable-libschroedinger --enable-libspeex --enable-libtheo 
    8 ra --enable-libutvideo --enable-libvo-aacenc --enable-libvo-amrwbenc --enable-li 
    9 bvorbis --enable-libvpx --enable-libx264 --enable-libxavs --enable-libxvid --ena 
    10 ble-zlib 
     4  configuration: --enable-gpl --enable-version3 --disable-pthreads --enable-runtime-cpudetect --enable-avisynth --enable-bzlib --enable-frei0r --enable-libass --enable-libcelt --enable-libopencore-amrnb --enable-libopencore-amrwb --enable-libfreetype --enable-libgsm --enable-libmp3lame --enable-libnut --enable-libopenjpeg --enable-librtmp --enable-libschroedinger --enable-libspeex --enable-libtheora --enable-libutvideo --enable-libvo-aacenc --enable-libvo-amrwbenc --enable-libvorbis --enable-libvpx --enable-libx264 --enable-libxavs --enable-libxvid --enable-zlib 
    115  libavutil      51. 72.100 / 51. 72.100 
    126  libavcodec     54. 55.100 / 54. 55.100 
     
    1711  libswresample   0. 15.100 /  0. 15.100 
    1812  libpostproc    52.  0.100 / 52.  0.100 
    19 Input #0, mpegts, from 'C:\Users\Gebruiker\Downloads\Sample of Subtitle Issue-.m 
    20 2ts': 
     13Input #0, mpegts, from 'C:\Users\Gebruiker\Downloads\Sample of Subtitle Issue-.m2ts': 
    2114  Duration: 00:00:18.09, start: 610.186000, bitrate: 23282 kb/s 
    2215  Program 1 
    23     Stream #0:0[0x1011]: Video: h264 (High) ([27][0][0][0] / 0x001B), yuv420p, 1 
    24 920x1080 [SAR 1:1 DAR 16:9], 23.98 fps, 23.98 tbr, 90k tbn, 47.95 tbc 
    25     Stream #0:1[0x1100]: Audio: dts (DTS-HD MA) ([134][0][0][0] / 0x0086), 48000 
    26  Hz, 5.1(side), s16, 1536 kb/s 
     16    Stream #0:0[0x1011]: Video: h264 (High) ([27][0][0][0] / 0x001B), yuv420p, 1920x1080 [SAR 1:1 DAR 16:9], 23.98 fps, 23.98 tbr, 90k tbn, 47.95 tbc 
     17    Stream #0:1[0x1100]: Audio: dts (DTS-HD MA) ([134][0][0][0] / 0x0086), 48000 Hz, 5.1(side), s16, 1536 kb/s 
    2718    Stream #0:2[0x1200]: Subtitle: hdmv_pgs_subtitle ([144][0][0][0] / 0x0090) 
    2819SDL_OpenAudio (6 channels): DirectSound CreateSoundBuffer: Invalid parameter 
    2920SDL_OpenAudio (4 channels): DirectSound CreateSoundBuffer: Invalid parameter 
    30 [h264 @ 046c0560] reference picture missing during reordersq=    0B f=0/0 
    31 [h264 @ 046c0560] Missing reference picture 
    32  610.21 A-V:-1347371930.665 fd= [h264 @ 046c0560]   reference picture missing du 
    33 ring reorder 
     21[h264 @ 046c0560] reference picture missing during reorder 
    3422[h264 @ 046c0560] Missing reference picture 
    3523[h264 @ 046c0560] reference picture missing during reorder 
    36  61[h264 @ 046c0560] 0.Missing reference picture 
     24[h264 @ 046c0560] Missing reference picture 
     25[h264 @ 046c0560] reference picture missing during reorder 
     26[h264 @ 046c0560] Missing reference picture 
    3727[h264 @ 046c0560] reference picture missing during reorder449B f=0/0 
    3828[h264 @ 046c0560] Missing reference picture 
    39  610.34 A-V:-1347371930.665 fd=   0 aq= Frame changed from size:0x0 to size:1920 
    40 x1080 
     29 610.34 A-V:-1347371930.665 fd=   0 aq=  
     30Frame changed from size:0x0 to size:1920x1080 
    4131 615.01 A-V: -0.008 fd=  40 aq= 2818KB vq=12541KB sq=    0B f=0/0   f=0/0 
     32}}}