Opened 5 years ago

Closed 5 years ago

#1710 closed defect (fixed)

pictor: gray bar at the top

Reported by: ami_stuff Owned by:
Priority: normal Component: avcodec
Version: git-master Keywords: pictor
Cc: Blocked By:
Blocking: Reproduced by developer: no
Analyzed by developer: no

Description

the file comes from PC Paint package

C:\>ffmpeg -i GSAM.PIC out.bmp
ffmpeg version N-44080-gdfb4757 Copyright (c) 2000-2012 the FFmpeg developers
  built on Sep  1 2012 02:36:59 with gcc 4.5.0 (GCC) 20100414 (Fedora MinGW 4.5.
0-1.fc14)
  configuration: --prefix=/var/www/users/research/ffmpeg/snapshots/build --arch=
x86 --target-os=mingw32 --cross-prefix=i686-pc-mingw32- --cc='ccache i686-pc-min
gw32-gcc' --enable-w32threads --enable-memalign-hack --enable-runtime-cpudetect
--enable-cross-compile --enable-static --disable-shared --extra-libs='-lws2_32 -
lwinmm -lpthread' --extra-cflags='--static -I/var/www/users/research/ffmpeg/snap
shots/build/include' --extra-ldflags='-static -L/var/www/users/research/ffmpeg/s
napshots/build/lib' --enable-bzlib --enable-zlib --enable-gpl --enable-version3
--enable-nonfree --enable-libx264 --enable-libspeex --enable-libtheora --enable-
libvorbis --enable-libfaac --enable-libxvid --enable-libopencore-amrnb --enable-
libopencore-amrwb --enable-libmp3lame --enable-libvpx --disable-decoder=libvpx
  libavutil      51. 70.100 / 51. 70.100
  libavcodec     54. 55.100 / 54. 55.100
  libavformat    54. 25.104 / 54. 25.104
  libavdevice    54.  2.100 / 54.  2.100
  libavfilter     3. 15.101 /  3. 15.101
  libswscale      2.  1.101 /  2.  1.101
  libswresample   0. 15.100 /  0. 15.100
  libpostproc    52.  0.100 / 52.  0.100
Input #0, image2, from 'GSAM.PIC':
  Duration: 00:00:00.04, start: 0.000000, bitrate: N/A
    Stream #0:0: Video: pictor, pal8, 240x235, 25 tbr, 25 tbn, 25 tbc
Output #0, image2, to 'out.bmp':
  Metadata:
    encoder         : Lavf54.25.104
    Stream #0:0: Video: bmp, pal8, 240x235, q=2-31, 200 kb/s, 90k tbn, 25 tbc
Stream mapping:
  Stream #0:0 -> #0:0 (pictor -> bmp)
Press [q] to stop, [?] for help
frame=    1 fps=0.0 q=0.0 Lsize=       0kB time=00:00:00.04 bitrate=   0.0kbits/
s
video:56kB audio:0kB subtitle:0 global headers:0kB muxing overhead -100.000000%

Attachments (1)

GSAM.PIC (4.6 KB) - added by ami_stuff 5 years ago.

Download all attachments as: .zip

Change History (3)

Changed 5 years ago by ami_stuff

comment:1 Changed 5 years ago by cehoyos

  • Component changed from undetermined to avcodec
  • Keywords pictor added
  • Status changed from new to open
  • Version changed from unspecified to git-master

comment:2 Changed 5 years ago by cehoyos

  • Resolution set to fixed
  • Status changed from open to closed

Fixed by Peter Ross.

Note: See TracTickets for help on using tickets.