Opened 4 years ago

Closed 3 years ago

Last modified 3 years ago

#1694 closed defect (fixed)

Decoding a possibly damaged aac sample fails from a specific position on

Reported by: cehoyos Owned by:
Priority: important Component: avcodec
Version: git-master Keywords: aac regression latm
Cc: Blocked By:
Blocking: Reproduced by developer: yes
Analyzed by developer: no

Description

A user uploaded a possibly damaged aac sample that is approximately 11:49 long. 6:30 are decoded fine, then a problem occurs and decoding further only produces silence, even when seeked back (with ffplay or MPlayer). If seeking is used to skip the problematic part, several more minutes are decoded (until the next problematic position at 10:40 that can also be skipped).

$ ffmpeg -i a.aac -f null -                                              
ffmpeg version N-43938-gbe862c0 Copyright (c) 2000-2012 the FFmpeg developers                              
  built on Aug 27 2012 19:54:31 with gcc 4.5.3 (GCC)                                                       
  configuration: --cc=/usr/local/gcc-4.5.3/bin/gcc                                                         
  libavutil      51. 70.100 / 51. 70.100                                                                   
  libavcodec     54. 54.100 / 54. 54.100                                                                   
  libavformat    54. 25.104 / 54. 25.104                                                                   
  libavdevice    54.  2.100 / 54.  2.100                                                                   
  libavfilter     3. 13.101 /  3. 13.101                                                                   
  libswscale      2.  1.101 /  2.  1.101                                                                   
  libswresample   0. 15.100 /  0. 15.100                                                                   
[aac @ 0x1480240] max_analyze_duration 5000000 reached at 5015510                                          
[aac @ 0x1480240] Estimating duration from bitrate, this may be inaccurate                                 
Input #0, aac, from 'a.aac':                                                                               
  Duration: 00:11:39.44, bitrate: 32 kb/s                                                                  
    Stream #0:0: Audio: aac, 44100 Hz, stereo, s16, 32 kb/s                                                
Output #0, null, to 'pipe:':                                                                               
  Metadata:                                                                                                
    encoder         : Lavf54.25.104                                                                        
    Stream #0:0: Audio: pcm_s16le, 44100 Hz, stereo, s16, 1411 kb/s                                        
Stream mapping:                                                                                            
  Stream #0:0 -> #0:0 (aac -> pcm_s16le)                                                                   
Press [q] to stop, [?] for help                                                                            
Reserved bit set.ime=00:06:11.89 bitrate=   0.0kbits/s                                                     
Error while decoding stream #0:0: Invalid data found when processing input                                 
[aac @ 0x14865a0] channel element 2.2 is not allocated                                                     
Error while decoding stream #0:0: Operation not permitted                                                  
[aac @ 0x14865a0] channel element 3.13 is not allocated                                                    
Error while decoding stream #0:0: Operation not permitted                                                  
[aac @ 0x14865a0] Reserved bit set.                                                                        
Error while decoding stream #0:0: Invalid data found when processing input                                 
[aac @ 0x14865a0] Reserved bit set.                                                                        
Error while decoding stream #0:0: Invalid data found when processing input                                 
Multiple frames in a packet from stream 0                                                                  
[aac @ 0x14865a0] Sample rate index in program config element does not match the sample rate index configured by the container.                                                                                       
[aac @ 0x14865a0] decode_pce: Input buffer exhausted before END element found                              
Error while decoding stream #0:0: Operation not permitted                                                  
[aac @ 0x14865a0] Sample rate index in program config element does not match the sample rate index configured by the container.                                                                                       
[aac @ 0x14865a0] channel element 2.13 is not allocated                                                    
Error while decoding stream #0:0: Operation not permitted                                                  
[aac @ 0x14865a0] Number of bands (48) exceeds limit (45).                                                 
Error while decoding stream #0:0: Operation not permitted                                                  
[aac @ 0x14865a0] skip_data_stream_element: Input buffer exhausted before END element found                
Error while decoding stream #0:0: Operation not permitted                                                  
[aac @ 0x14865a0] Number of bands (18) exceeds limit (14).                                                 
Error while decoding stream #0:0: Operation not permitted                                                  
[aac @ 0x14865a0] channel element 3.2 is not allocated                                                     
Error while decoding stream #0:0: Operation not permitted                                                  
[aac @ 0x14865a0] Number of bands (10) exceeds limit (7).                                                  
Error while decoding stream #0:0: Operation not permitted                                                  
[aac @ 0x14865a0] channel element 3.5 is not allocated                                                     
Error while decoding stream #0:0: Operation not permitted                                                  
[aac @ 0x14865a0] Reserved bit set.                                                                        
Error while decoding stream #0:0: Invalid data found when processing input                                 
[aac @ 0x14865a0] invalid band type                                                                        
Error while decoding stream #0:0: Operation not permitted                                                  
[aac @ 0x14865a0] channel element 2.0 is not allocated                                                     
Error while decoding stream #0:0: Operation not permitted                                                  
[aac @ 0x14865a0] Prediction is not allowed in AAC-LC.                                                     
Error while decoding stream #0:0: Invalid data found when processing input                                 
[aac @ 0x14865a0] Reserved bit set.                                                                        
Error while decoding stream #0:0: Invalid data found when processing input                                 
[aac @ 0x14865a0] SBR was found before the first channel element.                                          
[aac @ 0x14865a0] Sample rate index in program config element does not match the sample rate index configured by the container.                                                                                       
[aac @ 0x14865a0] decode_pce: Input buffer exhausted before END element found                              
Error while decoding stream #0:0: Operation not permitted                                                  
[aac @ 0x14865a0] Number of bands (44) exceeds limit (42).                                                 
Error while decoding stream #0:0: Operation not permitted                                                  
[aac @ 0x14865a0] channel element 2.14 is not allocated                                                    
Error while decoding stream #0:0: Operation not permitted                                                  
[aac @ 0x14865a0] channel element 2.8 is not allocated                                                     
Error while decoding stream #0:0: Operation not permitted                                                  
[aac @ 0x14865a0] skip_data_stream_element: Input buffer exhausted before END element found                
Error while decoding stream #0:0: Operation not permitted                                                  
[aac @ 0x14865a0] channel element 3.15 is not allocated                                                    
Error while decoding stream #0:0: Operation not permitted                                                  
[aac @ 0x14865a0] invalid band type                                                                        
Error while decoding stream #0:0: Operation not permitted                                                  
[aac @ 0x14865a0] Sample rate index in program config element does not match the sample rate index configured by the container.                                                                                       
[aac @ 0x14865a0] skip_data_stream_element: Input buffer exhausted before END element found                
Error while decoding stream #0:0: Operation not permitted                                                  
[aac @ 0x14865a0] Sample rate index in program config element does not match the sample rate index configured by the container.                                                                                       
[aac @ 0x14865a0] Reserved bit set.                                                                        
Error while decoding stream #0:0: Invalid data found when processing input                                 
[aac @ 0x14865a0] channel element 2.0 is not allocated                                                     
Error while decoding stream #0:0: Operation not permitted                                                  
[aac @ 0x14865a0] Reserved bit set.                                                                        
Error while decoding stream #0:0: Invalid data found when processing input                                 
[aac @ 0x14865a0] Reserved bit set.                                                                        
Error while decoding stream #0:0: Invalid data found when processing input                                 
[aac @ 0x14865a0] Number of scalefactor bands in group (54) exceeds limit (47).                            
Error while decoding stream #0:0: Invalid data found when processing input                                 
[aac @ 0x14865a0] Sample rate index in program config element does not match the sample rate index configured by the container.                                                                                       
[aac @ 0x14865a0] decode_pce: Input buffer exhausted before END element found                              
Error while decoding stream #0:0: Operation not permitted                                                  
[aac @ 0x14865a0] channel element 3.8 is not allocated                                                     
Error while decoding stream #0:0: Operation not permitted                                                  
[aac @ 0x14865a0] skip_data_stream_element: Input buffer exhausted before END element found                
Error while decoding stream #0:0: Operation not permitted                                                  
[aac @ 0x14865a0] skip_data_stream_element: Input buffer exhausted before END element found                
Error while decoding stream #0:0: Operation not permitted                                                  
[aac @ 0x14865a0] Prediction is not allowed in AAC-LC.                                                     
Error while decoding stream #0:0: Invalid data found when processing input                                 
[aac @ 0x14865a0] Reserved bit set.                                                                        
Error while decoding stream #0:0: Invalid data found when processing input                                 
[aac @ 0x14865a0] Sample rate index in program config element does not match the sample rate index configured by the container.                                                                                       
[aac @ 0x14865a0] skip_data_stream_element: Input buffer exhausted before END element found                
Error while decoding stream #0:0: Operation not permitted                                                  
[aac @ 0x14865a0] channel element 3.12 is not allocated                                                    
Error while decoding stream #0:0: Operation not permitted                                                  
[aac @ 0x14865a0] Prediction is not allowed in AAC-LC.                                                     
Error while decoding stream #0:0: Invalid data found when processing input                                 
[aac @ 0x14865a0] channel element 2.3 is not allocated                                                     
Error while decoding stream #0:0: Operation not permitted                                                  
[aac @ 0x14865a0] Reserved bit set.                                                                        
Error while decoding stream #0:0: Invalid data found when processing input                                 
[aac @ 0x14865a0] Sample rate index in program config element does not match the sample rate index configured by the container.                                                                                       
    Last message repeated 1 times                                                                          
[aac @ 0x14865a0] Not evaluating a further program_config_element as this construct is dubious at best.    
[aac @ 0x14865a0] Sample rate index in program config element does not match the sample rate index configured by the container.                                                                                       
[aac @ 0x14865a0] decode_pce: Input buffer exhausted before END element found                              
Error while decoding stream #0:0: Operation not permitted                                                  
[aac @ 0x14865a0] decode_pce: Input buffer exhausted before END element found                              
Error while decoding stream #0:0: Operation not permitted                                                  
[aac @ 0x14865a0] Sample rate index in program config element does not match the sample rate index configured by the container.                                                                                       
[aac @ 0x14865a0] Reserved bit set.                                                                        
Error while decoding stream #0:0: Invalid data found when processing input                                 
[aac @ 0x14865a0] Sample rate index in program config element does not match the sample rate index configured by the container.                                                                                       
[aac @ 0x14865a0] decode_pce: Input buffer exhausted before END element found                              
Error while decoding stream #0:0: Operation not permitted                                                  
[aac @ 0x14865a0] channel element 3.7 is not allocated                                                     
Error while decoding stream #0:0: Operation not permitted                                                  
[aac @ 0x14865a0] Sample rate index in program config element does not match the sample rate index configured by the container.                                                                                       
[aac @ 0x14865a0] Reserved bit set.                                                                        
Error while decoding stream #0:0: Invalid data found when processing input                                 
[aac @ 0x14865a0] Number of bands (6) exceeds limit (5).                                                   
Error while decoding stream #0:0: Operation not permitted                                                  
[aac @ 0x14865a0] channel element 3.10 is not allocated                                                    
Error while decoding stream #0:0: Operation not permitted                                                  
[aac @ 0x14865a0] channel element 3.4 is not allocated                                                     
Error while decoding stream #0:0: Operation not permitted                                                  
[aac @ 0x14865a0] Reserved bit set.                                                                        
Error while decoding stream #0:0: Invalid data found when processing input                                 
[aac @ 0x14865a0] Number of bands (28) exceeds limit (13).                                                 
Error while decoding stream #0:0: Operation not permitted                                                  
[aac @ 0x14865a0] skip_data_stream_element: Input buffer exhausted before END element found                
Error while decoding stream #0:0: Operation not permitted                                                  
[aac @ 0x14865a0] skip_data_stream_element: Input buffer exhausted before END element found                
Error while decoding stream #0:0: Operation not permitted                                                  
[aac @ 0x14865a0] channel element 2.12 is not allocated                                                    
Error while decoding stream #0:0: Operation not permitted                                                  
[aac @ 0x14865a0] Prediction is not allowed in AAC-LC.                                                     
Error while decoding stream #0:0: Invalid data found when processing input                                 
[aac @ 0x14865a0] Prediction is not allowed in AAC-LC.                                                     
Error while decoding stream #0:0: Invalid data found when processing input                                 
[aac @ 0x14865a0] Prediction is not allowed in AAC-LC.                                                     
Error while decoding stream #0:0: Invalid data found when processing input                                 
[aac @ 0x14865a0] Input buffer exhausted before END element found                                          
Error while decoding stream #0:0: Operation not permitted                                                  
[aac @ 0x14865a0] Reserved bit set.                                                                        
Error while decoding stream #0:0: Invalid data found when processing input                                 
[aac @ 0x14865a0] Reserved bit set.                                                                        
Error while decoding stream #0:0: Invalid data found when processing input                                 
[aac @ 0x14865a0] channel element 3.4 is not allocated                                                     
Error while decoding stream #0:0: Operation not permitted                                                  
[aac @ 0x14865a0] skip_data_stream_element: Input buffer exhausted before END element found                
Error while decoding stream #0:0: Operation not permitted                                                  
[aac @ 0x14865a0] channel element 3.14 is not allocated                                                    
Error while decoding stream #0:0: Operation not permitted                                                  
[aac @ 0x14865a0] channel element 2.6 is not allocated                                                     
Error while decoding stream #0:0: Operation not permitted                                                  
[aac @ 0x14865a0] Sample rate index in program config element does not match the sample rate index configured by the container.                                                                                       
[aac @ 0x14865a0] Reserved bit set.                                                                        
Error while decoding stream #0:0: Invalid data found when processing input                                 
[aac @ 0x14865a0] channel element 2.7 is not allocated                                                     
Error while decoding stream #0:0: Operation not permitted                                                  
[aac @ 0x14865a0] Input buffer exhausted before END element found                                          
Error while decoding stream #0:0: Operation not permitted                                                  
[aac @ 0x14865a0] channel element 3.2 is not allocated                                                     
Error while decoding stream #0:0: Operation not permitted                                                  
[aac @ 0x14865a0] Sample rate index in program config element does not match the sample rate index configured by the container.                                                                                       
[aac @ 0x14865a0] Prediction is not allowed in AAC-LC.                                                     
Error while decoding stream #0:0: Invalid data found when processing input                                 
[aac @ 0x14865a0] Prediction is not allowed in AAC-LC.                                                     
Error while decoding stream #0:0: Invalid data found when processing input                                 
[aac @ 0x14865a0] channel element 3.1 is not allocated                                                     
Error while decoding stream #0:0: Operation not permitted                                                  
[aac @ 0x14865a0] Sample rate index in program config element does not match the sample rate index configured by the container.                                                                                       
[aac @ 0x14865a0] decode_pce: Input buffer exhausted before END element found                              
Error while decoding stream #0:0: Operation not permitted                                                  
[aac @ 0x14865a0] channel element 3.11 is not allocated                                                    
Error while decoding stream #0:0: Operation not permitted                                                  
[aac @ 0x14865a0] channel element 2.15 is not allocated                                                    
Error while decoding stream #0:0: Operation not permitted                                                  
[aac @ 0x14865a0] Scalefactor (-1) out of range.                                                           
Error while decoding stream #0:0: Operation not permitted                                                  
[aac @ 0x14865a0] channel element 2.0 is not allocated                                                     
Error while decoding stream #0:0: Operation not permitted                                                  
[aac @ 0x14865a0] channel element 2.7 is not allocated                                                     
Error while decoding stream #0:0: Operation not permitted                                                  
[aac @ 0x14865a0] skip_data_stream_element: Input buffer exhausted before END element found                
Error while decoding stream #0:0: Operation not permitted                                                  
[aac @ 0x14865a0] Sample rate index in program config element does not match the sample rate index configured by the container.                                                                                       
[aac @ 0x14865a0] decode_pce: Input buffer exhausted before END element found                              
Error while decoding stream #0:0: Operation not permitted                                                  
[aac @ 0x14865a0] SBR was found before the first channel element.                                          
[aac @ 0x14865a0] Reserved bit set.                                                                        
Error while decoding stream #0:0: Invalid data found when processing input                                 
[aac @ 0x14865a0] channel element 3.5 is not allocated                                                     
Error while decoding stream #0:0: Operation not permitted                                                  
[aac @ 0x14865a0] channel element 3.4 is not allocated                                                     
Error while decoding stream #0:0: Operation not permitted                                                  
[aac @ 0x14865a0] Reserved bit set.                                                                        
Error while decoding stream #0:0: Invalid data found when processing input                                 
[aac @ 0x14865a0] skip_data_stream_element: Input buffer exhausted before END element found                
Error while decoding stream #0:0: Operation not permitted                                                  
[aac @ 0x14865a0] Prediction is not allowed in AAC-LC.                                                     
Error while decoding stream #0:0: Invalid data found when processing input                                 
[aac @ 0x14865a0] Sample rate index in program config element does not match the sample rate index configured by the container.                                                                                       
[aac @ 0x14865a0] decode_pce: Input buffer exhausted before END element found                              
Error while decoding stream #0:0: Operation not permitted                                                  
[aac @ 0x14865a0] Sample rate index in program config element does not match the sample rate index configured by the container.                                                                                       
[aac @ 0x14865a0] decode_pce: Input buffer exhausted before END element found                              
Error while decoding stream #0:0: Operation not permitted                                                  
[aac @ 0x14865a0] channel element 3.11 is not allocated                                                    
Error while decoding stream #0:0: Operation not permitted                                                  
[aac @ 0x14865a0] Reserved bit set.                                                                        
Error while decoding stream #0:0: Invalid data found when processing input                                 
[aac @ 0x14865a0] Reserved bit set.                                                                        
Error while decoding stream #0:0: Invalid data found when processing input                                 
[aac @ 0x14865a0] Sample rate index in program config element does not match the sample rate index configured by the container.                                                                                       
[aac @ 0x14865a0] decode_pce: Input buffer exhausted before END element found                              
Error while decoding stream #0:0: Operation not permitted                                                  
[aac @ 0x14865a0] Reserved bit set.                                                                        
Error while decoding stream #0:0: Invalid data found when processing input                                 
[aac @ 0x14865a0] Reserved bit set.                                                                        
Error while decoding stream #0:0: Invalid data found when processing input                                 
[aac @ 0x14865a0] channel element 2.13 is not allocated                                                    
Error while decoding stream #0:0: Operation not permitted                                                  
[aac @ 0x14865a0] Sample rate index in program config element does not match the sample rate index configured by the container.                                                                                       
    Last message repeated 1 times                                                                          
[aac @ 0x14865a0] decode_pce: Input buffer exhausted before END element found                              
Error while decoding stream #0:0: Operation not permitted                                                  
[aac @ 0x14865a0] skip_data_stream_element: Input buffer exhausted before END element found                
Error while decoding stream #0:0: Operation not permitted                                                  
[aac @ 0x14865a0] channel element 2.7 is not allocated                                                     
Error while decoding stream #0:0: Operation not permitted                                                  
[aac @ 0x14865a0] channel element 3.11 is not allocated                                                    
Error while decoding stream #0:0: Operation not permitted                                                  
[aac @ 0x14865a0] Reserved bit set.                                                                        
Error while decoding stream #0:0: Invalid data found when processing input                                 
[aac @ 0x14865a0] channel element 3.11 is not allocated                                                    
Error while decoding stream #0:0: Operation not permitted                                                  
[aac @ 0x14865a0] Reserved bit set.                                                                        
Error while decoding stream #0:0: Invalid data found when processing input                                 
[aac @ 0x14865a0] channel element 3.1 is not allocated                                                     
Error while decoding stream #0:0: Operation not permitted                                                  
[aac @ 0x14865a0] invalid band type                                                                        
Error while decoding stream #0:0: Operation not permitted                                                  
[aac @ 0x14865a0] Reserved bit set.                                                                        
Error while decoding stream #0:0: Invalid data found when processing input                                 
[aac @ 0x14865a0] Sample rate index in program config element does not match the sample rate index configured by the container.                                                                                       
[aac @ 0x14865a0] decode_pce: Input buffer exhausted before END element found                              
Error while decoding stream #0:0: Operation not permitted                                                  
[aac @ 0x14865a0] Reserved bit set.                                                                        
Error while decoding stream #0:0: Invalid data found when processing input                                 
[aac @ 0x14865a0] Sample rate index in program config element does not match the sample rate index configured by the container.                                                                                       
[aac @ 0x14865a0] decode_pce: Input buffer exhausted before END element found                              
Error while decoding stream #0:0: Operation not permitted                                                  
[aac @ 0x14865a0] Sample rate index in program config element does not match the sample rate index configured by the container.                                                                                       
[aac @ 0x14865a0] Prediction is not allowed in AAC-LC.                                                     
Error while decoding stream #0:0: Invalid data found when processing input                                 
[aac @ 0x14865a0] Prediction is not allowed in AAC-LC.                                                     
Error while decoding stream #0:0: Invalid data found when processing input                                 
[aac @ 0x14865a0] Sample rate index in program config element does not match the sample rate index configured by the container.                                                                                       
[aac @ 0x14865a0] decode_pce: Input buffer exhausted before END element found                              
Error while decoding stream #0:0: Operation not permitted                                                  
[aac @ 0x14865a0] Sample rate index in program config element does not match the sample rate index configured by the container.                                                                                       
[aac @ 0x14865a0] decode_pce: Input buffer exhausted before END element found                              
Error while decoding stream #0:0: Operation not permitted                                                  
[aac @ 0x14865a0] Reserved bit set.                                                                        
Error while decoding stream #0:0: Invalid data found when processing input                                 
[aac @ 0x14865a0] Sample rate index in program config element does not match the sample rate index configured by the container.                                                                                       
[aac @ 0x14865a0] decode_pce: Input buffer exhausted before END element found                              
Error while decoding stream #0:0: Operation not permitted                                                  
[aac @ 0x14865a0] channel element 3.2 is not allocated                                                     
Error while decoding stream #0:0: Operation not permitted                                                  
[aac @ 0x14865a0] Sample rate index in program config element does not match the sample rate index configured by the container.                                                                                       
[aac @ 0x14865a0] Number of bands (14) exceeds limit (8).                                                  
Error while decoding stream #0:0: Operation not permitted                                                  
[aac @ 0x14865a0] channel element 2.0 is not allocated                                                     
Error while decoding stream #0:0: Operation not permitted                                                  
[aac @ 0x14865a0] Number of bands (7) exceeds limit (4).                                                   
Error while decoding stream #0:0: Operation not permitted                                                  
[aac @ 0x14865a0] Sample rate index in program config element does not match the sample rate index configured by the container.                                                                                       
[aac @ 0x14865a0] Too many channels                                                                        
Error while decoding stream #0:0: Invalid data found when processing input                                 
[aac @ 0x14865a0] SBR was found before the first channel element.                                          
[aac @ 0x14865a0] channel element 3.15 is not allocated                                                    
Error while decoding stream #0:0: Operation not permitted                                                  
[aac @ 0x14865a0] channel element 3.1 is not allocated                                                     
Error while decoding stream #0:0: Operation not permitted                                                  
[aac @ 0x14865a0] channel element 3.6 is not allocated                                                     
Error while decoding stream #0:0: Operation not permitted                                                  
[aac @ 0x14865a0] channel element 2.14 is not allocated                                                    
Error while decoding stream #0:0: Operation not permitted                                                  
[aac @ 0x14865a0] channel element 3.15 is not allocated                                                    
Error while decoding stream #0:0: Operation not permitted                                                  
[aac @ 0x14865a0] channel element 2.0 is not allocated                                                     
Error while decoding stream #0:0: Operation not permitted                                                  
[aac @ 0x14865a0] channel element 3.5 is not allocated                                                     
Error while decoding stream #0:0: Operation not permitted                                                  
[aac @ 0x14865a0] channel element 2.0 is not allocated                                                     
Error while decoding stream #0:0: Operation not permitted                                                  
[aac @ 0x14865a0] Number of bands (14) exceeds limit (11).                                                 
Error while decoding stream #0:0: Operation not permitted                                                  
[aac @ 0x14865a0] Sample rate index in program config element does not match the sample rate index configured by the container.                                                                                       
[aac @ 0x14865a0] decode_pce: Input buffer exhausted before END element found                              
Error while decoding stream #0:0: Operation not permitted                                                  
[aac @ 0x14865a0] Number of bands (54) exceeds limit (37).                                                 
Error while decoding stream #0:0: Operation not permitted                                                  
[aac @ 0x14865a0] Reserved bit set.                                                                        
Error while decoding stream #0:0: Invalid data found when processing input                                 
[aac @ 0x14865a0] Reserved bit set.                                                                        
Error while decoding stream #0:0: Invalid data found when processing input                                 
[aac @ 0x14865a0] Number of bands (6) exceeds limit (2).                                                   
Error while decoding stream #0:0: Operation not permitted                                                  
[aac @ 0x14865a0] Reserved bit set.                                                                        
Error while decoding stream #0:0: Invalid data found when processing input                                 
[aac @ 0x14865a0] channel element 2.7 is not allocated                                                     
Error while decoding stream #0:0: Operation not permitted                                                  
[aac @ 0x14865a0] Number of bands (6) exceeds limit (3).                                                   
Error while decoding stream #0:0: Operation not permitted                                                  
[aac @ 0x14865a0] Reserved bit set.                                                                        
Error while decoding stream #0:0: Invalid data found when processing input                                 
[aac @ 0x14865a0] Reserved bit set.                                                                        
Error while decoding stream #0:0: Invalid data found when processing input                                 
[aac @ 0x14865a0] Sample rate index in program config element does not match the sample rate index configured by the container.                                                                                       
    Last message repeated 1 times                                                                          
[aac @ 0x14865a0] decode_pce: Input buffer exhausted before END element found                              
Error while decoding stream #0:0: Operation not permitted                                                  
[aac @ 0x14865a0] Reserved bit set.                                                                        
Error while decoding stream #0:0: Invalid data found when processing input                                 
[aac @ 0x14865a0] Sample rate index in program config element does not match the sample rate index configured by the container.                                                                                       
[aac @ 0x14865a0] decode_pce: Input buffer exhausted before END element found                              
Error while decoding stream #0:0: Operation not permitted                                                  
[aac @ 0x14865a0] Reserved bit set.                                                                        
Error while decoding stream #0:0: Invalid data found when processing input                                 
[aac @ 0x14865a0] Reserved bit set.                                                                        
Error while decoding stream #0:0: Invalid data found when processing input                                 
[aac @ 0x14865a0] skip_data_stream_element: Input buffer exhausted before END element found                
Error while decoding stream #0:0: Operation not permitted                                                  
[aac @ 0x14865a0] channel element 2.5 is not allocated                                                     
Error while decoding stream #0:0: Operation not permitted                                                  
[aac @ 0x14865a0] skip_data_stream_element: Input buffer exhausted before END element found                
Error while decoding stream #0:0: Operation not permitted                                                  
[aac @ 0x14865a0] Reserved bit set.                                                                        
Error while decoding stream #0:0: Invalid data found when processing input                                 
[aac @ 0x14865a0] channel element 2.7 is not allocated                                                     
Error while decoding stream #0:0: Operation not permitted                                                  
[aac @ 0x14865a0] channel element 3.5 is not allocated
Error while decoding stream #0:0: Operation not permitted
[aac @ 0x14865a0] skip_data_stream_element: Input buffer exhausted before END element found
Error while decoding stream #0:0: Operation not permitted
[aac @ 0x14865a0] Prediction is not allowed in AAC-LC.
Error while decoding stream #0:0: Invalid data found when processing input
[aac @ 0x14865a0] Reserved bit set.
Error while decoding stream #0:0: Invalid data found when processing input
[aac @ 0x14865a0] Prediction is not allowed in AAC-LC.
Error while decoding stream #0:0: Invalid data found when processing input
[aac @ 0x14865a0] channel element 2.7 is not allocated
Error while decoding stream #0:0: Operation not permitted
[aac @ 0x14865a0] Number of bands (4) exceeds limit (2).
Error while decoding stream #0:0: Operation not permitted
[aac @ 0x14865a0] illegal icc
    Last message repeated 1 times
channel element 2.6 is not allocatedrate=   0.0kbits/s
Error while decoding stream #0:0: Operation not permitted
[aac @ 0x14865a0] Number of bands (35) exceeds limit (18).
Error while decoding stream #0:0: Operation not permitted
[aac @ 0x14865a0] channel element 2.7 is not allocated
Error while decoding stream #0:0: Operation not permitted
[aac @ 0x14865a0] Reserved bit set.
Error while decoding stream #0:0: Invalid data found when processing input
[aac @ 0x14865a0] Reserved bit set.
Error while decoding stream #0:0: Invalid data found when processing input
[aac @ 0x14865a0] Sample rate index in program config element does not match the sample rate index configured by the container.
[aac @ 0x14865a0] Too many channels
Error while decoding stream #0:0: Invalid data found when processing input
[aac @ 0x14865a0] Reserved bit set.
Error while decoding stream #0:0: Invalid data found when processing input
[aac @ 0x14865a0] Prediction is not allowed in AAC-LC.
Error while decoding stream #0:0: Invalid data found when processing input
[aac @ 0x14865a0] Reserved bit set.
Error while decoding stream #0:0: Invalid data found when processing input
[aac @ 0x14865a0] channel element 2.5 is not allocated
Error while decoding stream #0:0: Operation not permitted
[aac @ 0x14865a0] channel element 3.15 is not allocated
Error while decoding stream #0:0: Operation not permitted
[aac @ 0x14865a0] Number of scalefactor bands in group (62) exceeds limit (47).
Error while decoding stream #0:0: Invalid data found when processing input
[aac @ 0x14865a0] Sample rate index in program config element does not match the sample rate index configured by the container.
[aac @ 0x14865a0] Prediction is not allowed in AAC-LC.
Error while decoding stream #0:0: Invalid data found when processing input
[aac @ 0x14865a0] skip_data_stream_element: Input buffer exhausted before END element found
Error while decoding stream #0:0: Operation not permitted
[aac @ 0x14865a0] channel element 2.2 is not allocated
Error while decoding stream #0:0: Operation not permitted
[aac @ 0x14865a0] Reserved bit set.
Error while decoding stream #0:0: Invalid data found when processing input
[aac @ 0x14865a0] Number of bands (50) exceeds limit (39).
Error while decoding stream #0:0: Operation not permitted
[aac @ 0x14865a0] channel element 2.6 is not allocated
Error while decoding stream #0:0: Operation not permitted
[aac @ 0x14865a0] Sample rate index in program config element does not match the sample rate index configured by the container.
[aac @ 0x14865a0] Number of bands (16) exceeds limit (11).
Error while decoding stream #0:0: Operation not permitted
[aac @ 0x14865a0] Number of scalefactor bands in group (60) exceeds limit (47).
Error while decoding stream #0:0: Invalid data found when processing input
size=       0kB time=00:11:49.74 bitrate=   0.0kbits/s
video:0kB audio:120856kB subtitle:0 global headers:0kB muxing overhead -100.000000%

Attachments (1)

only_decode_3rd_channel_large.aac (481.6 KB) - added by cehoyos 4 years ago.

Download all attachments as: .zip

Change History (11)

comment:1 Changed 4 years ago by cehoyos

Samples uploaded to samples/ffmpeg-bugs/trac/ticket1694/a.aac

comment:2 Changed 4 years ago by cehoyos

Ticket #1918 is probably related.

comment:3 Changed 4 years ago by cehoyos

  • Keywords regression added
  • Priority changed from normal to important
  • Status changed from new to open

Regression since 1232723.

Version 0, edited 4 years ago by cehoyos (next)

Changed 4 years ago by cehoyos

comment:4 Changed 4 years ago by cehoyos

A user reported a problem with the aac decoder that is also a regression since 1232723 / 9fb7e14:
http://thread.gmane.org/gmane.comp.video.ffmpeg.libav.user/9641
Sample attached.

$ ffmpeg -i only_decode_3rd_channel_large.aac out.wav
ffmpeg version N-48693-g452f632 Copyright (c) 2000-2013 the FFmpeg developers
  built on Jan 10 2013 12:00:56 with gcc 4.7 (SUSE Linux)
  configuration: --enable-gpl --disable-indev=jack
  libavutil      52. 13.100 / 52. 13.100
  libavcodec     54. 86.100 / 54. 86.100
  libavformat    54. 59.107 / 54. 59.107
  libavdevice    54.  3.102 / 54.  3.102
  libavfilter     3. 32.100 /  3. 32.100
  libswscale      2.  1.103 /  2.  1.103
  libswresample   0. 17.102 /  0. 17.102
  libpostproc    52.  2.100 / 52.  2.100
[aac_latm @ 0x2781780] initializing latmctx
[aac_latm @ 0x2781780] channel element 0.2 is not allocated
[loas @ 0x277b3c0] max_analyze_duration 5000000 reached at 5034667
[loas @ 0x277b3c0] Estimating duration from bitrate, this may be inaccurate
Input #0, loas, from 'only_decode_3rd_channel_large.aac':
  Duration: N/A, bitrate: N/A
    Stream #0:0: Audio: aac_latm, 48000 Hz, 5.1, fltp
Output #0, wav, to 'out.wav':
  Metadata:
    ISFT            : Lavf54.59.107
    Stream #0:0: Audio: pcm_s16le ([1][0][0][0] / 0x0001), 48000 Hz, 5.1, s16, 4608 kb/s
Stream mapping:
  Stream #0:0 -> #0:0 (aac_latm -> pcm_s16le)
Press [q] to stop, [?] for help
[aac_latm @ 0x2781780] channel element 0.2 is not allocated
Error while decoding stream #0:0: Operation not permitted
[aac_latm @ 0x2781780] channel element 0.2 is not allocated
Error while decoding stream #0:0: Operation not permitted
[aac_latm @ 0x2781780] channel element 0.2 is not allocated
Error while decoding stream #0:0: Operation not permitted
[aac_latm @ 0x2781780] channel element 0.2 is not allocated
Error while decoding stream #0:0: Operation not permitted
[aac_latm @ 0x2781780] channel element 0.2 is not allocated
Error while decoding stream #0:0: Operation not permitted
[aac_latm @ 0x2781780] channel element 0.2 is not allocated
Error while decoding stream #0:0: Operation not permitted
[aac_latm @ 0x2781780] channel element 0.2 is not allocated
Error while decoding stream #0:0: Operation not permitted
[aac_latm @ 0x2781780] channel element 0.2 is not allocated
Error while decoding stream #0:0: Operation not permitted
[aac_latm @ 0x2781780] channel element 0.2 is not allocated
Error while decoding stream #0:0: Operation not permitted
[aac_latm @ 0x2781780] channel element 0.2 is not allocated
Error while decoding stream #0:0: Operation not permitted
[aac_latm @ 0x2781780] channel element 0.2 is not allocated
Error while decoding stream #0:0: Operation not permitted
[aac_latm @ 0x2781780] channel element 0.2 is not allocated
Error while decoding stream #0:0: Operation not permitted
[aac_latm @ 0x2781780] channel element 0.2 is not allocated
Error while decoding stream #0:0: Operation not permitted
[aac_latm @ 0x2781780] channel element 0.2 is not allocated
Error while decoding stream #0:0: Operation not permitted
[aac_latm @ 0x2781780] channel element 0.2 is not allocated
Error while decoding stream #0:0: Operation not permitted
[aac_latm @ 0x2781780] channel element 0.2 is not allocated
Error while decoding stream #0:0: Operation not permitted
[aac_latm @ 0x2781780] channel element 0.2 is not allocated
Error while decoding stream #0:0: Operation not permitted
[aac_latm @ 0x2781780] channel element 0.2 is not allocated
Error while decoding stream #0:0: Operation not permitted
[aac_latm @ 0x2781780] channel element 0.2 is not allocated
Error while decoding stream #0:0: Operation not permitted
[aac_latm @ 0x2781780] channel element 0.2 is not allocated
Error while decoding stream #0:0: Operation not permitted
[aac_latm @ 0x2781780] channel element 0.2 is not allocated
Error while decoding stream #0:0: Operation not permitted
[aac_latm @ 0x2781780] channel element 0.2 is not allocated
Error while decoding stream #0:0: Operation not permitted
[aac_latm @ 0x2781780] channel element 0.2 is not allocated
Error while decoding stream #0:0: Operation not permitted
[aac_latm @ 0x2781780] channel element 0.2 is not allocated
Error while decoding stream #0:0: Operation not permitted
[aac_latm @ 0x2781780] channel element 0.2 is not allocated
Error while decoding stream #0:0: Operation not permitted
[aac_latm @ 0x2781780] channel element 0.2 is not allocated
Error while decoding stream #0:0: Operation not permitted
[aac_latm @ 0x2781780] channel element 0.2 is not allocated
Error while decoding stream #0:0: Operation not permitted
[aac_latm @ 0x2781780] channel element 0.2 is not allocated
Error while decoding stream #0:0: Operation not permitted
[aac_latm @ 0x2781780] channel element 0.2 is not allocated
Error while decoding stream #0:0: Operation not permitted
[aac_latm @ 0x2781780] channel element 0.2 is not allocated
Error while decoding stream #0:0: Operation not permitted
[aac_latm @ 0x2781780] channel element 0.2 is not allocated
Error while decoding stream #0:0: Operation not permitted
[aac_latm @ 0x2781780] channel element 0.2 is not allocated
Error while decoding stream #0:0: Operation not permitted
[aac_latm @ 0x2781780] channel element 0.2 is not allocated
Error while decoding stream #0:0: Operation not permitted
[aac_latm @ 0x2781780] channel element 0.2 is not allocated
Error while decoding stream #0:0: Operation not permitted
Error while decoding stream #0:0: Invalid data found when processing input
size=    9072kB time=00:00:17.57 bitrate=4227.8kbits/s
video:0kB audio:9072kB subtitle:0 global headers:0kB muxing overhead 0.001098%

out.wav starts as a 5.1 file with audio on several channels, after a second, only the center channel is not silent, also reproducible with ffplay -showmode 1

comment:5 Changed 4 years ago by cehoyos

  • Keywords latm added

comment:6 Changed 3 years ago by michael

maybe fixed

comment:7 Changed 3 years ago by michael

(if fixed then this was a duplciate)

comment:8 Changed 3 years ago by cehoyos

The original sample - http://samples.ffmpeg.org/ffmpeg-bugs/trac/ticket1694/ - is still broken in git head (works fine with 0.10, broken in 0.11, 1.0 and 1.1).
The following two command lines produce 10 seconds of audio, followed by silence for the remaining output file with current git head, mostly correct sound for the whole output file with 0.10:
$ ffmpeg -ss 380 -i a.aac -t 30 out1.wav
$ ffmpeg -ss 630 -i a.aac -t 30 out2.wav
The following two command lines produce 30 seconds of audio (with all tested versions):
$ ffmpeg -ss 400 -i a.aac -t 30 out3.wav
$ ffmpeg -ss 650 -i a.aac -t 30 out4.wav

$ ffmpeg -ss 380 -i a.aac -t 30 out1.wav
ffmpeg version N-50189-g239b88c Copyright (c) 2000-2013 the FFmpeg developers
  built on Feb 22 2013 23:46:57 with gcc 4.7 (SUSE Linux)
  configuration: --enable-gpl --disable-indev=jack
  libavutil      52. 17.102 / 52. 17.102
  libavcodec     54. 92.100 / 54. 92.100
  libavformat    54. 63.100 / 54. 63.100
  libavdevice    54.  3.103 / 54.  3.103
  libavfilter     3. 39.101 /  3. 39.101
  libswscale      2.  2.100 /  2.  2.100
  libswresample   0. 17.102 /  0. 17.102
  libpostproc    52.  2.100 / 52.  2.100
[aac @ 0x1f69fc0] max_analyze_duration 5000000 reached at 5015510 microseconds
[aac @ 0x1f69fc0] Estimating duration from bitrate, this may be inaccurate
Input #0, aac, from 'a.aac':
  Duration: 00:11:39.45, bitrate: 32 kb/s
    Stream #0:0: Audio: aac, 44100 Hz, stereo, fltp, 31 kb/s
Output #0, wav, to 'out1.wav':
  Metadata:
    ISFT            : Lavf54.63.100
    Stream #0:0: Audio: pcm_s16le ([1][0][0][0] / 0x0001), 44100 Hz, stereo, s16, 1411 kb/s
Stream mapping:
  Stream #0:0 -> #0:0 (aac -> pcm_s16le)
Press [q] to stop, [?] for help
[aac @ 0x1f702c0] Reserved SBR extensions is not implemented. Update your FFmpeg version to the newest one from Git. If the problem still occurs, it means that your file has a feature which has not been implemented.
[aac @ 0x1f702c0] If you want to help, upload a sample of this file to ftp://upload.ffmpeg.org/MPlayer/incoming/ and contact the ffmpeg-devel mailing list.
[aac @ 0x1f702c0] Reserved SBR extensions is not implemented. Update your FFmpeg version to the newest one from Git. If the problem still occurs, it means that your file has a feature which has not been implemented.
[aac @ 0x1f702c0] If you want to help, upload a sample of this file to ftp://upload.ffmpeg.org/MPlayer/incoming/ and contact the ffmpeg-devel mailing list.
[aac @ 0x1f702c0] Reserved SBR extensions is not implemented. Update your FFmpeg version to the newest one from Git. If the problem still occurs, it means that your file has a feature which has not been implemented.
[aac @ 0x1f702c0] If you want to help, upload a sample of this file to ftp://upload.ffmpeg.org/MPlayer/incoming/ and contact the ffmpeg-devel mailing list.
[aac @ 0x1f702c0] Reserved SBR extensions is not implemented. Update your FFmpeg version to the newest one from Git. If the problem still occurs, it means that your file has a feature which has not been implemented.
[aac @ 0x1f702c0] If you want to help, upload a sample of this file to ftp://upload.ffmpeg.org/MPlayer/incoming/ and contact the ffmpeg-devel mailing list.
[aac @ 0x1f702c0] Reserved SBR extensions is not implemented. Update your FFmpeg version to the newest one from Git. If the problem still occurs, it means that your file has a feature which has not been implemented.
[aac @ 0x1f702c0] If you want to help, upload a sample of this file to ftp://upload.ffmpeg.org/MPlayer/incoming/ and contact the ffmpeg-devel mailing list.
[aac @ 0x1f702c0] Reserved SBR extensions is not implemented. Update your FFmpeg version to the newest one from Git. If the problem still occurs, it means that your file has a feature which has not been implemented.
[aac @ 0x1f702c0] If you want to help, upload a sample of this file to ftp://upload.ffmpeg.org/MPlayer/incoming/ and contact the ffmpeg-devel mailing list.
[aac @ 0x1f702c0] Reserved SBR extensions is not implemented. Update your FFmpeg version to the newest one from Git. If the problem still occurs, it means that your file has a feature which has not been implemented.
[aac @ 0x1f702c0] If you want to help, upload a sample of this file to ftp://upload.ffmpeg.org/MPlayer/incoming/ and contact the ffmpeg-devel mailing list.
[aac @ 0x1f702c0] Reserved SBR extensions is not implemented. Update your FFmpeg version to the newest one from Git. If the problem still occurs, it means that your file has a feature which has not been implemented.
[aac @ 0x1f702c0] If you want to help, upload a sample of this file to ftp://upload.ffmpeg.org/MPlayer/incoming/ and contact the ffmpeg-devel mailing list.
[aac @ 0x1f702c0] Reserved SBR extensions is not implemented. Update your FFmpeg version to the newest one from Git. If the problem still occurs, it means that your file has a feature which has not been implemented.
[aac @ 0x1f702c0] If you want to help, upload a sample of this file to ftp://upload.ffmpeg.org/MPlayer/incoming/ and contact the ffmpeg-devel mailing list.
[aac @ 0x1f702c0] Reserved bit set.
Error while decoding stream #0:0: Invalid data found when processing input
[aac @ 0x1f702c0] channel element 2.2 is not allocated
Error while decoding stream #0:0: Operation not permitted
[aac @ 0x1f702c0] channel element 3.13 is not allocated
Error while decoding stream #0:0: Operation not permitted
[aac @ 0x1f702c0] Reserved bit set.
Error while decoding stream #0:0: Invalid data found when processing input
[aac @ 0x1f702c0] Reserved bit set.
Error while decoding stream #0:0: Invalid data found when processing input
Multiple frames in a packet from stream 0
[aac @ 0x1f702c0] Sample rate index in program config element does not match the sample rate index configured by the container.
[aac @ 0x1f702c0] decode_pce: Input buffer exhausted before END element found
Error while decoding stream #0:0: Operation not permitted
[aac @ 0x1f702c0] Sample rate index in program config element does not match the sample rate index configured by the container.
[aac @ 0x1f702c0] channel element 2.13 is not allocated
Error while decoding stream #0:0: Operation not permitted
[aac @ 0x1f702c0] Number of bands (48) exceeds limit (45).
Error while decoding stream #0:0: Operation not permitted
[aac @ 0x1f702c0] skip_data_stream_element: Input buffer exhausted before END element found
Error while decoding stream #0:0: Operation not permitted
[aac @ 0x1f702c0] Number of bands (18) exceeds limit (14).
Error while decoding stream #0:0: Operation not permitted
[aac @ 0x1f702c0] channel element 3.2 is not allocated
Error while decoding stream #0:0: Operation not permitted
[aac @ 0x1f702c0] Number of bands (10) exceeds limit (7).
Error while decoding stream #0:0: Operation not permitted
[aac @ 0x1f702c0] channel element 3.5 is not allocated
Error while decoding stream #0:0: Operation not permitted
[aac @ 0x1f702c0] Reserved bit set.
Error while decoding stream #0:0: Invalid data found when processing input
[aac @ 0x1f702c0] invalid band type
Error while decoding stream #0:0: Operation not permitted
[aac @ 0x1f702c0] channel element 2.0 is not allocated
Error while decoding stream #0:0: Operation not permitted
[aac @ 0x1f702c0] Prediction is not allowed in AAC-LC.
Error while decoding stream #0:0: Invalid data found when processing input
[aac @ 0x1f702c0] Reserved bit set.
Error while decoding stream #0:0: Invalid data found when processing input
[aac @ 0x1f702c0] SBR was found before the first channel element.
[aac @ 0x1f702c0] Sample rate index in program config element does not match the sample rate index configured by the container.
[aac @ 0x1f702c0] decode_pce: Input buffer exhausted before END element found
Error while decoding stream #0:0: Operation not permitted
[aac @ 0x1f702c0] Number of bands (44) exceeds limit (42).
Error while decoding stream #0:0: Operation not permitted
[aac @ 0x1f702c0] channel element 2.14 is not allocated
Error while decoding stream #0:0: Operation not permitted
[aac @ 0x1f702c0] channel element 2.8 is not allocated
Error while decoding stream #0:0: Operation not permitted
[aac @ 0x1f702c0] skip_data_stream_element: Input buffer exhausted before END element found
Error while decoding stream #0:0: Operation not permitted
[aac @ 0x1f702c0] channel element 3.15 is not allocated
Error while decoding stream #0:0: Operation not permitted
[aac @ 0x1f702c0] invalid band type
Error while decoding stream #0:0: Operation not permitted
[aac @ 0x1f702c0] Sample rate index in program config element does not match the sample rate index configured by the container.
[aac @ 0x1f702c0] skip_data_stream_element: Input buffer exhausted before END element found
Error while decoding stream #0:0: Operation not permitted
[aac @ 0x1f702c0] Sample rate index in program config element does not match the sample rate index configured by the container.
[aac @ 0x1f702c0] Reserved bit set.
Error while decoding stream #0:0: Invalid data found when processing input
[aac @ 0x1f702c0] channel element 2.0 is not allocated
Error while decoding stream #0:0: Operation not permitted
[aac @ 0x1f702c0] Reserved bit set.
Error while decoding stream #0:0: Invalid data found when processing input
[aac @ 0x1f702c0] Reserved bit set.
Error while decoding stream #0:0: Invalid data found when processing input
[aac @ 0x1f702c0] Number of scalefactor bands in group (54) exceeds limit (47).
Error while decoding stream #0:0: Invalid data found when processing input
[aac @ 0x1f702c0] Sample rate index in program config element does not match the sample rate index configured by the container.
[aac @ 0x1f702c0] decode_pce: Input buffer exhausted before END element found
Error while decoding stream #0:0: Operation not permitted
[aac @ 0x1f702c0] channel element 3.8 is not allocated
Error while decoding stream #0:0: Operation not permitted
[aac @ 0x1f702c0] skip_data_stream_element: Input buffer exhausted before END element found
Error while decoding stream #0:0: Operation not permitted
[aac @ 0x1f702c0] skip_data_stream_element: Input buffer exhausted before END element found
Error while decoding stream #0:0: Operation not permitted
[aac @ 0x1f702c0] Prediction is not allowed in AAC-LC.
Error while decoding stream #0:0: Invalid data found when processing input
[aac @ 0x1f702c0] Reserved bit set.
Error while decoding stream #0:0: Invalid data found when processing input
[aac @ 0x1f702c0] Sample rate index in program config element does not match the sample rate index configured by the container.
[aac @ 0x1f702c0] skip_data_stream_element: Input buffer exhausted before END element found
Error while decoding stream #0:0: Operation not permitted
[aac @ 0x1f702c0] channel element 3.12 is not allocated
Error while decoding stream #0:0: Operation not permitted
[aac @ 0x1f702c0] Prediction is not allowed in AAC-LC.
Error while decoding stream #0:0: Invalid data found when processing input
[aac @ 0x1f702c0] channel element 2.3 is not allocated
Error while decoding stream #0:0: Operation not permitted
[aac @ 0x1f702c0] Reserved bit set.
Error while decoding stream #0:0: Invalid data found when processing input
[aac @ 0x1f702c0] Sample rate index in program config element does not match the sample rate index configured by the container.
    Last message repeated 1 times
[aac @ 0x1f702c0] Not evaluating a further program_config_element as this construct is dubious at best.
[aac @ 0x1f702c0] Sample rate index in program config element does not match the sample rate index configured by the container.
[aac @ 0x1f702c0] decode_pce: Input buffer exhausted before END element found
Error while decoding stream #0:0: Operation not permitted
[aac @ 0x1f702c0] decode_pce: Input buffer exhausted before END element found
Error while decoding stream #0:0: Operation not permitted
[aac @ 0x1f702c0] Sample rate index in program config element does not match the sample rate index configured by the container.
[aac @ 0x1f702c0] Reserved bit set.
Error while decoding stream #0:0: Invalid data found when processing input
[aac @ 0x1f702c0] Sample rate index in program config element does not match the sample rate index configured by the container.
[aac @ 0x1f702c0] decode_pce: Input buffer exhausted before END element found
Error while decoding stream #0:0: Operation not permitted
[aac @ 0x1f702c0] channel element 3.7 is not allocated
Error while decoding stream #0:0: Operation not permitted
[aac @ 0x1f702c0] Sample rate index in program config element does not match the sample rate index configured by the container.
[aac @ 0x1f702c0] Reserved bit set.
Error while decoding stream #0:0: Invalid data found when processing input
[aac @ 0x1f702c0] Number of bands (6) exceeds limit (5).
Error while decoding stream #0:0: Operation not permitted
[aac @ 0x1f702c0] channel element 3.10 is not allocated
Error while decoding stream #0:0: Operation not permitted
[aac @ 0x1f702c0] channel element 3.4 is not allocated
Error while decoding stream #0:0: Operation not permitted
[aac @ 0x1f702c0] Reserved bit set.
Error while decoding stream #0:0: Invalid data found when processing input
[aac @ 0x1f702c0] Number of bands (28) exceeds limit (13).
Error while decoding stream #0:0: Operation not permitted
[aac @ 0x1f702c0] skip_data_stream_element: Input buffer exhausted before END element found
Error while decoding stream #0:0: Operation not permitted
[aac @ 0x1f702c0] skip_data_stream_element: Input buffer exhausted before END element found
Error while decoding stream #0:0: Operation not permitted
[aac @ 0x1f702c0] channel element 2.12 is not allocated
Error while decoding stream #0:0: Operation not permitted
[aac @ 0x1f702c0] Prediction is not allowed in AAC-LC.
Error while decoding stream #0:0: Invalid data found when processing input
[aac @ 0x1f702c0] Prediction is not allowed in AAC-LC.
Error while decoding stream #0:0: Invalid data found when processing input
[aac @ 0x1f702c0] Prediction is not allowed in AAC-LC.
Error while decoding stream #0:0: Invalid data found when processing input
[aac @ 0x1f702c0] Input buffer exhausted before END element found
Error while decoding stream #0:0: Operation not permitted
[aac @ 0x1f702c0] Reserved bit set.
Error while decoding stream #0:0: Invalid data found when processing input
[aac @ 0x1f702c0] Reserved bit set.
Error while decoding stream #0:0: Invalid data found when processing input
[aac @ 0x1f702c0] channel element 3.4 is not allocated
Error while decoding stream #0:0: Operation not permitted
[aac @ 0x1f702c0] skip_data_stream_element: Input buffer exhausted before END element found
Error while decoding stream #0:0: Operation not permitted
[aac @ 0x1f702c0] channel element 3.14 is not allocated
Error while decoding stream #0:0: Operation not permitted
[aac @ 0x1f702c0] channel element 2.6 is not allocated
Error while decoding stream #0:0: Operation not permitted
[aac @ 0x1f702c0] Sample rate index in program config element does not match the sample rate index configured by the container.
[aac @ 0x1f702c0] Reserved bit set.
Error while decoding stream #0:0: Invalid data found when processing input
[aac @ 0x1f702c0] channel element 2.7 is not allocated
Error while decoding stream #0:0: Operation not permitted
[aac @ 0x1f702c0] Input buffer exhausted before END element found
Error while decoding stream #0:0: Operation not permitted
[aac @ 0x1f702c0] channel element 3.2 is not allocated
Error while decoding stream #0:0: Operation not permitted
[aac @ 0x1f702c0] Sample rate index in program config element does not match the sample rate index configured by the container.
[aac @ 0x1f702c0] Prediction is not allowed in AAC-LC.
Error while decoding stream #0:0: Invalid data found when processing input
[aac @ 0x1f702c0] Prediction is not allowed in AAC-LC.
Error while decoding stream #0:0: Invalid data found when processing input
[aac @ 0x1f702c0] channel element 3.1 is not allocated
Error while decoding stream #0:0: Operation not permitted
[aac @ 0x1f702c0] Sample rate index in program config element does not match the sample rate index configured by the container.
[aac @ 0x1f702c0] decode_pce: Input buffer exhausted before END element found
Error while decoding stream #0:0: Operation not permitted
[aac @ 0x1f702c0] channel element 3.11 is not allocated
Error while decoding stream #0:0: Operation not permitted
[aac @ 0x1f702c0] channel element 2.15 is not allocated
Error while decoding stream #0:0: Operation not permitted
[aac @ 0x1f702c0] Scalefactor (-1) out of range.
Error while decoding stream #0:0: Operation not permitted
[aac @ 0x1f702c0] channel element 2.0 is not allocated
Error while decoding stream #0:0: Operation not permitted
[aac @ 0x1f702c0] channel element 2.7 is not allocated
Error while decoding stream #0:0: Operation not permitted
[aac @ 0x1f702c0] skip_data_stream_element: Input buffer exhausted before END element found
Error while decoding stream #0:0: Operation not permitted
[aac @ 0x1f702c0] Sample rate index in program config element does not match the sample rate index configured by the container.
[aac @ 0x1f702c0] decode_pce: Input buffer exhausted before END element found
Error while decoding stream #0:0: Operation not permitted
[aac @ 0x1f702c0] SBR was found before the first channel element.
[aac @ 0x1f702c0] Reserved bit set.
Error while decoding stream #0:0: Invalid data found when processing input
[aac @ 0x1f702c0] channel element 3.5 is not allocated
Error while decoding stream #0:0: Operation not permitted
[aac @ 0x1f702c0] channel element 3.4 is not allocated
Error while decoding stream #0:0: Operation not permitted
[aac @ 0x1f702c0] Reserved bit set.
Error while decoding stream #0:0: Invalid data found when processing input
[aac @ 0x1f702c0] skip_data_stream_element: Input buffer exhausted before END element found
Error while decoding stream #0:0: Operation not permitted
[aac @ 0x1f702c0] Prediction is not allowed in AAC-LC.
Error while decoding stream #0:0: Invalid data found when processing input
[aac @ 0x1f702c0] Sample rate index in program config element does not match the sample rate index configured by the container.
[aac @ 0x1f702c0] decode_pce: Input buffer exhausted before END element found
Error while decoding stream #0:0: Operation not permitted
[aac @ 0x1f702c0] Sample rate index in program config element does not match the sample rate index configured by the container.
[aac @ 0x1f702c0] decode_pce: Input buffer exhausted before END element found
Error while decoding stream #0:0: Operation not permitted
[aac @ 0x1f702c0] channel element 3.11 is not allocated
Error while decoding stream #0:0: Operation not permitted
[aac @ 0x1f702c0] Reserved bit set.
Error while decoding stream #0:0: Invalid data found when processing input
[aac @ 0x1f702c0] Reserved bit set.
Error while decoding stream #0:0: Invalid data found when processing input
[aac @ 0x1f702c0] Sample rate index in program config element does not match the sample rate index configured by the container.
[aac @ 0x1f702c0] decode_pce: Input buffer exhausted before END element found
Error while decoding stream #0:0: Operation not permitted
[aac @ 0x1f702c0] Reserved bit set.
Error while decoding stream #0:0: Invalid data found when processing input
[aac @ 0x1f702c0] Reserved bit set.
Error while decoding stream #0:0: Invalid data found when processing input
[aac @ 0x1f702c0] channel element 2.13 is not allocated
Error while decoding stream #0:0: Operation not permitted
[aac @ 0x1f702c0] Sample rate index in program config element does not match the sample rate index configured by the container.
    Last message repeated 1 times
[aac @ 0x1f702c0] decode_pce: Input buffer exhausted before END element found
Error while decoding stream #0:0: Operation not permitted
[aac @ 0x1f702c0] skip_data_stream_element: Input buffer exhausted before END element found
Error while decoding stream #0:0: Operation not permitted
[aac @ 0x1f702c0] channel element 2.7 is not allocated
Error while decoding stream #0:0: Operation not permitted
[aac @ 0x1f702c0] channel element 3.11 is not allocated
Error while decoding stream #0:0: Operation not permitted
[aac @ 0x1f702c0] Reserved bit set.
Error while decoding stream #0:0: Invalid data found when processing input
[aac @ 0x1f702c0] channel element 3.11 is not allocated
Error while decoding stream #0:0: Operation not permitted
[aac @ 0x1f702c0] Reserved bit set.
Error while decoding stream #0:0: Invalid data found when processing input
[aac @ 0x1f702c0] channel element 3.1 is not allocated
Error while decoding stream #0:0: Operation not permitted
[aac @ 0x1f702c0] invalid band type
Error while decoding stream #0:0: Operation not permitted
[aac @ 0x1f702c0] Reserved bit set.
Error while decoding stream #0:0: Invalid data found when processing input
[aac @ 0x1f702c0] Sample rate index in program config element does not match the sample rate index configured by the container.
[aac @ 0x1f702c0] decode_pce: Input buffer exhausted before END element found
Error while decoding stream #0:0: Operation not permitted
[aac @ 0x1f702c0] Reserved bit set.
Error while decoding stream #0:0: Invalid data found when processing input
[aac @ 0x1f702c0] Sample rate index in program config element does not match the sample rate index configured by the container.
[aac @ 0x1f702c0] decode_pce: Input buffer exhausted before END element found
Error while decoding stream #0:0: Operation not permitted
[aac @ 0x1f702c0] Sample rate index in program config element does not match the sample rate index configured by the container.
[aac @ 0x1f702c0] Prediction is not allowed in AAC-LC.
Error while decoding stream #0:0: Invalid data found when processing input
[aac @ 0x1f702c0] Prediction is not allowed in AAC-LC.
Error while decoding stream #0:0: Invalid data found when processing input
[aac @ 0x1f702c0] Sample rate index in program config element does not match the sample rate index configured by the container.
[aac @ 0x1f702c0] decode_pce: Input buffer exhausted before END element found
Error while decoding stream #0:0: Operation not permitted
[aac @ 0x1f702c0] Sample rate index in program config element does not match the sample rate index configured by the container.
[aac @ 0x1f702c0] decode_pce: Input buffer exhausted before END element found
Error while decoding stream #0:0: Operation not permitted
[aac @ 0x1f702c0] Reserved bit set.
Error while decoding stream #0:0: Invalid data found when processing input
[aac @ 0x1f702c0] Sample rate index in program config element does not match the sample rate index configured by the container.
[aac @ 0x1f702c0] decode_pce: Input buffer exhausted before END element found
Error while decoding stream #0:0: Operation not permitted
[aac @ 0x1f702c0] channel element 3.2 is not allocated
Error while decoding stream #0:0: Operation not permitted
[aac @ 0x1f702c0] Sample rate index in program config element does not match the sample rate index configured by the container.
[aac @ 0x1f702c0] Number of bands (14) exceeds limit (8).
Error while decoding stream #0:0: Operation not permitted
[aac @ 0x1f702c0] channel element 2.0 is not allocated
Error while decoding stream #0:0: Operation not permitted
[aac @ 0x1f702c0] Number of bands (7) exceeds limit (4).
Error while decoding stream #0:0: Operation not permitted
[aac @ 0x1f702c0] Sample rate index in program config element does not match the sample rate index configured by the container.
[aac @ 0x1f702c0] Too many channels
Error while decoding stream #0:0: Invalid data found when processing input
[aac @ 0x1f702c0] SBR was found before the first channel element.
[aac @ 0x1f702c0] channel element 3.15 is not allocated
Error while decoding stream #0:0: Operation not permitted
[aac @ 0x1f702c0] channel element 3.1 is not allocated
Error while decoding stream #0:0: Operation not permitted
[aac @ 0x1f702c0] channel element 3.6 is not allocated
Error while decoding stream #0:0: Operation not permitted
[aac @ 0x1f702c0] channel element 2.14 is not allocated
Error while decoding stream #0:0: Operation not permitted
[aac @ 0x1f702c0] channel element 3.15 is not allocated
Error while decoding stream #0:0: Operation not permitted
[aac @ 0x1f702c0] channel element 2.0 is not allocated
Error while decoding stream #0:0: Operation not permitted
[aac @ 0x1f702c0] channel element 3.5 is not allocated
Error while decoding stream #0:0: Operation not permitted
[aac @ 0x1f702c0] channel element 2.0 is not allocated
Error while decoding stream #0:0: Operation not permitted
[aac @ 0x1f702c0] Number of bands (14) exceeds limit (11).
Error while decoding stream #0:0: Operation not permitted
[aac @ 0x1f702c0] Sample rate index in program config element does not match the sample rate index configured by the container.
[aac @ 0x1f702c0] decode_pce: Input buffer exhausted before END element found
Error while decoding stream #0:0: Operation not permitted
[aac @ 0x1f702c0] Number of bands (54) exceeds limit (37).
Error while decoding stream #0:0: Operation not permitted
[aac @ 0x1f702c0] Reserved bit set.
Error while decoding stream #0:0: Invalid data found when processing input
[aac @ 0x1f702c0] Reserved bit set.
Error while decoding stream #0:0: Invalid data found when processing input
[aac @ 0x1f702c0] Number of bands (6) exceeds limit (2).
Error while decoding stream #0:0: Operation not permitted
[aac @ 0x1f702c0] Reserved bit set.
Error while decoding stream #0:0: Invalid data found when processing input
[aac @ 0x1f702c0] channel element 2.7 is not allocated
Error while decoding stream #0:0: Operation not permitted
[aac @ 0x1f702c0] Number of bands (6) exceeds limit (3).
Error while decoding stream #0:0: Operation not permitted
[aac @ 0x1f702c0] Reserved bit set.
Error while decoding stream #0:0: Invalid data found when processing input
[aac @ 0x1f702c0] Reserved bit set.
Error while decoding stream #0:0: Invalid data found when processing input
[aac @ 0x1f702c0] Sample rate index in program config element does not match the sample rate index configured by the container.
    Last message repeated 1 times
[aac @ 0x1f702c0] decode_pce: Input buffer exhausted before END element found
Error while decoding stream #0:0: Operation not permitted
[aac @ 0x1f702c0] Reserved bit set.
Error while decoding stream #0:0: Invalid data found when processing input
[aac @ 0x1f702c0] Sample rate index in program config element does not match the sample rate index configured by the container.
[aac @ 0x1f702c0] decode_pce: Input buffer exhausted before END element found
Error while decoding stream #0:0: Operation not permitted
[aac @ 0x1f702c0] Reserved bit set.
Error while decoding stream #0:0: Invalid data found when processing input
[aac @ 0x1f702c0] Reserved bit set.
Error while decoding stream #0:0: Invalid data found when processing input
[aac @ 0x1f702c0] skip_data_stream_element: Input buffer exhausted before END element found
Error while decoding stream #0:0: Operation not permitted
[aac @ 0x1f702c0] channel element 2.5 is not allocated
Error while decoding stream #0:0: Operation not permitted
[aac @ 0x1f702c0] skip_data_stream_element: Input buffer exhausted before END element found
Error while decoding stream #0:0: Operation not permitted
[aac @ 0x1f702c0] Reserved bit set.
Error while decoding stream #0:0: Invalid data found when processing input
[aac @ 0x1f702c0] channel element 2.7 is not allocated
Error while decoding stream #0:0: Operation not permitted
[aac @ 0x1f702c0] channel element 3.5 is not allocated
Error while decoding stream #0:0: Operation not permitted
[aac @ 0x1f702c0] skip_data_stream_element: Input buffer exhausted before END element found
Error while decoding stream #0:0: Operation not permitted
[aac @ 0x1f702c0] Prediction is not allowed in AAC-LC.
Error while decoding stream #0:0: Invalid data found when processing input
[aac @ 0x1f702c0] Reserved bit set.
Error while decoding stream #0:0: Invalid data found when processing input
[aac @ 0x1f702c0] Prediction is not allowed in AAC-LC.
Error while decoding stream #0:0: Invalid data found when processing input
[aac @ 0x1f702c0] channel element 2.7 is not allocated
Error while decoding stream #0:0: Operation not permitted
[aac @ 0x1f702c0] Number of bands (4) exceeds limit (2).
Error while decoding stream #0:0: Operation not permitted
[aac @ 0x1f702c0] illegal icc
    Last message repeated 1 times
size=    3928kB time=00:00:30.01 bitrate=1072.0kbits/s
video:0kB audio:3928kB subtitle:0 global headers:0kB muxing overhead 0.001989%
$ ffmpeg -ss 630 -i a.aac -t 30 out2.wav
ffmpeg version N-50189-g239b88c Copyright (c) 2000-2013 the FFmpeg developers
  built on Feb 22 2013 23:46:57 with gcc 4.7 (SUSE Linux)
  configuration: --enable-gpl --disable-indev=jack
  libavutil      52. 17.102 / 52. 17.102
  libavcodec     54. 92.100 / 54. 92.100
  libavformat    54. 63.100 / 54. 63.100
  libavdevice    54.  3.103 / 54.  3.103
  libavfilter     3. 39.101 /  3. 39.101
  libswscale      2.  2.100 /  2.  2.100
  libswresample   0. 17.102 /  0. 17.102
  libpostproc    52.  2.100 / 52.  2.100
[aac @ 0x342dfc0] max_analyze_duration 5000000 reached at 5015510 microseconds
[aac @ 0x342dfc0] Estimating duration from bitrate, this may be inaccurate
Input #0, aac, from 'a.aac':
  Duration: 00:11:39.45, bitrate: 32 kb/s
    Stream #0:0: Audio: aac, 44100 Hz, stereo, fltp, 33 kb/s
Output #0, wav, to 'out2.wav':
  Metadata:
    ISFT            : Lavf54.63.100
    Stream #0:0: Audio: pcm_s16le ([1][0][0][0] / 0x0001), 44100 Hz, stereo, s16, 1411 kb/s
Stream mapping:
  Stream #0:0 -> #0:0 (aac -> pcm_s16le)
Press [q] to stop, [?] for help
[aac @ 0x34342c0] Reserved SBR extensions is not implemented. Update your FFmpeg version to the newest one from Git. If the problem still occurs, it means that your file has a feature which has not been implemented.
[aac @ 0x34342c0] If you want to help, upload a sample of this file to ftp://upload.ffmpeg.org/MPlayer/incoming/ and contact the ffmpeg-devel mailing list.
[aac @ 0x34342c0] Reserved SBR extensions is not implemented. Update your FFmpeg version to the newest one from Git. If the problem still occurs, it means that your file has a feature which has not been implemented.
[aac @ 0x34342c0] If you want to help, upload a sample of this file to ftp://upload.ffmpeg.org/MPlayer/incoming/ and contact the ffmpeg-devel mailing list.
[aac @ 0x34342c0] Reserved SBR extensions is not implemented. Update your FFmpeg version to the newest one from Git. If the problem still occurs, it means that your file has a feature which has not been implemented.
[aac @ 0x34342c0] If you want to help, upload a sample of this file to ftp://upload.ffmpeg.org/MPlayer/incoming/ and contact the ffmpeg-devel mailing list.
[aac @ 0x34342c0] Expected to read 72 PS bits actually read 76.
[aac @ 0x34342c0] Expected to read 78 PS bits actually read 103.
[aac @ 0x34342c0] Expected to read 94 PS bits actually read 111.
[aac @ 0x34342c0] Expected to read 78 PS bits actually read 101.
[aac @ 0x34342c0] ps extension overflow -4
[aac @ 0x34342c0] channel element 2.6 is not allocated
Error while decoding stream #0:0: Operation not permitted
Multiple frames in a packet from stream 0
[aac @ 0x34342c0] Number of bands (35) exceeds limit (18).
Error while decoding stream #0:0: Operation not permitted
[aac @ 0x34342c0] channel element 2.7 is not allocated
Error while decoding stream #0:0: Operation not permitted
[aac @ 0x34342c0] Reserved bit set.
Error while decoding stream #0:0: Invalid data found when processing input
[aac @ 0x34342c0] Reserved bit set.
Error while decoding stream #0:0: Invalid data found when processing input
[aac @ 0x34342c0] Sample rate index in program config element does not match the sample rate index configured by the container.
[aac @ 0x34342c0] Too many channels
Error while decoding stream #0:0: Invalid data found when processing input
[aac @ 0x34342c0] Reserved bit set.
Error while decoding stream #0:0: Invalid data found when processing input
[aac @ 0x34342c0] Prediction is not allowed in AAC-LC.
Error while decoding stream #0:0: Invalid data found when processing input
[aac @ 0x34342c0] Reserved bit set.
Error while decoding stream #0:0: Invalid data found when processing input
[aac @ 0x34342c0] channel element 2.5 is not allocated
Error while decoding stream #0:0: Operation not permitted
[aac @ 0x34342c0] channel element 3.15 is not allocated
Error while decoding stream #0:0: Operation not permitted
[aac @ 0x34342c0] Number of scalefactor bands in group (62) exceeds limit (47).
Error while decoding stream #0:0: Invalid data found when processing input
[aac @ 0x34342c0] Sample rate index in program config element does not match the sample rate index configured by the container.
[aac @ 0x34342c0] channel element 1.8 is not allocated
Error while decoding stream #0:0: Operation not permitted
[aac @ 0x34342c0] skip_data_stream_element: Input buffer exhausted before END element found
Error while decoding stream #0:0: Operation not permitted
[aac @ 0x34342c0] channel element 2.2 is not allocated
Error while decoding stream #0:0: Operation not permitted
[aac @ 0x34342c0] Reserved bit set.
Error while decoding stream #0:0: Invalid data found when processing input
[aac @ 0x34342c0] Number of bands (50) exceeds limit (39).
Error while decoding stream #0:0: Operation not permitted
[aac @ 0x34342c0] channel element 2.6 is not allocated
Error while decoding stream #0:0: Operation not permitted
[aac @ 0x34342c0] Sample rate index in program config element does not match the sample rate index configured by the container.
[aac @ 0x34342c0] channel element 2.1 is not allocated
Error while decoding stream #0:0: Operation not permitted
[aac @ 0x34342c0] Number of scalefactor bands in group (60) exceeds limit (47).
Error while decoding stream #0:0: Invalid data found when processing input
size=    5016kB time=00:00:30.00 bitrate=1369.5kbits/s
video:0kB audio:5016kB subtitle:0 global headers:0kB muxing overhead 0.001558%

comment:9 Changed 3 years ago by michael

  • Reproduced by developer set
  • Resolution set to fixed
  • Status changed from open to closed

comment:10 Changed 3 years ago by cehoyos

The second command line still fails, this is also a regression but not since 1232723, I opened ticket #2335.

Note: See TracTickets for help on using tickets.