Opened 5 years ago

Last modified 5 years ago

#1621 new defect

Converted flash video has longer duration than the source

Reported by: agowad Owned by:
Priority: normal Component: undetermined
Version: unspecified Keywords:
Cc: Blocked By:
Blocking: Reproduced by developer: no
Analyzed by developer: no

Description (last modified by cehoyos)

### WHAT
I am trying to convert a video to flv format maintaining its (almost exact = less than 0,5s) duration.

### THE PROBLEM
Generated flash is longer than the input file.
Input file duration: 00:01:46.02
Output file duration: 00:01:47.24
I can make the difference smaller by reducing -ar 44100 to 11025, but still it is larger than 0,5s (which is much for me).

### COMMAND LINE

ffmpeg.exe -i "Dolphins_720.wmv"  -vf "scale=500:281,pad=500:500:0:109,setdar=500:500"  -y -b:v 1000k -r 23.98 -ar 44100  -ab 384 -acodec libmp3lame -ac 2 "Dolphins_7202_TMP.flv"

### THE INPUT FILE

ffmpeg version N-43206-gf857465 Copyright (c) 2000-2012 the FFmpeg developers
  built on Aug  4 2012 16:10:39 with gcc 4.7.1 (GCC)
  configuration: --enable-gpl --enable-version3 --disable-w32threads --enable-ru
ntime-cpudetect --enable-avisynth --enable-bzlib --enable-frei0r --enable-libass
 --enable-libcelt --enable-libopencore-amrnb --enable-libopencore-amrwb --enable
-libfreetype --enable-libgsm --enable-libmp3lame --enable-libnut --enable-libope
njpeg --enable-librtmp --enable-libschroedinger --enable-libspeex --enable-libth
eora --enable-libutvideo --enable-libvo-aacenc --enable-libvo-amrwbenc --enable-
libvorbis --enable-libvpx --enable-libx264 --enable-libxavs --enable-libxvid --e
nable-zlib
  libavutil      51. 66.100 / 51. 66.100
  libavcodec     54. 49.100 / 54. 49.100
  libavformat    54. 22.100 / 54. 22.100
  libavdevice    54.  2.100 / 54.  2.100
  libavfilter     3.  5.102 /  3.  5.102
  libswscale      2.  1.100 /  2.  1.100
  libswresample   0. 15.100 /  0. 15.100
  libpostproc    52.  0.100 / 52.  0.100
[asf @ 01f37a20] Format asf probed with size=2048 and score=100
[asf @ 01f37a20] gpos mismatch our pos=24, end=26
[asf @ 01f37a20] gpos mismatch our pos=24, end=1042
[asf @ 01f37a20] gpos mismatch our pos=24, end=38
[asf @ 01f37a20] gpos mismatch our pos=24, end=314
[asf @ 01f37a20] gpos mismatch our pos=24, end=38
[asf @ 01f37a20] File position before avformat_find_stream_info() is 2856
[asf @ 01f37a20] parser not found for codec wmapro, packets or times may be inva
lid.
[wmv3 @ 01f3e100] Header: 4BF10A01
[wmv3 @ 01f3e100] Profile 1:
frmrtq_postproc=5, bitrtq_postproc=31
LoopFilter=0, MultiRes=0, FastUVMC=0, Extended MV=0
Rangered=0, VSTransform=1, Overlap=1, SyncMarker=0
DQuant=0, Quantizer mode=0, Max B frames=0
[asf @ 01f37a20] parser not found for codec wmapro, packets or times may be inva
lid.
[asf @ 01f37a20] All info found
rfps: 23.750000 0.011882
rfps: 23.833333 0.004763
rfps: 23.916667 0.000862
    Last message repeated 1 times
rfps: 24.000000 0.000182
    Last message repeated 1 times
rfps: 24.083333 0.002721
    Last message repeated 1 times
rfps: 24.166667 0.008479
    Last message repeated 1 times
rfps: 24.250000 0.017456
rfps: 47.666667 0.019050
rfps: 47.750000 0.009640
rfps: 47.833333 0.003450
    Last message repeated 1 times
rfps: 47.916667 0.000479
    Last message repeated 1 times
rfps: 48.000000 0.000727
    Last message repeated 1 times
rfps: 48.083333 0.004195
    Last message repeated 1 times
rfps: 48.166667 0.010882
rfps: 23.976024 0.000048
    Last message repeated 1 times
rfps: 47.952048 0.000191
    Last message repeated 1 times
[asf @ 01f37a20] File position after avformat_find_stream_info() is 1427237
Input #0, asf, from 'Dolphins_720.wmv':
  Metadata:
    WMFSDKVersion   : 9.00.00.2980
    WMFSDKNeeded    : 0.0.0.0000
    IsVBR           : 0
  Duration: 00:01:46.02, start: 0.000000, bitrate: 6576 kb/s
    Stream #0:0(eng), 11, 1/1000: Audio: wmapro (b[1][0][0] / 0x0162), 48000 Hz,
 5.1, flt, 384 kb/s
    Stream #0:1(eng), 41, 1/1000: Video: wmv3 (Main) (WMV3 / 0x33564D57), yuv420
p, 1280x720, 1/1000, 6000 kb/s, 23.98 tbr, 1k tbn, 1k tbc
At least one output file must be specified
[AVIOContext @ 01f3ff60] Statistics: 1441792 bytes read, 0 seeks

Attachments (1)

fishermans_friendCD_720_xvid.avi (1.3 MB) - added by agowad 5 years ago.
A file which after conversion to flv becomes longer

Download all attachments as: .zip

Change History (13)

comment:1 Changed 5 years ago by cehoyos

  • Description modified (diff)

Is the scale filter needed to reproduce the problem?
Please provide a minimal - as short as possible - command line to reproduce the problem together with complete, uncut console output.

If the problem is also reproducible without external libraries (in this case: lame), please provide a command line that does not use an external library.

comment:2 Changed 5 years ago by agowad

COMMAND:

ffmpeg.exe -i "Dolphins_720.wmv" -ar 44100 "Dolphins_7202_TMP.flv"

You can change 44100 to lower value, then the difference is smaller.

MEDIA FILES:

  • ffmpeg.exe -i "Dolphins_720.wmv"
    
ffmpeg version N-43206-gf857465 Copyright (c) 2000-2012 the FFmpeg developers
  built on Aug  4 2012 16:10:39 with gcc 4.7.1 (GCC)
  configuration: --enable-gpl --enable-version3 --disable-w32threads --enable-runtime-cpudetect --enable-avisynth --enable-bzlib --enable-frei0r --enable-libass
 --enable-libcelt --enable-libopencore-amrnb --enable-libopencore-amrwb --enable-libfreetype --enable-libgsm --enable-libmp3lame --enable-libnut --enable-libope
njpeg --enable-librtmp --enable-libschroedinger --enable-libspeex --enable-libtheora --enable-libutvideo --enable-libvo-aacenc --enable-libvo-amrwbenc --enable-
libvorbis --enable-libvpx --enable-libx264 --enable-libxavs --enable-libxvid --enable-zlib
  libavutil      51. 66.100 / 51. 66.100
  libavcodec     54. 49.100 / 54. 49.100
  libavformat    54. 22.100 / 54. 22.100
  libavdevice    54.  2.100 / 54.  2.100
  libavfilter     3.  5.102 /  3.  5.102
  libswscale      2.  1.100 /  2.  1.100
  libswresample   0. 15.100 /  0. 15.100
  libpostproc    52.  0.100 / 52.  0.100
Input #0, asf, from 'Dolphins_720.wmv':
  Metadata:
    WMFSDKVersion   : 9.00.00.2980
    WMFSDKNeeded    : 0.0.0.0000
    IsVBR           : 0
  Duration: 00:01:46.02, start: 0.000000, bitrate: 6576 kb/s
    Stream #0:0(eng): Audio: wmapro (b[1][0][0] / 0x0162), 48000 Hz, 5.1, flt, 384 kb/s
    Stream #0:1(eng): Video: wmv3 (Main) (WMV3 / 0x33564D57), yuv420p, 1280x720, 6000 kb/s, 23.98 tbr, 1k tbn, 1k tbc
At least one output file must be specified
  • ffmpeg.exe -i "Dolphins_7202_TMP.flv"
    
ffmpeg version N-43206-gf857465 Copyright (c) 2000-2012 the FFmpeg developers
  built on Aug  4 2012 16:10:39 with gcc 4.7.1 (GCC)
  configuration: --enable-gpl --enable-version3 --disable-w32threads --enable-runtime-cpudetect --enable-avisynth --enable-bzlib --enable-frei0r --enable-libass
 --enable-libcelt --enable-libopencore-amrnb --enable-libopencore-amrwb --enable-libfreetype --enable-libgsm --enable-libmp3lame --enable-libnut --enable-libope
njpeg --enable-librtmp --enable-libschroedinger --enable-libspeex --enable-libtheora --enable-libutvideo --enable-libvo-aacenc --enable-libvo-amrwbenc --enable-
libvorbis --enable-libvpx --enable-libx264 --enable-libxavs --enable-libxvid --enable-zlib
  libavutil      51. 66.100 / 51. 66.100
  libavcodec     54. 49.100 / 54. 49.100
  libavformat    54. 22.100 / 54. 22.100
  libavdevice    54.  2.100 / 54.  2.100
  libavfilter     3.  5.102 /  3.  5.102
  libswscale      2.  1.100 /  2.  1.100
  libswresample   0. 15.100 /  0. 15.100
  libpostproc    52.  0.100 / 52.  0.100
Input #0, flv, from 'Dolphins_7202_TMP.flv':
  Metadata:
    WMFSDKVersion   : 9.00.00.2980
    WMFSDKNeeded    : 0.0.0.0000
    IsVBR           : 0
    encoder         : Lavf54.22.100
  Duration: 00:01:47.24, start: 0.000000, bitrate: 1577 kb/s
    Stream #0:0: Video: flv1, yuv420p, 1280x720, 200 kb/s, 23.98 tbr, 1k tbn, 1k tbc
    Stream #0:1: Audio: mp3, 44100 Hz, stereo, s16, 128 kb/s
At least one output file must be specified

comment:3 Changed 5 years ago by agowad

COMMAND:

ffmpeg.exe -i "Dolphins_720.wmv" -ar 44100 "Dolphins_7202_TMP.flv"

OUTPUT:

ffmpeg version N-43418-g633b90c Copyright (c) 2000-2012 the FFmpeg developers
  built on Aug  9 2012 23:52:43 with gcc 4.7.1 (GCC)
  configuration: --enable-gpl --enable-version3 --disable-pthreads --enable-runtime-cpudetect --enable-avisynth --enable-bzlib --enable-frei
0r --enable-libass --enable-libcelt --enable-libopencore-amrnb --enable-libopencore-amrwb --enable-libfreetype --enable-libgsm --enable-libm
p3lame --enable-libnut --enable-libopenjpeg --enable-librtmp --enable-libschroedinger --enable-libspeex --enable-libtheora --enable-libutvid
eo --enable-libvo-aacenc --enable-libvo-amrwbenc --enable-libvorbis --enable-libvpx --enable-libx264 --enable-libxavs --enable-libxvid --ena
ble-zlib
  libavutil      51. 67.100 / 51. 67.100
  libavcodec     54. 51.100 / 54. 51.100
  libavformat    54. 22.104 / 54. 22.104
  libavdevice    54.  2.100 / 54.  2.100
  libavfilter     3.  7.100 /  3.  7.100
  libswscale      2.  1.101 /  2.  1.101
  libswresample   0. 15.100 /  0. 15.100
  libpostproc    52.  0.100 / 52.  0.100
Input #0, asf, from 'Dolphins_720.wmv':
  Metadata:
    WMFSDKVersion   : 9.00.00.2980
    WMFSDKNeeded    : 0.0.0.0000
    IsVBR           : 0
  Duration: 00:01:46.02, start: 0.000000, bitrate: 6576 kb/s
    Stream #0:0(eng): Audio: wmapro (b[1][0][0] / 0x0162), 48000 Hz, 5.1, flt, 384 kb/s
    Stream #0:1(eng): Video: wmv3 (Main) (WMV3 / 0x33564D57), yuv420p, 1280x720, 6000 kb/s, 23.98 tbr, 1k tbn, 1k tbc
Output #0, flv, to 'Dolphins_7202_TMP.flv':
  Metadata:
    WMFSDKVersion   : 9.00.00.2980
    WMFSDKNeeded    : 0.0.0.0000
    IsVBR           : 0
    encoder         : Lavf54.22.104
    Stream #0:0(eng): Video: flv1 ([2][0][0][0] / 0x0002), yuv420p, 1280x720, q=2-31, 200 kb/s, 1k tbn, 23.98 tbc
    Stream #0:1(eng): Audio: mp3 ([2][0][0][0] / 0x0002), 44100 Hz, stereo, flt
Stream mapping:
  Stream #0:1 -> #0:0 (wmv3 -> flv)
  Stream #0:0 -> #0:1 (wmapro -> libmp3lame)
Press [q] to stop, [?] for help
Multiple frames in a packet from stream 0
DTS 981, next:981332 st:0 invalid dropping
PTS 981, next:981332 invalid dropping st:0
DTS 1834, next:1834664 st:0 invalid droppingime=00:00:01.02 bitrate=2583.2kbits/s
PTS 1834, next:1834664 invalid dropping st:0
DTS 1962, next:1962662 st:0 invalid dropping
PTS 1962, next:1962662 invalid dropping st:0
DTS 2133, next:2133326 st:0 invalid dropping
PTS 2133, next:2133326 invalid dropping st:0
DTS 2474, next:2474664 st:0 invalid dropping
PTS 2474, next:2474664 invalid dropping st:0
DTS 2858, next:2858664 st:0 invalid droppingime=00:00:02.56 bitrate=1543.8kbits/s
PTS 2858, next:2858664 invalid dropping st:0
DTS 3029, next:3029328 st:0 invalid dropping
PTS 3029, next:3029328 invalid dropping st:0
DTS 3242, next:3242658 st:0 invalid dropping
PTS 3242, next:3242658 invalid dropping st:0
DTS 3413, next:3413322 st:0 invalid dropping
PTS 3413, next:3413322 invalid dropping st:0
DTS 3754, next:3754664 st:0 invalid dropping
PTS 3754, next:3754664 invalid dropping st:0
DTS 3925, next:3925328 st:0 invalid dropping
PTS 3925, next:3925328 invalid dropping st:0
DTS 4266, next:4266664 st:0 invalid droppingime=00:00:04.16 bitrate=1250.0kbits/s
PTS 4266, next:4266664 invalid dropping st:0
DTS 4437, next:4437328 st:0 invalid dropping
PTS 4437, next:4437328 invalid dropping st:0
DTS 4778, next:4778664 st:0 invalid dropping
PTS 4778, next:4778664 invalid dropping st:0
DTS 4906, next:4906662 st:0 invalid dropping
PTS 4906, next:4906662 invalid dropping st:0
DTS 5077, next:5077326 st:0 invalid dropping
PTS 5077, next:5077326 invalid dropping st:0
DTS 5418, next:5418664 st:0 invalid dropping
PTS 5418, next:5418664 invalid dropping st:0
DTS 5546, next:5546662 st:0 invalid dropping
PTS 5546, next:5546662 invalid dropping st:0
DTS 5717, next:5717326 st:0 invalid dropping
PTS 5717, next:5717326 invalid dropping st:0
DTS 6058, next:6058664 st:0 invalid droppingime=00:00:05.78 bitrate=1187.6kbits/s
PTS 6058, next:6058664 invalid dropping st:0
DTS 6229, next:6229328 st:0 invalid dropping
PTS 6229, next:6229328 invalid dropping st:0
DTS 6570, next:6570664 st:0 invalid dropping
PTS 6570, next:6570664 invalid dropping st:0
DTS 6741, next:6741328 st:0 invalid dropping
PTS 6741, next:6741328 invalid dropping st:0
DTS 7210, next:7210664 st:0 invalid dropping
PTS 7210, next:7210664 invalid dropping st:0
DTS 7594, next:7594664 st:0 invalid droppingime=00:00:07.29 bitrate=1103.4kbits/s
PTS 7594, next:7594664 invalid dropping st:0
DTS 7722, next:7722662 st:0 invalid dropping
PTS 7722, next:7722662 invalid dropping st:0
DTS 7893, next:7893326 st:0 invalid dropping
PTS 7893, next:7893326 invalid dropping st:0
DTS 8234, next:8234664 st:0 invalid dropping
PTS 8234, next:8234664 invalid dropping st:0
DTS 8405, next:8405328 st:0 invalid dropping
PTS 8405, next:8405328 invalid dropping st:0
DTS 8789, next:8789330 st:0 invalid dropping
PTS 8789, next:8789330 invalid dropping st:0
DTS 9130, next:9130664 st:0 invalid droppingime=00:00:08.83 bitrate=1041.6kbits/s
PTS 9130, next:9130664 invalid dropping st:0
DTS 9514, next:9514664 st:0 invalid dropping
PTS 9514, next:9514664 invalid dropping st:0
DTS 9642, next:9642662 st:0 invalid dropping
PTS 9642, next:9642662 invalid dropping st:0
DTS 10026, next:10026664 st:0 invalid dropping
PTS 10026, next:10026664 invalid dropping st:0
DTS 10197, next:10197328 st:0 invalid dropping
PTS 10197, next:10197328 invalid dropping st:0
DTS 10581, next:10581330 st:0 invalid droppinge=00:00:10.45 bitrate=1016.9kbits/s
PTS 10581, next:10581330 invalid dropping st:0
DTS 10965, next:10965330 st:0 invalid dropping
PTS 10965, next:10965330 invalid dropping st:0
DTS 11434, next:11434664 st:0 invalid dropping
PTS 11434, next:11434664 invalid dropping st:0
DTS 11605, next:11605328 st:0 invalid dropping
PTS 11605, next:11605328 invalid dropping st:0
DTS 12458, next:12458664 st:0 invalid droppinge=00:00:12.05 bitrate=1030.6kbits/s
PTS 12458, next:12458664 invalid dropping st:0
DTS 12586, next:12586662 st:0 invalid dropping
PTS 12586, next:12586662 invalid dropping st:0
DTS 12714, next:12714660 st:0 invalid dropping
PTS 12714, next:12714660 invalid dropping st:0
DTS 12885, next:12885324 st:0 invalid dropping
PTS 12885, next:12885324 invalid dropping st:0
DTS 13013, next:13013322 st:0 invalid dropping
PTS 13013, next:13013322 invalid dropping st:0
DTS 13141, next:13141320 st:0 invalid dropping
PTS 13141, next:13141320 invalid dropping st:0
DTS 13269, next:13269318 st:0 invalid dropping
PTS 13269, next:13269318 invalid dropping st:0
DTS 13397, next:13397316 st:0 invalid droppinge=00:00:13.27 bitrate=1047.6kbits/s
PTS 13397, next:13397316 invalid dropping st:0
DTS 13525, next:13525314 st:0 invalid dropping
PTS 13525, next:13525314 invalid dropping st:0
DTS 13653, next:13653312 st:0 invalid dropping
PTS 13653, next:13653312 invalid dropping st:0
DTS 13781, next:13781310 st:0 invalid dropping
PTS 13781, next:13781310 invalid dropping st:0
DTS 13909, next:13909308 st:0 invalid dropping
PTS 13909, next:13909308 invalid dropping st:0
DTS 14506, next:14506664 st:0 invalid dropping
PTS 14506, next:14506664 invalid dropping st:0
DTS 14890, next:14890664 st:0 invalid droppinge=00:00:14.61 bitrate=1088.4kbits/s
PTS 14890, next:14890664 invalid dropping st:0
DTS 15274, next:15274664 st:0 invalid dropping
PTS 15274, next:15274664 invalid dropping st:0
DTS 15786, next:15786662 st:0 invalid dropping
PTS 15786, next:15786662 invalid dropping st:0
DTS 16810, next:16810662 st:0 invalid droppinge=00:00:16.38 bitrate=1170.7kbits/s
PTS 16810, next:16810662 invalid dropping st:0
DTS 17237, next:17237330 st:0 invalid dropping
PTS 17237, next:17237330 invalid dropping st:0
DTS 17450, next:17450660 st:0 invalid dropping
PTS 17450, next:17450660 invalid dropping st:0
DTS 17621, next:17621324 st:0 invalid dropping
PTS 17621, next:17621324 invalid dropping st:0
DTS 17962, next:17962664 st:0 invalid droppinge=00:00:17.85 bitrate=1252.3kbits/s
PTS 17962, next:17962664 invalid dropping st:0
DTS 18133, next:18133328 st:0 invalid dropping
PTS 18133, next:18133328 invalid dropping st:0
DTS 18602, next:18602664 st:0 invalid dropping
PTS 18602, next:18602664 invalid dropping st:0
DTS 18773, next:18773328 st:0 invalid dropping
PTS 18773, next:18773328 invalid dropping st:0
DTS 18901, next:18901326 st:0 invalid dropping
PTS 18901, next:18901326 invalid dropping st:0
DTS 19370, next:19370664 st:0 invalid droppinge=00:00:19.07 bitrate=1365.6kbits/s
PTS 19370, next:19370664 invalid dropping st:0
DTS 19541, next:19541328 st:0 invalid dropping
PTS 19541, next:19541328 invalid dropping st:0
DTS 20010, next:20010664 st:0 invalid dropping
PTS 20010, next:20010664 invalid dropping st:0
DTS 20437, next:20437330 st:0 invalid droppinge=00:00:20.33 bitrate=1449.6kbits/s
PTS 20437, next:20437330 invalid dropping st:0
DTS 20650, next:20650660 st:0 invalid dropping
PTS 20650, next:20650660 invalid dropping st:0
DTS 21034, next:21034664 st:0 invalid dropping
PTS 21034, next:21034664 invalid dropping st:0
DTS 21205, next:21205328 st:0 invalid dropping
PTS 21205, next:21205328 invalid dropping st:0
DTS 21546, next:21546664 st:0 invalid dropping
PTS 21546, next:21546664 invalid dropping st:0
DTS 21717, next:21717328 st:0 invalid dropping
PTS 21717, next:21717328 invalid dropping st:0
DTS 22314, next:22314664 st:0 invalid droppinge=00:00:21.76 bitrate=1517.5kbits/s
PTS 22314, next:22314664 invalid dropping st:0
DTS 22485, next:22485328 st:0 invalid dropping
PTS 22485, next:22485328 invalid dropping st:0
DTS 22613, next:22613326 st:0 invalid dropping
PTS 22613, next:22613326 invalid dropping st:0
DTS 22954, next:22954664 st:0 invalid dropping
PTS 22954, next:22954664 invalid dropping st:0
DTS 23082, next:23082662 st:0 invalid droppinge=00:00:22.97 bitrate=1547.7kbits/s
PTS 23082, next:23082662 invalid dropping st:0
DTS 23253, next:23253326 st:0 invalid dropping
PTS 23253, next:23253326 invalid dropping st:0
DTS 23381, next:23381324 st:0 invalid dropping
PTS 23381, next:23381324 invalid dropping st:0
DTS 23466, next:23466656 st:0 invalid dropping
PTS 23466, next:23466656 invalid dropping st:0
DTS 23637, next:23637320 st:0 invalid dropping
PTS 23637, next:23637320 invalid dropping st:0
DTS 23978, next:23978664 st:0 invalid dropping
PTS 23978, next:23978664 invalid dropping st:0
DTS 24106, next:24106662 st:0 invalid dropping
PTS 24106, next:24106662 invalid dropping st:0
DTS 24618, next:24618664 st:0 invalid droppinge=00:00:24.19 bitrate=1563.4kbits/s
PTS 24618, next:24618664 invalid dropping st:0
DTS 24789, next:24789328 st:0 invalid dropping
PTS 24789, next:24789328 invalid dropping st:0
DTS 25130, next:25130664 st:0 invalid dropping
PTS 25130, next:25130664 invalid dropping st:0
DTS 25301, next:25301328 st:0 invalid dropping
PTS 25301, next:25301328 invalid dropping st:0
DTS 25642, next:25642664 st:0 invalid droppinge=00:00:25.53 bitrate=1541.1kbits/s
PTS 25642, next:25642664 invalid dropping st:0
DTS 25813, next:25813328 st:0 invalid dropping
PTS 25813, next:25813328 invalid dropping st:0
DTS 25941, next:25941326 st:0 invalid dropping
PTS 25941, next:25941326 invalid dropping st:0
DTS 26282, next:26282664 st:0 invalid dropping
PTS 26282, next:26282664 invalid dropping st:0
DTS 26837, next:26837330 st:0 invalid dropping
PTS 26837, next:26837330 invalid dropping st:0
DTS 27050, next:27050660 st:0 invalid droppinge=00:00:26.94 bitrate=1521.3kbits/s
PTS 27050, next:27050660 invalid dropping st:0
DTS 27434, next:27434664 st:0 invalid dropping
PTS 27434, next:27434664 invalid dropping st:0
DTS 27818, next:27818664 st:0 invalid dropping
PTS 27818, next:27818664 invalid dropping st:0
DTS 27946, next:27946662 st:0 invalid dropping
PTS 27946, next:27946662 invalid dropping st:0
DTS 28458, next:28458664 st:0 invalid droppinge=00:00:28.35 bitrate=1503.5kbits/s
PTS 28458, next:28458664 invalid dropping st:0
DTS 28629, next:28629328 st:0 invalid dropping
PTS 28629, next:28629328 invalid dropping st:0
DTS 29013, next:29013330 st:0 invalid dropping
PTS 29013, next:29013330 invalid dropping st:0
DTS 29397, next:29397330 st:0 invalid dropping
PTS 29397, next:29397330 invalid dropping st:0
DTS 29781, next:29781330 st:0 invalid dropping
PTS 29781, next:29781330 invalid dropping st:0
DTS 29909, next:29909328 st:0 invalid droppinge=00:00:29.78 bitrate=1489.2kbits/s
PTS 29909, next:29909328 invalid dropping st:0
DTS 30122, next:30122658 st:0 invalid dropping
PTS 30122, next:30122658 invalid dropping st:0
DTS 30250, next:30250656 st:0 invalid dropping
PTS 30250, next:30250656 invalid dropping st:0
DTS 30762, next:30762664 st:0 invalid dropping
PTS 30762, next:30762664 invalid dropping st:0
DTS 30890, next:30890662 st:0 invalid dropping
PTS 30890, next:30890662 invalid dropping st:0
DTS 31018, next:31018660 st:0 invalid dropping
PTS 31018, next:31018660 invalid dropping st:0
DTS 31189, next:31189324 st:0 invalid droppinge=00:00:31.06 bitrate=1477.9kbits/s
PTS 31189, next:31189324 invalid dropping st:0
DTS 31317, next:31317322 st:0 invalid dropping
PTS 31317, next:31317322 invalid dropping st:0
DTS 31530, next:31530652 st:0 invalid dropping
PTS 31530, next:31530652 invalid dropping st:0
DTS 31701, next:31701316 st:0 invalid dropping
PTS 31701, next:31701316 invalid dropping st:0
DTS 32085, next:32085330 st:0 invalid dropping
PTS 32085, next:32085330 invalid dropping st:0
DTS 32298, next:32298660 st:0 invalid dropping
PTS 32298, next:32298660 invalid dropping st:0
DTS 32469, next:32469324 st:0 invalid dropping
PTS 32469, next:32469324 invalid dropping st:0
DTS 32810, next:32810664 st:0 invalid droppinge=00:00:32.53 bitrate=1454.6kbits/s
PTS 32810, next:32810664 invalid dropping st:0
DTS 32981, next:32981328 st:0 invalid dropping
PTS 32981, next:32981328 invalid dropping st:0
DTS 33322, next:33322664 st:0 invalid dropping
PTS 33322, next:33322664 invalid dropping st:0
DTS 33493, next:33493328 st:0 invalid dropping
PTS 33493, next:33493328 invalid dropping st:0
DTS 33834, next:33834664 st:0 invalid dropping
PTS 33834, next:33834664 invalid dropping st:0
DTS 34005, next:34005328 st:0 invalid dropping
PTS 34005, next:34005328 invalid dropping st:0
DTS 34474, next:34474664 st:0 invalid droppinge=00:00:34.07 bitrate=1447.1kbits/s
PTS 34474, next:34474664 invalid dropping st:0
DTS 34645, next:34645328 st:0 invalid dropping
PTS 34645, next:34645328 invalid dropping st:0
DTS 35029, next:35029330 st:0 invalid dropping
PTS 35029, next:35029330 invalid dropping st:0
DTS 35370, next:35370664 st:0 invalid dropping
PTS 35370, next:35370664 invalid dropping st:0
DTS 35754, next:35754664 st:0 invalid droppinge=00:00:35.45 bitrate=1431.4kbits/s
PTS 35754, next:35754664 invalid dropping st:0
DTS 35925, next:35925328 st:0 invalid dropping
PTS 35925, next:35925328 invalid dropping st:0
DTS 36138, next:36138658 st:0 invalid dropping
PTS 36138, next:36138658 invalid dropping st:0
DTS 36309, next:36309322 st:0 invalid dropping
PTS 36309, next:36309322 invalid dropping st:0
DTS 36522, next:36522652 st:0 invalid dropping
PTS 36522, next:36522652 invalid dropping st:0
DTS 36693, next:36693316 st:0 invalid dropping
PTS 36693, next:36693316 invalid dropping st:0
DTS 37034, next:37034664 st:0 invalid droppinge=00:00:36.91 bitrate=1418.8kbits/s
PTS 37034, next:37034664 invalid dropping st:0
DTS 37205, next:37205328 st:0 invalid dropping
PTS 37205, next:37205328 invalid dropping st:0
DTS 37717, next:37717330 st:0 invalid dropping
PTS 37717, next:37717330 invalid dropping st:0
DTS 37845, next:37845328 st:0 invalid dropping
PTS 37845, next:37845328 invalid dropping st:0
DTS 38186, next:38186664 st:0 invalid droppinge=00:00:38.06 bitrate=1428.9kbits/s
PTS 38186, next:38186664 invalid dropping st:0
DTS 38357, next:38357328 st:0 invalid dropping
PTS 38357, next:38357328 invalid dropping st:0
DTS 38485, next:38485326 st:0 invalid dropping
PTS 38485, next:38485326 invalid dropping st:0
DTS 38954, next:38954664 st:0 invalid dropping
PTS 38954, next:38954664 invalid dropping st:0
DTS 39125, next:39125328 st:0 invalid dropping
PTS 39125, next:39125328 invalid dropping st:0
DTS 39338, next:39338658 st:0 invalid dropping
PTS 39338, next:39338658 invalid dropping st:0
DTS 39509, next:39509322 st:0 invalid droppinge=00:00:39.40 bitrate=1447.1kbits/s
PTS 39509, next:39509322 invalid dropping st:0
DTS 39850, next:39850664 st:0 invalid dropping
PTS 39850, next:39850664 invalid dropping st:0
DTS 40234, next:40234664 st:0 invalid dropping
PTS 40234, next:40234664 invalid dropping st:0
DTS 40405, next:40405328 st:0 invalid dropping
PTS 40405, next:40405328 invalid dropping st:0
DTS 40618, next:40618658 st:0 invalid dropping
PTS 40618, next:40618658 invalid dropping st:0
DTS 40746, next:40746656 st:0 invalid dropping
PTS 40746, next:40746656 invalid dropping st:0
DTS 40917, next:40917320 st:0 invalid droppinge=00:00:40.81 bitrate=1476.7kbits/s
PTS 40917, next:40917320 invalid dropping st:0
DTS 41301, next:41301330 st:0 invalid dropping
PTS 41301, next:41301330 invalid dropping st:0
DTS 41429, next:41429328 st:0 invalid dropping
PTS 41429, next:41429328 invalid dropping st:0
DTS 41770, next:41770664 st:0 invalid dropping
PTS 41770, next:41770664 invalid dropping st:0
DTS 41941, next:41941328 st:0 invalid dropping
PTS 41941, next:41941328 invalid dropping st:0
DTS 42069, next:42069326 st:0 invalid dropping
PTS 42069, next:42069326 invalid dropping st:0
DTS 42453, next:42453330 st:0 invalid droppinge=00:00:42.11 bitrate=1514.5kbits/s
PTS 42453, next:42453330 invalid dropping st:0
DTS 42794, next:42794664 st:0 invalid dropping
PTS 42794, next:42794664 invalid dropping st:0
DTS 42965, next:42965328 st:0 invalid dropping
PTS 42965, next:42965328 invalid dropping st:0
DTS 43306, next:43306664 st:0 invalid dropping
PTS 43306, next:43306664 invalid dropping st:0
DTS 43434, next:43434662 st:0 invalid dropping
PTS 43434, next:43434662 invalid dropping st:0
DTS 43818, next:43818664 st:0 invalid droppinge=00:00:43.52 bitrate=1543.1kbits/s
PTS 43818, next:43818664 invalid dropping st:0
DTS 43989, next:43989328 st:0 invalid dropping
PTS 43989, next:43989328 invalid dropping st:0
DTS 44330, next:44330664 st:0 invalid dropping
PTS 44330, next:44330664 invalid dropping st:0
DTS 44714, next:44714664 st:0 invalid dropping
PTS 44714, next:44714664 invalid dropping st:0
DTS 44885, next:44885328 st:0 invalid dropping
PTS 44885, next:44885328 invalid dropping st:0
DTS 45354, next:45354664 st:0 invalid droppinge=00:00:45.06 bitrate=1548.8kbits/s
PTS 45354, next:45354664 invalid dropping st:0
DTS 45482, next:45482662 st:0 invalid dropping
PTS 45482, next:45482662 invalid dropping st:0
DTS 45653, next:45653326 st:0 invalid dropping
PTS 45653, next:45653326 invalid dropping st:0
DTS 45994, next:45994664 st:0 invalid dropping
PTS 45994, next:45994664 invalid dropping st:0
DTS 46122, next:46122662 st:0 invalid dropping
PTS 46122, next:46122662 invalid dropping st:0
DTS 46293, next:46293326 st:0 invalid droppinge=00:00:46.16 bitrate=1562.9kbits/s
PTS 46293, next:46293326 invalid dropping st:0
DTS 46421, next:46421324 st:0 invalid dropping
PTS 46421, next:46421324 invalid dropping st:0
DTS 46634, next:46634654 st:0 invalid dropping
PTS 46634, next:46634654 invalid dropping st:0
DTS 46805, next:46805318 st:0 invalid dropping
PTS 46805, next:46805318 invalid dropping st:0
DTS 47018, next:47018648 st:0 invalid dropping
PTS 47018, next:47018648 invalid dropping st:0
DTS 47146, next:47146646 st:0 invalid dropping
PTS 47146, next:47146646 invalid dropping st:0
DTS 48042, next:48042664 st:0 invalid droppinge=00:00:47.36 bitrate=1593.9kbits/s
PTS 48042, next:48042664 invalid dropping st:0
DTS 48213, next:48213328 st:0 invalid dropping
PTS 48213, next:48213328 invalid dropping st:0
DTS 48554, next:48554664 st:0 invalid dropping
PTS 48554, next:48554664 invalid dropping st:0
DTS 48810, next:48810660 st:0 invalid droppinge=00:00:48.70 bitrate=1638.7kbits/s
PTS 48810, next:48810660 invalid dropping st:0
DTS 48981, next:48981324 st:0 invalid dropping
PTS 48981, next:48981324 invalid dropping st:0
DTS 49194, next:49194654 st:0 invalid dropping
PTS 49194, next:49194654 invalid dropping st:0
DTS 49365, next:49365318 st:0 invalid dropping
PTS 49365, next:49365318 invalid dropping st:0
DTS 49578, next:49578648 st:0 invalid dropping
PTS 49578, next:49578648 invalid dropping st:0
DTS 49749, next:49749312 st:0 invalid dropping
PTS 49749, next:49749312 invalid dropping st:0
DTS 49962, next:49962642 st:0 invalid dropping
PTS 49962, next:49962642 invalid dropping st:0
DTS 50133, next:50133306 st:0 invalid dropping
PTS 50133, next:50133306 invalid dropping st:0
DTS 50474, next:50474664 st:0 invalid droppinge=00:00:50.18 bitrate=1661.1kbits/s
PTS 50474, next:50474664 invalid dropping st:0
DTS 50645, next:50645328 st:0 invalid dropping
PTS 50645, next:50645328 invalid dropping st:0
DTS 50773, next:50773326 st:0 invalid dropping
PTS 50773, next:50773326 invalid dropping st:0
DTS 51114, next:51114664 st:0 invalid dropping
PTS 51114, next:51114664 invalid dropping st:0
DTS 51498, next:51498664 st:0 invalid droppinge=00:00:51.39 bitrate=1681.6kbits/s
PTS 51498, next:51498664 invalid dropping st:0
DTS 51669, next:51669328 st:0 invalid dropping
PTS 51669, next:51669328 invalid dropping st:0
DTS 52010, next:52010664 st:0 invalid dropping
PTS 52010, next:52010664 invalid dropping st:0
DTS 52181, next:52181328 st:0 invalid dropping
PTS 52181, next:52181328 invalid dropping st:0
DTS 52650, next:52650664 st:0 invalid dropping
PTS 52650, next:52650664 invalid dropping st:0
DTS 52821, next:52821328 st:0 invalid droppinge=00:00:52.69 bitrate=1696.4kbits/s
PTS 52821, next:52821328 invalid dropping st:0
DTS 52949, next:52949326 st:0 invalid dropping
PTS 52949, next:52949326 invalid dropping st:0
DTS 53162, next:53162656 st:0 invalid dropping
PTS 53162, next:53162656 invalid dropping st:0
DTS 53290, next:53290654 st:0 invalid dropping
PTS 53290, next:53290654 invalid dropping st:0
DTS 53802, next:53802664 st:0 invalid dropping
PTS 53802, next:53802664 invalid dropping st:0
DTS 53973, next:53973328 st:0 invalid dropping
PTS 53973, next:53973328 invalid dropping st:0
DTS 54314, next:54314664 st:0 invalid droppinge=00:00:54.02 bitrate=1708.9kbits/s
PTS 54314, next:54314664 invalid dropping st:0
DTS 54485, next:54485328 st:0 invalid dropping
PTS 54485, next:54485328 invalid dropping st:0
DTS 54613, next:54613326 st:0 invalid dropping
PTS 54613, next:54613326 invalid dropping st:0
DTS 54954, next:54954664 st:0 invalid dropping
PTS 54954, next:54954664 invalid dropping st:0
DTS 55082, next:55082662 st:0 invalid dropping
PTS 55082, next:55082662 invalid dropping st:0
DTS 55253, next:55253326 st:0 invalid dropping
PTS 55253, next:55253326 invalid dropping st:0
DTS 55466, next:55466656 st:0 invalid dropping
PTS 55466, next:55466656 invalid dropping st:0
DTS 55637, next:55637320 st:0 invalid droppinge=00:00:55.51 bitrate=1698.2kbits/s
PTS 55637, next:55637320 invalid dropping st:0
DTS 56021, next:56021330 st:0 invalid dropping
PTS 56021, next:56021330 invalid dropping st:0
DTS 56149, next:56149328 st:0 invalid dropping
PTS 56149, next:56149328 invalid dropping st:0
DTS 56490, next:56490664 st:0 invalid dropping
PTS 56490, next:56490664 invalid dropping st:0
DTS 56661, next:56661328 st:0 invalid dropping
PTS 56661, next:56661328 invalid dropping st:0
DTS 56874, next:56874658 st:0 invalid dropping
PTS 56874, next:56874658 invalid dropping st:0
DTS 57045, next:57045322 st:0 invalid dropping
PTS 57045, next:57045322 invalid dropping st:0
DTS 57429, next:57429330 st:0 invalid droppinge=00:00:57.11 bitrate=1682.5kbits/s
PTS 57429, next:57429330 invalid dropping st:0
DTS 57642, next:57642660 st:0 invalid dropping
PTS 57642, next:57642660 invalid dropping st:0
DTS 58026, next:58026664 st:0 invalid dropping
PTS 58026, next:58026664 invalid dropping st:0
DTS 58197, next:58197328 st:0 invalid dropping
PTS 58197, next:58197328 invalid dropping st:0
DTS 58709, next:58709330 st:0 invalid dropping
PTS 58709, next:58709330 invalid dropping st:0
DTS 59050, next:59050664 st:0 invalid droppinge=00:00:58.75 bitrate=1669.9kbits/s
PTS 59050, next:59050664 invalid dropping st:0
DTS 59178, next:59178662 st:0 invalid dropping
PTS 59178, next:59178662 invalid dropping st:0
DTS 59349, next:59349326 st:0 invalid dropping
PTS 59349, next:59349326 invalid dropping st:0
DTS 59690, next:59690664 st:0 invalid dropping
PTS 59690, next:59690664 invalid dropping st:0
DTS 59861, next:59861328 st:0 invalid dropping
PTS 59861, next:59861328 invalid dropping st:0
DTS 60202, next:60202664 st:0 invalid dropping
PTS 60202, next:60202664 invalid dropping st:0
DTS 60373, next:60373328 st:0 invalid dropping
PTS 60373, next:60373328 invalid dropping st:0
DTS 60714, next:60714664 st:0 invalid droppinge=00:01:00.42 bitrate=1651.4kbits/s
PTS 60714, next:60714664 invalid dropping st:0
DTS 60842, next:60842662 st:0 invalid dropping
PTS 60842, next:60842662 invalid dropping st:0
DTS 61013, next:61013326 st:0 invalid dropping
PTS 61013, next:61013326 invalid dropping st:0
DTS 61354, next:61354664 st:0 invalid dropping
PTS 61354, next:61354664 invalid dropping st:0
DTS 61525, next:61525328 st:0 invalid dropping
PTS 61525, next:61525328 invalid dropping st:0
DTS 61994, next:61994664 st:0 invalid droppinge=00:01:01.86 bitrate=1631.8kbits/s
PTS 61994, next:61994664 invalid dropping st:0
DTS 62165, next:62165328 st:0 invalid dropping
PTS 62165, next:62165328 invalid dropping st:0
DTS 62506, next:62506664 st:0 invalid dropping
PTS 62506, next:62506664 invalid dropping st:0
DTS 62677, next:62677328 st:0 invalid dropping
PTS 62677, next:62677328 invalid dropping st:0
DTS 63018, next:63018664 st:0 invalid dropping
PTS 63018, next:63018664 invalid dropping st:0
DTS 63189, next:63189328 st:0 invalid dropping
PTS 63189, next:63189328 invalid dropping st:0
DTS 63317, next:63317326 st:0 invalid dropping
PTS 63317, next:63317326 invalid dropping st:0
DTS 63658, next:63658664 st:0 invalid droppinge=00:01:03.38 bitrate=1615.2kbits/s
PTS 63658, next:63658664 invalid dropping st:0
DTS 63829, next:63829328 st:0 invalid dropping
PTS 63829, next:63829328 invalid dropping st:0
DTS 64170, next:64170664 st:0 invalid dropping
PTS 64170, next:64170664 invalid dropping st:0
DTS 64341, next:64341328 st:0 invalid dropping
PTS 64341, next:64341328 invalid dropping st:0
DTS 64469, next:64469326 st:0 invalid dropping
PTS 64469, next:64469326 invalid dropping st:0
DTS 64682, next:64682656 st:0 invalid dropping
PTS 64682, next:64682656 invalid dropping st:0
DTS 64810, next:64810654 st:0 invalid dropping
PTS 64810, next:64810654 invalid dropping st:0
DTS 64981, next:64981318 st:0 invalid droppinge=00:01:04.87 bitrate=1599.6kbits/s
PTS 64981, next:64981318 invalid dropping st:0
DTS 65322, next:65322664 st:0 invalid dropping
PTS 65322, next:65322664 invalid dropping st:0
DTS 65450, next:65450662 st:0 invalid dropping
PTS 65450, next:65450662 invalid dropping st:0
DTS 65578, next:65578660 st:0 invalid dropping
PTS 65578, next:65578660 invalid dropping st:0
DTS 65749, next:65749324 st:0 invalid dropping
PTS 65749, next:65749324 invalid dropping st:0
DTS 66133, next:66133330 st:0 invalid dropping
PTS 66133, next:66133330 invalid dropping st:0
DTS 66474, next:66474664 st:0 invalid droppinge=00:01:06.35 bitrate=1591.4kbits/s
PTS 66474, next:66474664 invalid dropping st:0
DTS 66645, next:66645328 st:0 invalid dropping
PTS 66645, next:66645328 invalid dropping st:0
DTS 66986, next:66986664 st:0 invalid dropping
PTS 66986, next:66986664 invalid dropping st:0
DTS 67157, next:67157328 st:0 invalid dropping
PTS 67157, next:67157328 invalid dropping st:0
DTS 67498, next:67498664 st:0 invalid dropping
PTS 67498, next:67498664 invalid dropping st:0
DTS 67669, next:67669328 st:0 invalid dropping
PTS 67669, next:67669328 invalid dropping st:0
DTS 68010, next:68010664 st:0 invalid droppinge=00:01:07.71 bitrate=1579.7kbits/s
PTS 68010, next:68010664 invalid dropping st:0
DTS 68266, next:68266660 st:0 invalid dropping
PTS 68266, next:68266660 invalid dropping st:0
DTS 68437, next:68437324 st:0 invalid dropping
PTS 68437, next:68437324 invalid dropping st:0
DTS 68650, next:68650654 st:0 invalid dropping
PTS 68650, next:68650654 invalid dropping st:0
DTS 68801, next:68821318 st:0 invalid dropping
PTS 68801, next:68821318 invalid dropping st:0
DTS 69162, next:69162664 st:0 invalid dropping
PTS 69162, next:69162664 invalid dropping st:0
DTS 69546, next:69546664 st:0 invalid droppinge=00:01:09.25 bitrate=1581.3kbits/s
PTS 69546, next:69546664 invalid dropping st:0
DTS 70101, next:70101330 st:0 invalid dropping
PTS 70101, next:70101330 invalid dropping st:0
DTS 70442, next:70442664 st:0 invalid dropping
PTS 70442, next:70442664 invalid dropping st:0
DTS 70613, next:70613328 st:0 invalid dropping
PTS 70613, next:70613328 invalid dropping st:0
DTS 70954, next:70954664 st:0 invalid droppinge=00:01:10.66 bitrate=1586.1kbits/s
PTS 70954, next:70954664 invalid dropping st:0
DTS 71082, next:71082662 st:0 invalid dropping
PTS 71082, next:71082662 invalid dropping st:0
DTS 71253, next:71253326 st:0 invalid dropping
PTS 71253, next:71253326 invalid dropping st:0
DTS 71381, next:71381324 st:0 invalid dropping
PTS 71381, next:71381324 invalid dropping st:0
DTS 71509, next:71509322 st:0 invalid dropping
PTS 71509, next:71509322 invalid dropping st:0
DTS 71850, next:71850664 st:0 invalid dropping
PTS 71850, next:71850664 invalid dropping st:0
DTS 71978, next:71978662 st:0 invalid droppinge=00:01:11.87 bitrate=1589.0kbits/s
PTS 71978, next:71978662 invalid dropping st:0
DTS 72362, next:72362664 st:0 invalid dropping
PTS 72362, next:72362664 invalid dropping st:0
DTS 72533, next:72533328 st:0 invalid dropping
PTS 72533, next:72533328 invalid dropping st:0
DTS 72874, next:72874664 st:0 invalid dropping
PTS 72874, next:72874664 invalid dropping st:0
DTS 73045, next:73045328 st:0 invalid dropping
PTS 73045, next:73045328 invalid dropping st:0
DTS 73429, next:73429330 st:0 invalid droppinge=00:01:13.30 bitrate=1585.3kbits/s
PTS 73429, next:73429330 invalid dropping st:0
DTS 73770, next:73770664 st:0 invalid dropping
PTS 73770, next:73770664 invalid dropping st:0
DTS 73941, next:73941328 st:0 invalid dropping
PTS 73941, next:73941328 invalid dropping st:0
DTS 74410, next:74410664 st:0 invalid dropping
PTS 74410, next:74410664 invalid dropping st:0
DTS 74581, next:74581328 st:0 invalid dropping
PTS 74581, next:74581328 invalid dropping st:0
DTS 74922, next:74922664 st:0 invalid droppinge=00:01:14.64 bitrate=1580.5kbits/s
PTS 74922, next:74922664 invalid dropping st:0
DTS 75093, next:75093328 st:0 invalid dropping
PTS 75093, next:75093328 invalid dropping st:0
DTS 75434, next:75434664 st:0 invalid dropping
PTS 75434, next:75434664 invalid dropping st:0
DTS 75605, next:75605328 st:0 invalid dropping
PTS 75605, next:75605328 invalid dropping st:0
DTS 75733, next:75733326 st:0 invalid dropping
PTS 75733, next:75733326 invalid dropping st:0
DTS 76074, next:76074664 st:0 invalid droppinge=00:01:15.94 bitrate=1573.1kbits/s
PTS 76074, next:76074664 invalid dropping st:0
DTS 76202, next:76202662 st:0 invalid dropping
PTS 76202, next:76202662 invalid dropping st:0
DTS 76373, next:76373326 st:0 invalid dropping
PTS 76373, next:76373326 invalid dropping st:0
DTS 76714, next:76714664 st:0 invalid dropping
PTS 76714, next:76714664 invalid dropping st:0
DTS 76885, next:76885328 st:0 invalid dropping
PTS 76885, next:76885328 invalid dropping st:0
DTS 77269, next:77269330 st:0 invalid dropping
PTS 77269, next:77269330 invalid dropping st:0
DTS 77610, next:77610664 st:0 invalid droppinge=00:01:17.33 bitrate=1586.9kbits/s
PTS 77610, next:77610664 invalid dropping st:0
DTS 77781, next:77781328 st:0 invalid dropping
PTS 77781, next:77781328 invalid dropping st:0
DTS 78250, next:78250664 st:0 invalid dropping
PTS 78250, next:78250664 invalid dropping st:0
DTS 78421, next:78421328 st:0 invalid dropping
PTS 78421, next:78421328 invalid dropping st:0
DTS 78549, next:78549326 st:0 invalid droppinge=00:01:18.42 bitrate=1593.0kbits/s
PTS 78549, next:78549326 invalid dropping st:0
DTS 78890, next:78890664 st:0 invalid dropping
PTS 78890, next:78890664 invalid dropping st:0
DTS 79061, next:79061328 st:0 invalid dropping
PTS 79061, next:79061328 invalid dropping st:0
DTS 79402, next:79402664 st:0 invalid dropping
PTS 79402, next:79402664 invalid dropping st:0
DTS 79573, next:79573328 st:0 invalid dropping
PTS 79573, next:79573328 invalid dropping st:0
DTS 79786, next:79786658 st:0 invalid dropping
PTS 79786, next:79786658 invalid dropping st:0
DTS 79957, next:79957322 st:0 invalid droppinge=00:01:19.83 bitrate=1596.2kbits/s
PTS 79957, next:79957322 invalid dropping st:0
DTS 80298, next:80298664 st:0 invalid dropping
PTS 80298, next:80298664 invalid dropping st:0
DTS 80469, next:80469328 st:0 invalid dropping
PTS 80469, next:80469328 invalid dropping st:0
DTS 80853, next:80853330 st:0 invalid dropping
PTS 80853, next:80853330 invalid dropping st:0
DTS 81066, next:81066660 st:0 invalid dropping
PTS 81066, next:81066660 invalid dropping st:0
DTS 81237, next:81237324 st:0 invalid droppinge=00:01:21.11 bitrate=1605.4kbits/s
PTS 81237, next:81237324 invalid dropping st:0
DTS 81621, next:81621330 st:0 invalid dropping
PTS 81621, next:81621330 invalid dropping st:0
DTS 81962, next:81962664 st:0 invalid dropping
PTS 81962, next:81962664 invalid dropping st:0
DTS 82218, next:82218660 st:0 invalid dropping
PTS 82218, next:82218660 invalid dropping st:0
DTS 82389, next:82389324 st:0 invalid dropping
PTS 82389, next:82389324 invalid dropping st:0
DTS 82730, next:82730664 st:0 invalid droppinge=00:01:22.60 bitrate=1607.8kbits/s
PTS 82730, next:82730664 invalid dropping st:0
DTS 82901, next:82901328 st:0 invalid dropping
PTS 82901, next:82901328 invalid dropping st:0
DTS 83242, next:83242664 st:0 invalid dropping
PTS 83242, next:83242664 invalid dropping st:0
DTS 83413, next:83413328 st:0 invalid dropping
PTS 83413, next:83413328 invalid dropping st:0
DTS 83797, next:83797330 st:0 invalid droppinge=00:01:23.67 bitrate=1631.1kbits/s
PTS 83797, next:83797330 invalid dropping st:0
DTS 83925, next:83925328 st:0 invalid dropping
PTS 83925, next:83925328 invalid dropping st:0
DTS 84138, next:84138658 st:0 invalid dropping
PTS 84138, next:84138658 invalid dropping st:0
DTS 84309, next:84309322 st:0 invalid dropping
PTS 84309, next:84309322 invalid dropping st:0
DTS 84778, next:84778664 st:0 invalid dropping
PTS 84778, next:84778664 invalid dropping st:0
DTS 84949, next:84949328 st:0 invalid dropping
PTS 84949, next:84949328 invalid dropping st:0
DTS 85077, next:85077326 st:0 invalid droppinge=00:01:24.95 bitrate=1647.0kbits/s
PTS 85077, next:85077326 invalid dropping st:0
DTS 85418, next:85418664 st:0 invalid dropping
PTS 85418, next:85418664 invalid dropping st:0
DTS 85589, next:85589328 st:0 invalid dropping
PTS 85589, next:85589328 invalid dropping st:0
DTS 85930, next:85930664 st:0 invalid dropping
PTS 85930, next:85930664 invalid dropping st:0
DTS 86101, next:86101328 st:0 invalid dropping
PTS 86101, next:86101328 invalid dropping st:0
DTS 86442, next:86442664 st:0 invalid droppinge=00:01:26.31 bitrate=1642.6kbits/s
PTS 86442, next:86442664 invalid dropping st:0
DTS 86826, next:86826664 st:0 invalid dropping
PTS 86826, next:86826664 invalid dropping st:0
DTS 86997, next:86997328 st:0 invalid dropping
PTS 86997, next:86997328 invalid dropping st:0
DTS 87338, next:87338664 st:0 invalid dropping
PTS 87338, next:87338664 invalid dropping st:0
DTS 87509, next:87509328 st:0 invalid dropping
PTS 87509, next:87509328 invalid dropping st:0
DTS 87850, next:87850664 st:0 invalid droppinge=00:01:27.72 bitrate=1637.0kbits/s
PTS 87850, next:87850664 invalid dropping st:0
DTS 88021, next:88021328 st:0 invalid dropping
PTS 88021, next:88021328 invalid dropping st:0
DTS 88490, next:88490664 st:0 invalid dropping
PTS 88490, next:88490664 invalid dropping st:0
DTS 88661, next:88661328 st:0 invalid dropping
PTS 88661, next:88661328 invalid dropping st:0
DTS 89002, next:89002664 st:0 invalid dropping
PTS 89002, next:89002664 invalid dropping st:0
DTS 89173, next:89173328 st:0 invalid droppinge=00:01:29.05 bitrate=1630.3kbits/s
PTS 89173, next:89173328 invalid dropping st:0
DTS 89514, next:89514664 st:0 invalid dropping
PTS 89514, next:89514664 invalid dropping st:0
DTS 89685, next:89685328 st:0 invalid dropping
PTS 89685, next:89685328 invalid dropping st:0
DTS 90026, next:90026664 st:0 invalid dropping
PTS 90026, next:90026664 invalid dropping st:0
DTS 90197, next:90197328 st:0 invalid dropping
PTS 90197, next:90197328 invalid dropping st:0
DTS 90538, next:90538664 st:0 invalid droppinge=00:01:30.41 bitrate=1628.8kbits/s
PTS 90538, next:90538664 invalid dropping st:0
DTS 90709, next:90709328 st:0 invalid dropping
PTS 90709, next:90709328 invalid dropping st:0
DTS 91050, next:91050664 st:0 invalid dropping
PTS 91050, next:91050664 invalid dropping st:0
DTS 91221, next:91221328 st:0 invalid dropping
PTS 91221, next:91221328 invalid dropping st:0
DTS 91349, next:91349326 st:0 invalid dropping
PTS 91349, next:91349326 invalid dropping st:0
DTS 91690, next:91690664 st:0 invalid dropping
PTS 91690, next:91690664 invalid dropping st:0
DTS 91861, next:91861328 st:0 invalid droppinge=00:01:31.75 bitrate=1627.7kbits/s
PTS 91861, next:91861328 invalid dropping st:0
DTS 92202, next:92202664 st:0 invalid dropping
PTS 92202, next:92202664 invalid dropping st:0
DTS 92373, next:92373328 st:0 invalid dropping
PTS 92373, next:92373328 invalid dropping st:0
DTS 92704, next:92714664 st:0 invalid dropping
PTS 92704, next:92714664 invalid dropping st:0
DTS 92885, next:92885328 st:0 invalid dropping
PTS 92885, next:92885328 invalid dropping st:0
DTS 93098, next:93098658 st:0 invalid dropping
PTS 93098, next:93098658 invalid dropping st:0
DTS 93269, next:93269322 st:0 invalid dropping
PTS 93269, next:93269322 invalid dropping st:0
DTS 93610, next:93610664 st:0 invalid droppinge=00:01:33.50 bitrate=1621.3kbits/s
PTS 93610, next:93610664 invalid dropping st:0
DTS 93781, next:93781328 st:0 invalid dropping
PTS 93781, next:93781328 invalid dropping st:0
DTS 94250, next:94250664 st:0 invalid dropping
PTS 94250, next:94250664 invalid dropping st:0
DTS 94421, next:94421328 st:0 invalid dropping
PTS 94421, next:94421328 invalid dropping st:0
DTS 94549, next:94549326 st:0 invalid dropping
PTS 94549, next:94549326 invalid dropping st:0
DTS 94890, next:94890664 st:0 invalid dropping
PTS 94890, next:94890664 invalid dropping st:0
DTS 95061, next:95061328 st:0 invalid droppinge=00:01:34.93 bitrate=1613.6kbits/s
PTS 95061, next:95061328 invalid dropping st:0
DTS 95402, next:95402664 st:0 invalid dropping
PTS 95402, next:95402664 invalid dropping st:0
DTS 95573, next:95573328 st:0 invalid dropping
PTS 95573, next:95573328 invalid dropping st:0
DTS 95786, next:95786658 st:0 invalid dropping
PTS 95786, next:95786658 invalid dropping st:0
DTS 95957, next:95957322 st:0 invalid dropping
PTS 95957, next:95957322 invalid dropping st:0
DTS 96341, next:96341330 st:0 invalid dropping
PTS 96341, next:96341330 invalid dropping st:0
DTS 96725, next:96725330 st:0 invalid droppinge=00:01:36.61 bitrate=1611.6kbits/s
PTS 96725, next:96725330 invalid dropping st:0
DTS 96938, next:96938660 st:0 invalid dropping
PTS 96938, next:96938660 invalid dropping st:0
DTS 97109, next:97109324 st:0 invalid dropping
PTS 97109, next:97109324 invalid dropping st:0
DTS 97322, next:97322654 st:0 invalid dropping
PTS 97322, next:97322654 invalid dropping st:0
DTS 97450, next:97450652 st:0 invalid dropping
PTS 97450, next:97450652 invalid dropping st:0
DTS 97621, next:97621316 st:0 invalid dropping
PTS 97621, next:97621316 invalid dropping st:0
DTS 97962, next:97962664 st:0 invalid dropping
PTS 97962, next:97962664 invalid dropping st:0
DTS 98133, next:98133328 st:0 invalid droppinge=00:01:38.01 bitrate=1607.2kbits/s
PTS 98133, next:98133328 invalid dropping st:0
DTS 98474, next:98474664 st:0 invalid dropping
PTS 98474, next:98474664 invalid dropping st:0
DTS 98602, next:98602662 st:0 invalid dropping
PTS 98602, next:98602662 invalid dropping st:0
DTS 98773, next:98773326 st:0 invalid dropping
PTS 98773, next:98773326 invalid dropping st:0
DTS 99114, next:99114664 st:0 invalid dropping
PTS 99114, next:99114664 invalid dropping st:0
DTS 99669, next:99669330 st:0 invalid droppinge=00:01:39.56 bitrate=1602.8kbits/s
PTS 99669, next:99669330 invalid dropping st:0
DTS 100053, next:100053330 st:0 invalid dropping
PTS 100053, next:100053330 invalid dropping st:0
DTS 100394, next:100394664 st:0 invalid dropping
PTS 100394, next:100394664 invalid dropping st:0
DTS 100565, next:100565328 st:0 invalid dropping
PTS 100565, next:100565328 invalid dropping st:0
DTS 100693, next:100693326 st:0 invalid dropping
PTS 100693, next:100693326 invalid dropping st:0
DTS 101077, next:101077330 st:0 invalid dropping
PTS 101077, next:101077330 invalid dropping st:0
DTS 101205, next:101205328 st:0 invalid dropping
PTS 101205, next:101205328 invalid dropping st:0
DTS 101546, next:101546664 st:0 invalid dropping00:01:40.97 bitrate=1600.1kbits/s
PTS 101546, next:101546664 invalid dropping st:0
DTS 101674, next:101674662 st:0 invalid dropping
PTS 101674, next:101674662 invalid dropping st:0
DTS 102058, next:102058664 st:0 invalid dropping
PTS 102058, next:102058664 invalid dropping st:0
DTS 102229, next:102229328 st:0 invalid dropping
PTS 102229, next:102229328 invalid dropping st:0
DTS 102698, next:102698664 st:0 invalid dropping
PTS 102698, next:102698664 invalid dropping st:0
DTS 102869, next:102869328 st:0 invalid dropping00:01:42.14 bitrate=1600.7kbits/s
PTS 102869, next:102869328 invalid dropping st:0
DTS 103253, next:103253330 st:0 invalid dropping
PTS 103253, next:103253330 invalid dropping st:0
DTS 103594, next:103594664 st:0 invalid dropping
PTS 103594, next:103594664 invalid dropping st:0
DTS 103765, next:103765328 st:0 invalid dropping
PTS 103765, next:103765328 invalid dropping st:0
DTS 104106, next:104106664 st:0 invalid dropping
PTS 104106, next:104106664 invalid dropping st:0
DTS 104277, next:104277328 st:0 invalid dropping
PTS 104277, next:104277328 invalid dropping st:0
DTS 104618, next:104618664 st:0 invalid dropping00:01:43.39 bitrate=1599.2kbits/s
PTS 104618, next:104618664 invalid dropping st:0
DTS 105002, next:105002664 st:0 invalid dropping
PTS 105002, next:105002664 invalid dropping st:0
DTS 105173, next:105173328 st:0 invalid dropping
PTS 105173, next:105173328 invalid dropping st:0
DTS 105898, next:105898664 st:0 invalid dropping00:01:44.64 bitrate=1597.8kbits/s
PTS 105898, next:105898664 invalid dropping st:0
frame= 2543 fps= 66 q=31.0 Lsize=   20646kB time=00:01:46.06 bitrate=1594.6kbits/s
video:18885kB audio:1657kB subtitle:0 global headers:0kB muxing overhead 0.504088%

comment:4 Changed 5 years ago by agowad

COMMAND:

ffprobe.exe -show_streams Dolphins_720.wmv

OUTPUT:

ffprobe version N-43418-g633b90c Copyright (c) 2007-2012 the FFmpeg developers
  built on Aug  9 2012 23:52:43 with gcc 4.7.1 (GCC)
  configuration: --enable-gpl --enable-version3 --disable-pthreads --enable-runtime-cpudetect --enable-avisynth --enable-bzlib --enable-frei
0r --enable-libass --enable-libcelt --enable-libopencore-amrnb --enable-libopencore-amrwb --enable-libfreetype --enable-libgsm --enable-libm
p3lame --enable-libnut --enable-libopenjpeg --enable-librtmp --enable-libschroedinger --enable-libspeex --enable-libtheora --enable-libutvid
eo --enable-libvo-aacenc --enable-libvo-amrwbenc --enable-libvorbis --enable-libvpx --enable-libx264 --enable-libxavs --enable-libxvid --ena
ble-zlib
  libavutil      51. 67.100 / 51. 67.100
  libavcodec     54. 51.100 / 54. 51.100
  libavformat    54. 22.104 / 54. 22.104
  libavdevice    54.  2.100 / 54.  2.100
  libavfilter     3.  7.100 /  3.  7.100
  libswscale      2.  1.101 /  2.  1.101
  libswresample   0. 15.100 /  0. 15.100
  libpostproc    52.  0.100 / 52.  0.100
Input #0, asf, from 'Dolphins_720.wmv':
  Metadata:
    WMFSDKVersion   : 9.00.00.2980
    WMFSDKNeeded    : 0.0.0.0000
    IsVBR           : 0
  Duration: 00:01:46.02, start: 0.000000, bitrate: 6576 kb/s
    Stream #0:0(eng): Audio: wmapro (b[1][0][0] / 0x0162), 48000 Hz, 5.1, flt, 384 kb/s
    Stream #0:1(eng): Video: wmv3 (Main) (WMV3 / 0x33564D57), yuv420p, 1280x720, 6000 kb/s, 23.98 tbr, 1k tbn, 1k tbc
[STREAM]
index=0
codec_name=wmapro
codec_long_name=Windows Media Audio 9 Professional
profile=unknown
codec_type=audio
codec_time_base=1/48000
codec_tag_string=b[1][0][0]
codec_tag=0x0162
sample_fmt=flt
sample_rate=48000
channels=6
bits_per_sample=0
id=N/A
r_frame_rate=0/0
avg_frame_rate=0/0
time_base=1/1000
start_time=0.000000
duration=106.027000
bit_rate=384000
nb_frames=N/A
nb_read_frames=N/A
nb_read_packets=N/A
TAG:language=eng
[/STREAM]
[STREAM]
index=1
codec_name=wmv3
codec_long_name=Windows Media Video 9
profile=Main
codec_type=video
codec_time_base=1/1000
codec_tag_string=WMV3
codec_tag=0x33564d57
width=1280
height=720
has_b_frames=0
sample_aspect_ratio=0:1
display_aspect_ratio=0:1
pix_fmt=yuv420p
level=-99
timecode=N/A
id=N/A
r_frame_rate=24000/1001
avg_frame_rate=0/0
time_base=1/1000
start_time=0.000000
duration=106.027000
bit_rate=6000000
nb_frames=N/A
nb_read_frames=N/A
nb_read_packets=N/A
TAG:language=eng
[/STREAM]

comment:5 Changed 5 years ago by agowad

COMMAND:

ffprobe.exe -show_streams Dolphins_7202_TMP.flv

OUTPUT

ffprobe version N-43418-g633b90c Copyright (c) 2007-2012 the FFmpeg developers
  built on Aug  9 2012 23:52:43 with gcc 4.7.1 (GCC)
  configuration: --enable-gpl --enable-version3 --disable-pthreads --enable-runtime-cpudetect --enable-avisynth --enable-bzlib --enable-frei
0r --enable-libass --enable-libcelt --enable-libopencore-amrnb --enable-libopencore-amrwb --enable-libfreetype --enable-libgsm --enable-libm
p3lame --enable-libnut --enable-libopenjpeg --enable-librtmp --enable-libschroedinger --enable-libspeex --enable-libtheora --enable-libutvid
eo --enable-libvo-aacenc --enable-libvo-amrwbenc --enable-libvorbis --enable-libvpx --enable-libx264 --enable-libxavs --enable-libxvid --ena
ble-zlib
  libavutil      51. 67.100 / 51. 67.100
  libavcodec     54. 51.100 / 54. 51.100
  libavformat    54. 22.104 / 54. 22.104
  libavdevice    54.  2.100 / 54.  2.100
  libavfilter     3.  7.100 /  3.  7.100
  libswscale      2.  1.101 /  2.  1.101
  libswresample   0. 15.100 /  0. 15.100
  libpostproc    52.  0.100 / 52.  0.100
Input #0, flv, from 'Dolphins_7202_TMP.flv':
  Metadata:
    WMFSDKVersion   : 9.00.00.2980
    WMFSDKNeeded    : 0.0.0.0000
    IsVBR           : 0
    encoder         : Lavf54.22.104
  Duration: 00:01:47.24, start: 0.000000, bitrate: 1577 kb/s
    Stream #0:0: Video: flv1, yuv420p, 1280x720, 200 kb/s, 23.98 tbr, 1k tbn, 1k tbc
    Stream #0:1: Audio: mp3, 44100 Hz, stereo, s16, 128 kb/s
[STREAM]
index=0
codec_name=flv
codec_long_name=FLV / Sorenson Spark / Sorenson H.263 (Flash Video)
profile=unknown
codec_type=video
codec_time_base=1/1000
codec_tag_string=[0][0][0][0]
codec_tag=0x0000
width=1280
height=720
has_b_frames=0
sample_aspect_ratio=0:1
display_aspect_ratio=0:1
pix_fmt=yuv420p
level=-99
timecode=N/A
id=N/A
r_frame_rate=24000/1001
avg_frame_rate=0/0
time_base=1/1000
start_time=0.025000
duration=N/A
bit_rate=200000
nb_frames=N/A
nb_read_frames=N/A
nb_read_packets=N/A
[/STREAM]
[STREAM]
index=1
codec_name=mp3
codec_long_name=MP3 (MPEG audio layer 3)
profile=unknown
codec_type=audio
codec_time_base=1/44100
codec_tag_string=[0][0][0][0]
codec_tag=0x0000
sample_fmt=s16
sample_rate=44100
channels=2
bits_per_sample=0
id=N/A
r_frame_rate=0/0
avg_frame_rate=0/0
time_base=1/1000
start_time=0.000000
duration=N/A
bit_rate=128000
nb_frames=N/A
nb_read_frames=N/A
nb_read_packets=N/A
[/STREAM]

comment:6 Changed 5 years ago by cehoyos

Please test current git head, if the problem is still reproducible provide the input sample.

comment:7 Changed 5 years ago by agowad

Hello

I have used instructions from following article to build ffmpeg under windows:
http://www.gooli.org/blog/building-ffmpeg-for-windows-with-msys-and-mingw/
However, after running make I received a few errors. Therefore, I have great request to you - Could you please try to test it on your development machine or point me to some tutorial that may work?

Unfortunately, the media file I used initially (Dolphins_720.wmv) is 72MB, therefore, I have chosen different, smaller one (fishermans_friendCD_720_xvid.avi). I will add it as attachment to this ticket. Below I put outputs of previously requested commands.

  • COMMAND
ffmpeg.exe -i "fishermans_friendCD_720_xvid.avi" -ar 44100 "fishermans_friendCD_720_xvid_TMP.flv"
  • OUTPUT
ffmpeg version N-43206-gf857465 Copyright (c) 2000-2012 the FFmpeg developers
  built on Aug  4 2012 16:10:39 with gcc 4.7.1 (GCC)
  configuration: --enable-gpl --enable-version3 --disable-w32threads --enable-runtime-cpudetect --enable-avisynth --enable-bzlib --enable-frei0r --ena
ble-libass --enable-libcelt --enable-libopencore-amrnb --enable-libopencore-amrwb --enable-libfreetype --enable-libgsm --enable-libmp3lame --enable-li
bnut --enable-libopenjpeg --enable-librtmp --enable-libschroedinger --enable-libspeex --enable-libtheora --enable-libutvideo --enable-libvo-aacenc --e
nable-libvo-amrwbenc --enable-libvorbis --enable-libvpx --enable-libx264 --enable-libxavs --enable-libxvid --enable-zlib
  libavutil      51. 66.100 / 51. 66.100
  libavcodec     54. 49.100 / 54. 49.100
  libavformat    54. 22.100 / 54. 22.100
  libavdevice    54.  2.100 / 54.  2.100
  libavfilter     3.  5.102 /  3.  5.102
  libswscale      2.  1.100 /  2.  1.100
  libswresample   0. 15.100 /  0. 15.100
  libpostproc    52.  0.100 / 52.  0.100
Input #0, avi, from 'fishermans_friendCD_720_xvid.avi':
  Metadata:
    encoder         : MEncoder Sherpya-SVN-r32492-4.2.5
  Duration: 00:00:09.96, start: 0.000000, bitrate: 1090 kb/s
    Stream #0:0: Video: mpeg4 (Simple Profile) (XVID / 0x44495658), yuv420p, 1280x720 [SAR 1:1 DAR 16:9], 25 tbr, 25 tbn, 25 tbc
    Stream #0:1: Audio: mp3 (U[0][0][0] / 0x0055), 44100 Hz, stereo, s16, 128 kb/s
Output #0, flv, to 'fishermans_friendCD_720_xvid_TMP.flv':
  Metadata:
    encoder         : Lavf54.22.100
    Stream #0:0: Video: flv1 ([2][0][0][0] / 0x0002), yuv420p, 1280x720 [SAR 1:1 DAR 16:9], q=2-31, 200 kb/s, 1k tbn, 25 tbc
    Stream #0:1: Audio: mp3 ([2][0][0][0] / 0x0002), 44100 Hz, stereo, s16
Stream mapping:
  Stream #0:0 -> #0:0 (mpeg4 -> flv)
  Stream #0:1 -> #0:1 (mp3 -> libmp3lame)
Press [q] to stop, [?] for help
frame=  247 fps= 84 q=31.0 Lsize=    1720kB time=00:00:09.95 bitrate=1415.8kbits/s
video:1554kB audio:156kB subtitle:0 global headers:0kB muxing overhead 0.593016%
  • COMMAND
ffprobe.exe -show_streams fishermans_friendCD_720_xvid.avi
  • OUTPUT
ffprobe version N-43594-gf0896a6 Copyright (c) 2007-2012 the FFmpeg developers
  built on Aug 15 2012 21:25:48 with gcc 4.7.1 (GCC)
  configuration: --enable-gpl --enable-version3 --disable-pthreads --enable-runtime-cpudetect --enable-avisynth --enable-bzlib --enable-frei0r --enabl
e-libass --enable-libcelt --enable-libopencore-amrnb --enable-libopencore-amrwb --enable-libfreetype --enable-libgsm --enable-libmp3lame --enable-libn
ut --enable-libopenjpeg --enable-librtmp --enable-libschroedinger --enable-libspeex --enable-libtheora --enable-libutvideo --enable-libvo-aacenc --ena
ble-libvo-amrwbenc --enable-libvorbis --enable-libvpx --enable-libx264 --enable-libxavs --enable-libxvid --enable-zlib
  libavutil      51. 69.100 / 51. 69.100
  libavcodec     54. 52.100 / 54. 52.100
  libavformat    54. 23.101 / 54. 23.101
  libavdevice    54.  2.100 / 54.  2.100
  libavfilter     3.  9.100 /  3.  9.100
  libswscale      2.  1.101 /  2.  1.101
  libswresample   0. 15.100 /  0. 15.100
  libpostproc    52.  0.100 / 52.  0.100
Input #0, avi, from 'fishermans_friendCD_720_xvid.avi':
  Metadata:
    encoder         : MEncoder Sherpya-SVN-r32492-4.2.5
  Duration: 00:00:09.96, start: 0.000000, bitrate: 1090 kb/s
    Stream #0:0: Video: mpeg4 (Simple Profile) (XVID / 0x44495658), yuv420p, 1280x720 [SAR 1:1 DAR 16:9], 25 tbr, 25 tbn, 25 tbc
    Stream #0:1: Audio: mp3 (U[0][0][0] / 0x0055), 44100 Hz, stereo, s16, 128 kb/s
[STREAM]
index=0
codec_name=mpeg4
codec_long_name=MPEG-4 part 2
profile=Simple Profile
codec_type=video
codec_time_base=1/25
codec_tag_string=XVID
codec_tag=0x44495658
width=1280
height=720
has_b_frames=0
sample_aspect_ratio=1:1
display_aspect_ratio=16:9
pix_fmt=yuv420p
level=3
timecode=N/A
quarter_sample=0
divx_packed=0
id=N/A
r_frame_rate=25/1
avg_frame_rate=0/0
time_base=1/25
start_time=0.000000
duration=9.960000
bit_rate=N/A
nb_frames=249
nb_read_frames=N/A
nb_read_packets=N/A
[/STREAM]
[STREAM]
index=1
codec_name=mp3
codec_long_name=MP3 (MPEG audio layer 3)
profile=unknown
codec_type=audio
codec_time_base=1/44100
codec_tag_string=U[0][0][0]
codec_tag=0x0055
sample_fmt=s16
sample_rate=44100
channels=2
bits_per_sample=0
id=N/A
r_frame_rate=0/0
avg_frame_rate=0/0
time_base=32/1225
start_time=0.000000
duration=9.952653
bit_rate=128000
nb_frames=381
nb_read_frames=N/A
nb_read_packets=N/A
[/STREAM]
  • COMMAND
ffprobe.exe -show_streams fishermans_friendCD_720_xvid_TMP.flv
  • OUTPUT
ffprobe version N-43594-gf0896a6 Copyright (c) 2007-2012 the FFmpeg developers
  built on Aug 15 2012 21:25:48 with gcc 4.7.1 (GCC)
  configuration: --enable-gpl --enable-version3 --disable-pthreads --enable-runtime-cpudetect --enable-avisynth --enable-bzlib --enable-frei0r --enabl
e-libass --enable-libcelt --enable-libopencore-amrnb --enable-libopencore-amrwb --enable-libfreetype --enable-libgsm --enable-libmp3lame --enable-libn
ut --enable-libopenjpeg --enable-librtmp --enable-libschroedinger --enable-libspeex --enable-libtheora --enable-libutvideo --enable-libvo-aacenc --ena
ble-libvo-amrwbenc --enable-libvorbis --enable-libvpx --enable-libx264 --enable-libxavs --enable-libxvid --enable-zlib
  libavutil      51. 69.100 / 51. 69.100
  libavcodec     54. 52.100 / 54. 52.100
  libavformat    54. 23.101 / 54. 23.101
  libavdevice    54.  2.100 / 54.  2.100
  libavfilter     3.  9.100 /  3.  9.100
  libswscale      2.  1.101 /  2.  1.101
  libswresample   0. 15.100 /  0. 15.100
  libpostproc    52.  0.100 / 52.  0.100
Input #0, flv, from 'fishermans_friendCD_720_xvid_TMP.flv':
  Metadata:
    encoder         : Lavf54.22.100
  Duration: 00:00:11.07, start: 0.000000, bitrate: 1272 kb/s
    Stream #0:0: Video: flv1, yuv420p, 1280x720, 200 kb/s, 25 tbr, 1k tbn, 1k tbc
    Stream #0:1: Audio: mp3, 44100 Hz, stereo, s16, 128 kb/s
[STREAM]
index=0
codec_name=flv
codec_long_name=FLV / Sorenson Spark / Sorenson H.263 (Flash Video)
profile=unknown
codec_type=video
codec_time_base=1/1000
codec_tag_string=[0][0][0][0]
codec_tag=0x0000
width=1280
height=720
has_b_frames=0
sample_aspect_ratio=0:1
display_aspect_ratio=0:1
pix_fmt=yuv420p
level=-99
timecode=N/A
id=N/A
r_frame_rate=25/1
avg_frame_rate=0/0
time_base=1/1000
start_time=0.025000
duration=N/A
bit_rate=200000
nb_frames=N/A
nb_read_frames=N/A
nb_read_packets=N/A
[/STREAM]
[STREAM]
index=1
codec_name=mp3
codec_long_name=MP3 (MPEG audio layer 3)
profile=unknown
codec_type=audio
codec_time_base=1/44100
codec_tag_string=[0][0][0][0]
codec_tag=0x0000
sample_fmt=s16
sample_rate=44100
channels=2
bits_per_sample=0
id=N/A
r_frame_rate=0/0
avg_frame_rate=0/0
time_base=1/1000
start_time=0.000000
duration=N/A
bit_rate=128000
nb_frames=N/A
nb_read_frames=N/A
nb_read_packets=N/A
[/STREAM]

Changed 5 years ago by agowad

A file which after conversion to flv becomes longer

comment:8 Changed 5 years ago by rogerdpack

00:00:09.96 increases to
00:00:09.98
is this what you're describing?

As a note with "-an" it retains the same size, so I wonder if it's related to this: http://ffmpeg.org/pipermail/ffmpeg-user/2012-August/008841.html

though converting it over and over into .mp4 doesn't seem to increase the duration...

Also when I do an ffprobe on the input, it shows the last video packet at 9.92 (lasting 0.04, so until 0.96), and the same in the output (XX.mp4), however the audio seems to last far longer (stretched? padded?)

comment:9 Changed 5 years ago by agowad

No, this is not the issue. For me a problem occurs if the difference is bigger than 0,5s.
The example I supplied was for flash output video (not mp4), however, if you like then I have other media files for which generated mp4 is also longer.

Can you please verify the file for .flv output?

Just for your infomration - I am using latest build of ffmpeg.exe from (http://ffmpeg.zeranoe.com/builds/).

comment:10 Changed 5 years ago by agowad

I just tried (added -an):

ffmpeg.exe -i "fishermans_friendCD_720_xvid.avi" -an -ar 44100 "fishermans_friendCD_720_xvid_TMP.flv"

And the output flash duration was the same as input!

ffprobe.exe -show_streams fishermans_friendCD_720_xvid_TMP.flv
ffprobe version N-43594-gf0896a6 Copyright (c) 2007-2012 the FFmpeg developers
  built on Aug 15 2012 21:25:48 with gcc 4.7.1 (GCC)
  configuration: --enable-gpl --enable-version3 --disable-pthreads --enable-runtime-cpudetect --enable-avisynth --enable-bzlib --enable-frei0r --enable-libass -
-enable-libcelt --enable-libopencore-amrnb --enable-libopencore-amrwb --enable-libfreetype --enable-libgsm --enable-libmp3lame --enable-libnut --enable-libopenj
peg --enable-librtmp --enable-libschroedinger --enable-libspeex --enable-libtheora --enable-libutvideo --enable-libvo-aacenc --enable-libvo-amrwbenc --enable-li
bvorbis --enable-libvpx --enable-libx264 --enable-libxavs --enable-libxvid --enable-zlib
  libavutil      51. 69.100 / 51. 69.100
  libavcodec     54. 52.100 / 54. 52.100
  libavformat    54. 23.101 / 54. 23.101
  libavdevice    54.  2.100 / 54.  2.100
  libavfilter     3.  9.100 /  3.  9.100
  libswscale      2.  1.101 /  2.  1.101
  libswresample   0. 15.100 /  0. 15.100
  libpostproc    52.  0.100 / 52.  0.100
Input #0, flv, from 'fishermans_friendCD_720_xvid_TMP.flv':
  Metadata:
    encoder         : Lavf54.22.100
  Duration: 00:00:09.96, start: 0.000000, bitrate: 1281 kb/s
    Stream #0:0: Video: flv1, yuv420p, 1280x720, 200 kb/s, 25 tbr, 1k tbn, 1k tbc
[STREAM]
index=0
codec_name=flv
codec_long_name=FLV / Sorenson Spark / Sorenson H.263 (Flash Video)
profile=unknown
codec_type=video
codec_time_base=1/1000
codec_tag_string=[0][0][0][0]
codec_tag=0x0000
width=1280
height=720
has_b_frames=0
sample_aspect_ratio=0:1
display_aspect_ratio=0:1
pix_fmt=yuv420p
level=-99
timecode=N/A
id=N/A
r_frame_rate=25/1
avg_frame_rate=0/0
time_base=1/1000
start_time=0.000000
duration=N/A
bit_rate=200000
nb_frames=N/A
nb_read_frames=N/A
nb_read_packets=N/A
[/STREAM]

From ffmpeg documentation I can read:

‘-an (output)’
Disable audio recording.

To be honest, I don't understand that, but is that the solution to my problem?

comment:11 Changed 5 years ago by agowad

It is not... :-(

There is no audio in the generated flash. So I can assume that there is some issue with the sound then.

comment:12 Changed 5 years ago by agowad

Can I help you somehow? I am trying many different things to solve it, however, with no success :-(

Note: See TracTickets for help on using tickets.