Opened 4 years ago

Closed 3 years ago

Last modified 3 years ago

#1605 closed defect (fixed)

seek issue for realmedia files

Reported by: Abu Abdullah Owned by:
Priority: normal Component: undetermined
Version: git-master Keywords: cook
Cc: Blocked By:
Blocking: Reproduced by developer: yes
Analyzed by developer: no

Description

Summary of the bug: seeking in a realmedia file will play the beginning of the file for short period then start from the point you are seeking.
How to reproduce:

% ffplay.exe -ss 50.6 -i 08.rm
ffplay version N-43206-gf857465 Copyright (c) 2003-2012 the FFmpeg developers
built on Aug  4 2012 16:14:25 with gcc 4.7.1 (GCC)

The file is uploaded on:
http://www.mediafire.com/?3e3f1h1175e7c3v

Attachments (2)

logs.txt (40.7 KB) - added by Abu Abdullah 4 years ago.
9b1f776.wav (215.5 KB) - added by cehoyos 4 years ago.

Download all attachments as: .zip

Change History (15)

comment:1 Changed 4 years ago by cehoyos

Please provide complete, uncut console output.

comment:2 Changed 4 years ago by cehoyos

Could you test 9b1f776 ?
It sounds different here, but due to the language barrier I can't say if it is correct or if the bug manifests itself differently with the older version.

comment:3 Changed 4 years ago by Abu Abdullah

sorry, here it is:

ffplay.exe -ss 50.6 -i 08.rm
ffplay version N-43206-gf857465 Copyright (c) 2003-2012 the FFmpeg developers
  built on Aug  4 2012 16:14:25 with gcc 4.7.1 (GCC)
  configuration: --enable-gpl --enable-version3 --disable-w32threads --enable-ru
ntime-cpudetect --enable-avisynth --enable-bzlib --enable-frei0r --enable-libass
 --enable-libcelt --enable-libopencore-amrnb --enable-libopencore-amrwb --enable
-libfreetype --enable-libgsm --enable-libmp3lame --enable-libnut --enable-libope
njpeg --enable-librtmp --enable-libschroedinger --enable-libspeex --enable-libth
eora --enable-libutvideo --enable-libvo-aacenc --enable-libvo-amrwbenc --enable-
libvorbis --enable-libvpx --enable-libx264 --enable-libxavs --enable-libxvid --e
nable-zlib
  libavutil      51. 66.100 / 51. 66.100
  libavcodec     54. 49.100 / 54. 49.100
  libavformat    54. 22.100 / 54. 22.100
  libavdevice    54.  2.100 / 54.  2.100
  libavfilter     3.  5.102 /  3.  5.102
  libswscale      2.  1.100 /  2.  1.100
  libswresample   0. 15.100 /  0. 15.100
  libpostproc    52.  0.100 / 52.  0.100
[rm @ 00000000044bcb40] Unsupported stream type 00000174
Input #0, rm, from '08.rm':
  Metadata:
    title           :
    author          :
    copyright       :
    comment         :
  Duration: 00:46:59.82, start: 0.000000, bitrate: 11 kb/s
    Stream #0:0: Audio: cook (cook / 0x6B6F6F63), 11025 Hz, mono, flt, 11 kb/s
    Stream #0:1: Data: none
  50.04 A-V:  0.000 fd=   0 aq=    0KB vq=    0KB sq=    0B f=0/0


I'm not able to find 9b1f776 in: http://ffmpeg.zeranoe.com/builds/win32/static/
On the other hand i faced this when using mplayer2 and report some tickets but it seems to me now it is related to ffmpeg:
http://devel.mplayer2.org/ticket/193

Last edited 4 years ago by cehoyos (previous) (diff)

comment:4 Changed 4 years ago by Abu Abdullah

please note that the line:
50.04 A-V: 0.000 fd= 0 aq= 0KB vq= 0KB sq= 0B f=0/0

is not the first one since it is been overridden each time with the new value.

comment:5 Changed 4 years ago by cehoyos

  • Keywords cook added
  • Version changed from unspecified to git-master

Can you confirm that the following also allows to reproduce the problem?
$ ffmpeg -ss 50.6 -i 08.rm -t 10 out.wav
(Reports for ffplay are generally only valid if the problem is not reproducible with ffmpeg.)

comment:6 Changed 4 years ago by Abu Abdullah

yes it reproduces the problem and the output is clearly consisting of a small portion of the beginning of the file:

>ffmpeg -ss 50.6 -i 08.rm -t 10 out.wav  1>text.txt

ffmpeg version N-43206-gf857465 Copyright (c) 2000-2012 the FFmpeg developers
  built on Aug  4 2012 16:14:25 with gcc 4.7.1 (GCC)
  configuration: --enable-gpl --enable-version3 --disable-w32threads --enable-runtime-cpudetect --enable-avisynth --enab
le-bzlib --enable-frei0r --enable-libass --enable-libcelt --enable-libopencore-amrnb --enable-libopencore-amrwb --enable
-libfreetype --enable-libgsm --enable-libmp3lame --enable-libnut --enable-libopenjpeg --enable-librtmp --enable-libschro
edinger --enable-libspeex --enable-libtheora --enable-libutvideo --enable-libvo-aacenc --enable-libvo-amrwbenc --enable-
libvorbis --enable-libvpx --enable-libx264 --enable-libxavs --enable-libxvid --enable-zlib
  libavutil      51. 66.100 / 51. 66.100
  libavcodec     54. 49.100 / 54. 49.100
  libavformat    54. 22.100 / 54. 22.100
  libavdevice    54.  2.100 / 54.  2.100
  libavfilter     3.  5.102 /  3.  5.102
  libswscale      2.  1.100 /  2.  1.100
  libswresample   0. 15.100 /  0. 15.100
  libpostproc    52.  0.100 / 52.  0.100
[rm @ 000000000034ede0] Unsupported stream type 00000174
Input #0, rm, from '08.rm':
  Metadata:
    title           :
    author          :
    copyright       :
    comment         :
  Duration: 00:46:59.82, start: 0.000000, bitrate: 11 kb/s
    Stream #0:0: Audio: cook (cook / 0x6B6F6F63), 11025 Hz, mono, flt, 11 kb/s
    Stream #0:1: Data: none
File 'out.wav' already exists. Overwrite ? [y/N] y
Output #0, wav, to 'out.wav':
  Metadata:
    title           :
    author          :
    copyright       :
    comment         :
    encoder         : Lavf54.22.100
    Stream #0:0: Audio: pcm_s16le ([1][0][0][0] / 0x0001), 11025 Hz, mono, s16, 176 kb/s
Stream mapping:
  Stream #0:0 -> #0:0 (cook -> pcm_s16le)
Press [q] to stop, [?] for help
DTS -1559, next:0 st:0 invalid dropping
PTS -1559, next:0 invalid dropping st:0
DTS -1536, next:0 st:0 invalid dropping
PTS -1536, next:0 invalid dropping st:0
DTS -1513, next:23219 st:0 invalid dropping
PTS -1513, next:23219 invalid dropping st:0
DTS -1490, next:46438 st:0 invalid dropping
PTS -1490, next:46438 invalid dropping st:0
DTS -1467, next:69657 st:0 invalid dropping
PTS -1467, next:69657 invalid dropping st:0
DTS -1444, next:92876 st:0 invalid dropping
PTS -1444, next:92876 invalid dropping st:0
DTS -1421, next:116095 st:0 invalid dropping
PTS -1421, next:116095 invalid dropping st:0
DTS -1398, next:139314 st:0 invalid dropping
PTS -1398, next:139314 invalid dropping st:0
DTS -1375, next:162533 st:0 invalid dropping
PTS -1375, next:162533 invalid dropping st:0
DTS -1352, next:185752 st:0 invalid dropping
PTS -1352, next:185752 invalid dropping st:0
DTS -1329, next:208971 st:0 invalid dropping
PTS -1329, next:208971 invalid dropping st:0
DTS -1306, next:232190 st:0 invalid dropping
PTS -1306, next:232190 invalid dropping st:0
DTS -1283, next:255409 st:0 invalid dropping
PTS -1283, next:255409 invalid dropping st:0
DTS -1260, next:278628 st:0 invalid dropping
PTS -1260, next:278628 invalid dropping st:0
DTS -1237, next:301847 st:0 invalid dropping
PTS -1237, next:301847 invalid dropping st:0
DTS -1214, next:325066 st:0 invalid dropping
PTS -1214, next:325066 invalid dropping st:0
DTS -1191, next:348285 st:0 invalid dropping
PTS -1191, next:348285 invalid dropping st:0
DTS -1168, next:371504 st:0 invalid dropping
PTS -1168, next:371504 invalid dropping st:0
DTS -1145, next:394723 st:0 invalid dropping
PTS -1145, next:394723 invalid dropping st:0
DTS -1122, next:417942 st:0 invalid dropping
PTS -1122, next:417942 invalid dropping st:0
DTS -1099, next:441161 st:0 invalid dropping
PTS -1099, next:441161 invalid dropping st:0
DTS -1076, next:464380 st:0 invalid dropping
PTS -1076, next:464380 invalid dropping st:0
DTS -1053, next:487599 st:0 invalid dropping
PTS -1053, next:487599 invalid dropping st:0
DTS -1030, next:510818 st:0 invalid dropping
PTS -1030, next:510818 invalid dropping st:0
DTS -1007, next:534037 st:0 invalid dropping
PTS -1007, next:534037 invalid dropping st:0
DTS -984, next:557256 st:0 invalid dropping
PTS -984, next:557256 invalid dropping st:0
DTS -961, next:580475 st:0 invalid dropping
PTS -961, next:580475 invalid dropping st:0
DTS -938, next:603694 st:0 invalid dropping
PTS -938, next:603694 invalid dropping st:0
DTS -915, next:626913 st:0 invalid dropping
PTS -915, next:626913 invalid dropping st:0
DTS -892, next:650132 st:0 invalid dropping
PTS -892, next:650132 invalid dropping st:0
DTS -869, next:673351 st:0 invalid dropping
PTS -869, next:673351 invalid dropping st:0
DTS -846, next:696570 st:0 invalid dropping
PTS -846, next:696570 invalid dropping st:0
DTS -823, next:719789 st:0 invalid dropping
PTS -823, next:719789 invalid dropping st:0
DTS -800, next:743008 st:0 invalid dropping
PTS -800, next:743008 invalid dropping st:0
DTS -777, next:766227 st:0 invalid dropping
PTS -777, next:766227 invalid dropping st:0
DTS -754, next:789446 st:0 invalid dropping
PTS -754, next:789446 invalid dropping st:0
DTS -731, next:812665 st:0 invalid dropping
PTS -731, next:812665 invalid dropping st:0
DTS -708, next:835884 st:0 invalid dropping
PTS -708, next:835884 invalid dropping st:0
DTS -685, next:859103 st:0 invalid dropping
PTS -685, next:859103 invalid dropping st:0
DTS -662, next:882322 st:0 invalid dropping
PTS -662, next:882322 invalid dropping st:0
DTS -639, next:905541 st:0 invalid dropping
PTS -639, next:905541 invalid dropping st:0
DTS -616, next:928760 st:0 invalid dropping
PTS -616, next:928760 invalid dropping st:0
DTS -593, next:951979 st:0 invalid dropping
PTS -593, next:951979 invalid dropping st:0
DTS -570, next:975198 st:0 invalid dropping
PTS -570, next:975198 invalid dropping st:0
DTS -547, next:998417 st:0 invalid dropping
PTS -547, next:998417 invalid dropping st:0
DTS -524, next:1021636 st:0 invalid dropping
PTS -524, next:1021636 invalid dropping st:0
DTS -501, next:1044855 st:0 invalid dropping
PTS -501, next:1044855 invalid dropping st:0
DTS -478, next:1068074 st:0 invalid dropping
PTS -478, next:1068074 invalid dropping st:0
DTS -455, next:1091293 st:0 invalid dropping
PTS -455, next:1091293 invalid dropping st:0
DTS -432, next:1114512 st:0 invalid dropping
PTS -432, next:1114512 invalid dropping st:0
DTS -409, next:1137731 st:0 invalid dropping
PTS -409, next:1137731 invalid dropping st:0
DTS -386, next:1160950 st:0 invalid dropping
PTS -386, next:1160950 invalid dropping st:0
DTS -363, next:1184169 st:0 invalid dropping
PTS -363, next:1184169 invalid dropping st:0
DTS -340, next:1207388 st:0 invalid dropping
PTS -340, next:1207388 invalid dropping st:0
DTS -317, next:1230607 st:0 invalid dropping
PTS -317, next:1230607 invalid dropping st:0
DTS -294, next:1253826 st:0 invalid dropping
PTS -294, next:1253826 invalid dropping st:0
DTS -271, next:1277045 st:0 invalid dropping
PTS -271, next:1277045 invalid dropping st:0
DTS -248, next:1300264 st:0 invalid dropping
PTS -248, next:1300264 invalid dropping st:0
DTS -225, next:1323483 st:0 invalid dropping
PTS -225, next:1323483 invalid dropping st:0
DTS -202, next:1346702 st:0 invalid dropping
PTS -202, next:1346702 invalid dropping st:0
DTS -179, next:1369921 st:0 invalid dropping
PTS -179, next:1369921 invalid dropping st:0
DTS -156, next:1393140 st:0 invalid dropping
PTS -156, next:1393140 invalid dropping st:0
DTS -133, next:1416359 st:0 invalid dropping
PTS -133, next:1416359 invalid dropping st:0
DTS -110, next:1439578 st:0 invalid dropping
PTS -110, next:1439578 invalid dropping st:0
DTS -87, next:1462797 st:0 invalid dropping
PTS -87, next:1462797 invalid dropping st:0
DTS -64, next:1486016 st:0 invalid dropping
PTS -64, next:1486016 invalid dropping st:0
DTS -41, next:1509235 st:0 invalid dropping
PTS -41, next:1509235 invalid dropping st:0
DTS -18, next:1532454 st:0 invalid dropping
PTS -18, next:1532454 invalid dropping st:0
DTS 5, next:1555673 st:0 invalid dropping
PTS 5, next:1555673 invalid dropping st:0
DTS 28, next:1578892 st:0 invalid dropping
PTS 28, next:1578892 invalid dropping st:0
DTS 51, next:1602111 st:0 invalid dropping
PTS 51, next:1602111 invalid dropping st:0
DTS 74, next:1625330 st:0 invalid dropping
PTS 74, next:1625330 invalid dropping st:0
DTS 97, next:1648549 st:0 invalid dropping
PTS 97, next:1648549 invalid dropping st:0
DTS 120, next:1671768 st:0 invalid dropping
PTS 120, next:1671768 invalid dropping st:0
DTS 143, next:1694987 st:0 invalid dropping
PTS 143, next:1694987 invalid dropping st:0
DTS 166, next:1718206 st:0 invalid dropping
PTS 166, next:1718206 invalid dropping st:0
DTS 189, next:1741425 st:0 invalid dropping
PTS 189, next:1741425 invalid dropping st:0
DTS 212, next:1764644 st:0 invalid dropping
PTS 212, next:1764644 invalid dropping st:0
DTS 235, next:1787863 st:0 invalid dropping
PTS 235, next:1787863 invalid dropping st:0
DTS 258, next:1811082 st:0 invalid dropping
PTS 258, next:1811082 invalid dropping st:0
DTS 281, next:1834301 st:0 invalid dropping
PTS 281, next:1834301 invalid dropping st:0
DTS 304, next:1857520 st:0 invalid dropping
PTS 304, next:1857520 invalid dropping st:0
DTS 327, next:1880739 st:0 invalid dropping
PTS 327, next:1880739 invalid dropping st:0
DTS 350, next:1903958 st:0 invalid dropping
PTS 350, next:1903958 invalid dropping st:0
DTS 373, next:1927177 st:0 invalid dropping
PTS 373, next:1927177 invalid dropping st:0
DTS 396, next:1950396 st:0 invalid dropping
PTS 396, next:1950396 invalid dropping st:0
DTS -1559, next:1973615 st:0 invalid dropping
PTS -1559, next:1973615 invalid dropping st:0
DTS -1536, next:1996834 st:0 invalid dropping
PTS -1536, next:1996834 invalid dropping st:0
DTS -1513, next:2020053 st:0 invalid dropping
PTS -1513, next:2020053 invalid dropping st:0
DTS -1490, next:2043272 st:0 invalid dropping
PTS -1490, next:2043272 invalid dropping st:0
DTS -1467, next:2066491 st:0 invalid dropping
PTS -1467, next:2066491 invalid dropping st:0
DTS -1444, next:2089710 st:0 invalid dropping
PTS -1444, next:2089710 invalid dropping st:0
DTS -1421, next:2112929 st:0 invalid dropping
PTS -1421, next:2112929 invalid dropping st:0
DTS -1398, next:2136148 st:0 invalid dropping
PTS -1398, next:2136148 invalid dropping st:0
DTS -1375, next:2159367 st:0 invalid dropping
PTS -1375, next:2159367 invalid dropping st:0
DTS -1352, next:2182586 st:0 invalid dropping
PTS -1352, next:2182586 invalid dropping st:0
DTS -1329, next:2205805 st:0 invalid dropping
PTS -1329, next:2205805 invalid dropping st:0
DTS -1306, next:2229024 st:0 invalid dropping
PTS -1306, next:2229024 invalid dropping st:0
DTS -1283, next:2252243 st:0 invalid dropping
PTS -1283, next:2252243 invalid dropping st:0
DTS -1260, next:2275462 st:0 invalid dropping
PTS -1260, next:2275462 invalid dropping st:0
DTS -1237, next:2298681 st:0 invalid dropping
PTS -1237, next:2298681 invalid dropping st:0
DTS -1214, next:2321900 st:0 invalid dropping
PTS -1214, next:2321900 invalid dropping st:0
DTS -1191, next:2345119 st:0 invalid dropping
PTS -1191, next:2345119 invalid dropping st:0
DTS -1168, next:2368338 st:0 invalid dropping
PTS -1168, next:2368338 invalid dropping st:0
DTS -1145, next:2391557 st:0 invalid dropping
PTS -1145, next:2391557 invalid dropping st:0
DTS -1122, next:2414776 st:0 invalid dropping
PTS -1122, next:2414776 invalid dropping st:0
DTS -1099, next:2437995 st:0 invalid dropping
PTS -1099, next:2437995 invalid dropping st:0
DTS -1076, next:2461214 st:0 invalid dropping
PTS -1076, next:2461214 invalid dropping st:0
DTS -1053, next:2484433 st:0 invalid dropping
PTS -1053, next:2484433 invalid dropping st:0
DTS -1030, next:2507652 st:0 invalid dropping
PTS -1030, next:2507652 invalid dropping st:0
DTS -1007, next:2530871 st:0 invalid dropping
PTS -1007, next:2530871 invalid dropping st:0
DTS -984, next:2554090 st:0 invalid dropping
PTS -984, next:2554090 invalid dropping st:0
DTS -961, next:2577309 st:0 invalid dropping
PTS -961, next:2577309 invalid dropping st:0
DTS -938, next:2600528 st:0 invalid dropping
PTS -938, next:2600528 invalid dropping st:0
DTS -915, next:2623747 st:0 invalid dropping
PTS -915, next:2623747 invalid dropping st:0
DTS -892, next:2646966 st:0 invalid dropping
PTS -892, next:2646966 invalid dropping st:0
DTS -869, next:2670185 st:0 invalid dropping
PTS -869, next:2670185 invalid dropping st:0
DTS -846, next:2693404 st:0 invalid dropping
PTS -846, next:2693404 invalid dropping st:0
DTS -823, next:2716623 st:0 invalid dropping
PTS -823, next:2716623 invalid dropping st:0
DTS -800, next:2739842 st:0 invalid dropping
PTS -800, next:2739842 invalid dropping st:0
DTS -777, next:2763061 st:0 invalid dropping
PTS -777, next:2763061 invalid dropping st:0
DTS -754, next:2786280 st:0 invalid dropping
PTS -754, next:2786280 invalid dropping st:0
DTS -731, next:2809499 st:0 invalid dropping
PTS -731, next:2809499 invalid dropping st:0
DTS -708, next:2832718 st:0 invalid dropping
PTS -708, next:2832718 invalid dropping st:0
DTS -685, next:2855937 st:0 invalid dropping
PTS -685, next:2855937 invalid dropping st:0
DTS -662, next:2879156 st:0 invalid dropping
PTS -662, next:2879156 invalid dropping st:0
DTS -639, next:2902375 st:0 invalid dropping
PTS -639, next:2902375 invalid dropping st:0
DTS -616, next:2925594 st:0 invalid dropping
PTS -616, next:2925594 invalid dropping st:0
DTS -593, next:2948813 st:0 invalid dropping
PTS -593, next:2948813 invalid dropping st:0
DTS -570, next:2972032 st:0 invalid dropping
PTS -570, next:2972032 invalid dropping st:0
DTS -547, next:2995251 st:0 invalid dropping
PTS -547, next:2995251 invalid dropping st:0
DTS -524, next:3018470 st:0 invalid dropping
PTS -524, next:3018470 invalid dropping st:0
DTS -501, next:3041689 st:0 invalid dropping
PTS -501, next:3041689 invalid dropping st:0
DTS -478, next:3064908 st:0 invalid dropping
PTS -478, next:3064908 invalid dropping st:0
DTS -455, next:3088127 st:0 invalid dropping
PTS -455, next:3088127 invalid dropping st:0
DTS -432, next:3111346 st:0 invalid dropping
PTS -432, next:3111346 invalid dropping st:0
DTS -409, next:3134565 st:0 invalid dropping
PTS -409, next:3134565 invalid dropping st:0
DTS -386, next:3157784 st:0 invalid dropping
PTS -386, next:3157784 invalid dropping st:0
DTS -363, next:3181003 st:0 invalid dropping
PTS -363, next:3181003 invalid dropping st:0
DTS -340, next:3204222 st:0 invalid dropping
PTS -340, next:3204222 invalid dropping st:0
DTS -317, next:3227441 st:0 invalid dropping
PTS -317, next:3227441 invalid dropping st:0
DTS -294, next:3250660 st:0 invalid dropping
PTS -294, next:3250660 invalid dropping st:0
DTS -271, next:3273879 st:0 invalid dropping
PTS -271, next:3273879 invalid dropping st:0
DTS -248, next:3297098 st:0 invalid dropping
PTS -248, next:3297098 invalid dropping st:0
DTS -225, next:3320317 st:0 invalid dropping
PTS -225, next:3320317 invalid dropping st:0
DTS -202, next:3343536 st:0 invalid dropping
PTS -202, next:3343536 invalid dropping st:0
DTS -179, next:3366755 st:0 invalid dropping
PTS -179, next:3366755 invalid dropping st:0
DTS -156, next:3389974 st:0 invalid dropping
PTS -156, next:3389974 invalid dropping st:0
DTS -133, next:3413193 st:0 invalid dropping
PTS -133, next:3413193 invalid dropping st:0
DTS -110, next:3436412 st:0 invalid dropping
PTS -110, next:3436412 invalid dropping st:0
DTS -87, next:3459631 st:0 invalid dropping
PTS -87, next:3459631 invalid dropping st:0
DTS -64, next:3482850 st:0 invalid dropping
PTS -64, next:3482850 invalid dropping st:0
DTS -41, next:3506069 st:0 invalid dropping
PTS -41, next:3506069 invalid dropping st:0
DTS -18, next:3529288 st:0 invalid dropping
PTS -18, next:3529288 invalid dropping st:0
DTS 5, next:3552507 st:0 invalid dropping
PTS 5, next:3552507 invalid dropping st:0
DTS 28, next:3575726 st:0 invalid dropping
PTS 28, next:3575726 invalid dropping st:0
DTS 51, next:3598945 st:0 invalid dropping
PTS 51, next:3598945 invalid dropping st:0
DTS 74, next:3622164 st:0 invalid dropping
PTS 74, next:3622164 invalid dropping st:0
DTS 97, next:3645383 st:0 invalid dropping
PTS 97, next:3645383 invalid dropping st:0
DTS 120, next:3668602 st:0 invalid dropping
PTS 120, next:3668602 invalid dropping st:0
DTS 143, next:3691821 st:0 invalid dropping
PTS 143, next:3691821 invalid dropping st:0
DTS 166, next:3715040 st:0 invalid dropping
PTS 166, next:3715040 invalid dropping st:0
DTS 189, next:3738259 st:0 invalid dropping
PTS 189, next:3738259 invalid dropping st:0
DTS 212, next:3761478 st:0 invalid dropping
PTS 212, next:3761478 invalid dropping st:0
DTS 235, next:3784697 st:0 invalid dropping
PTS 235, next:3784697 invalid dropping st:0
DTS 258, next:3807916 st:0 invalid dropping
PTS 258, next:3807916 invalid dropping st:0
DTS 281, next:3831135 st:0 invalid dropping
PTS 281, next:3831135 invalid dropping st:0
DTS 304, next:3854354 st:0 invalid dropping
PTS 304, next:3854354 invalid dropping st:0
DTS 327, next:3877573 st:0 invalid dropping
PTS 327, next:3877573 invalid dropping st:0
DTS 350, next:3900792 st:0 invalid dropping
PTS 350, next:3900792 invalid dropping st:0
DTS 373, next:3924011 st:0 invalid dropping
PTS 373, next:3924011 invalid dropping st:0
DTS 396, next:3947230 st:0 invalid dropping
PTS 396, next:3947230 invalid dropping st:0
DTS 419, next:3970449 st:0 invalid dropping
PTS 419, next:3970449 invalid dropping st:0
DTS 442, next:3993668 st:0 invalid dropping
PTS 442, next:3993668 invalid dropping st:0
DTS 484, next:4016887 st:0 invalid dropping
PTS 484, next:4016887 invalid dropping st:0
DTS 507, next:4040106 st:0 invalid dropping
PTS 507, next:4040106 invalid dropping st:0
DTS 530, next:4063325 st:0 invalid dropping
PTS 530, next:4063325 invalid dropping st:0
DTS 553, next:4086544 st:0 invalid dropping
PTS 553, next:4086544 invalid dropping st:0
DTS 576, next:4109763 st:0 invalid dropping
PTS 576, next:4109763 invalid dropping st:0
DTS 599, next:4132982 st:0 invalid dropping
PTS 599, next:4132982 invalid dropping st:0
DTS 622, next:4156201 st:0 invalid dropping
PTS 622, next:4156201 invalid dropping st:0
DTS 645, next:4179420 st:0 invalid dropping
PTS 645, next:4179420 invalid dropping st:0
DTS 668, next:4202639 st:0 invalid dropping
PTS 668, next:4202639 invalid dropping st:0
DTS 691, next:4225858 st:0 invalid dropping
PTS 691, next:4225858 invalid dropping st:0
DTS 714, next:4249077 st:0 invalid dropping
PTS 714, next:4249077 invalid dropping st:0
DTS 737, next:4272296 st:0 invalid dropping
PTS 737, next:4272296 invalid dropping st:0
DTS 760, next:4295515 st:0 invalid dropping
PTS 760, next:4295515 invalid dropping st:0
DTS 783, next:4318734 st:0 invalid dropping
PTS 783, next:4318734 invalid dropping st:0
DTS 806, next:4341953 st:0 invalid dropping
PTS 806, next:4341953 invalid dropping st:0
DTS 829, next:4365172 st:0 invalid dropping
PTS 829, next:4365172 invalid dropping st:0
DTS 852, next:4388391 st:0 invalid dropping
PTS 852, next:4388391 invalid dropping st:0
DTS 875, next:4411610 st:0 invalid dropping
PTS 875, next:4411610 invalid dropping st:0
DTS 898, next:4434829 st:0 invalid dropping
PTS 898, next:4434829 invalid dropping st:0
DTS 921, next:4458048 st:0 invalid dropping
PTS 921, next:4458048 invalid dropping st:0
DTS 944, next:4481267 st:0 invalid dropping
PTS 944, next:4481267 invalid dropping st:0
DTS 967, next:4504486 st:0 invalid dropping
PTS 967, next:4504486 invalid dropping st:0
DTS 990, next:4527705 st:0 invalid dropping
PTS 990, next:4527705 invalid dropping st:0
DTS 1013, next:4550924 st:0 invalid dropping
PTS 1013, next:4550924 invalid dropping st:0
DTS 1036, next:4574143 st:0 invalid dropping
PTS 1036, next:4574143 invalid dropping st:0
DTS 1059, next:4597362 st:0 invalid dropping
PTS 1059, next:4597362 invalid dropping st:0
DTS 1082, next:4620581 st:0 invalid dropping
PTS 1082, next:4620581 invalid dropping st:0
DTS 1105, next:4643800 st:0 invalid dropping
PTS 1105, next:4643800 invalid dropping st:0
DTS 1128, next:4667019 st:0 invalid dropping
PTS 1128, next:4667019 invalid dropping st:0
DTS 1151, next:4690238 st:0 invalid dropping
PTS 1151, next:4690238 invalid dropping st:0
DTS 1174, next:4713457 st:0 invalid dropping
PTS 1174, next:4713457 invalid dropping st:0
DTS 1197, next:4736676 st:0 invalid dropping
PTS 1197, next:4736676 invalid dropping st:0
DTS 1220, next:4759895 st:0 invalid dropping
PTS 1220, next:4759895 invalid dropping st:0
DTS 1243, next:4783114 st:0 invalid dropping
PTS 1243, next:4783114 invalid dropping st:0
DTS 1266, next:4806333 st:0 invalid dropping
PTS 1266, next:4806333 invalid dropping st:0
DTS 1289, next:4829552 st:0 invalid dropping
PTS 1289, next:4829552 invalid dropping st:0
DTS 1312, next:4852771 st:0 invalid dropping
PTS 1312, next:4852771 invalid dropping st:0
DTS 1335, next:4875990 st:0 invalid dropping
PTS 1335, next:4875990 invalid dropping st:0
DTS 1358, next:4899209 st:0 invalid dropping
PTS 1358, next:4899209 invalid dropping st:0
DTS 1381, next:4922428 st:0 invalid dropping
PTS 1381, next:4922428 invalid dropping st:0
DTS 1404, next:4945647 st:0 invalid dropping
PTS 1404, next:4945647 invalid dropping st:0
DTS 1427, next:4968866 st:0 invalid dropping
PTS 1427, next:4968866 invalid dropping st:0
DTS 1450, next:4992085 st:0 invalid dropping
PTS 1450, next:4992085 invalid dropping st:0
DTS 1473, next:5015304 st:0 invalid dropping
PTS 1473, next:5015304 invalid dropping st:0
DTS 1496, next:5038523 st:0 invalid dropping
PTS 1496, next:5038523 invalid dropping st:0
DTS 1519, next:5061742 st:0 invalid dropping
PTS 1519, next:5061742 invalid dropping st:0
DTS 1542, next:5084961 st:0 invalid dropping
PTS 1542, next:5084961 invalid dropping st:0
DTS 1565, next:5108180 st:0 invalid dropping
PTS 1565, next:5108180 invalid dropping st:0
DTS 1588, next:5131399 st:0 invalid dropping
PTS 1588, next:5131399 invalid dropping st:0
DTS 1611, next:5154618 st:0 invalid dropping
PTS 1611, next:5154618 invalid dropping st:0
DTS 1634, next:5177837 st:0 invalid dropping
PTS 1634, next:5177837 invalid dropping st:0
DTS 1657, next:5201056 st:0 invalid dropping
PTS 1657, next:5201056 invalid dropping st:0
DTS 1680, next:5224275 st:0 invalid dropping
PTS 1680, next:5224275 invalid dropping st:0
DTS 1703, next:5247494 st:0 invalid dropping
PTS 1703, next:5247494 invalid dropping st:0
DTS 1726, next:5270713 st:0 invalid dropping
PTS 1726, next:5270713 invalid dropping st:0
DTS 1749, next:5293932 st:0 invalid dropping
PTS 1749, next:5293932 invalid dropping st:0
DTS 1772, next:5317151 st:0 invalid dropping
PTS 1772, next:5317151 invalid dropping st:0
DTS 1795, next:5340370 st:0 invalid dropping
PTS 1795, next:5340370 invalid dropping st:0
DTS 1818, next:5363589 st:0 invalid dropping
PTS 1818, next:5363589 invalid dropping st:0
DTS 1841, next:5386808 st:0 invalid dropping
PTS 1841, next:5386808 invalid dropping st:0
DTS 1864, next:5410027 st:0 invalid dropping
PTS 1864, next:5410027 invalid dropping st:0
DTS 1887, next:5433246 st:0 invalid dropping
PTS 1887, next:5433246 invalid dropping st:0
DTS 1910, next:5456465 st:0 invalid dropping
PTS 1910, next:5456465 invalid dropping st:0
DTS 1933, next:5479684 st:0 invalid dropping
PTS 1933, next:5479684 invalid dropping st:0
DTS 1956, next:5502903 st:0 invalid dropping
PTS 1956, next:5502903 invalid dropping st:0
DTS 1979, next:5526122 st:0 invalid dropping
PTS 1979, next:5526122 invalid dropping st:0
DTS 2002, next:5549341 st:0 invalid dropping
PTS 2002, next:5549341 invalid dropping st:0
DTS 2025, next:5572560 st:0 invalid dropping
PTS 2025, next:5572560 invalid dropping st:0
DTS 2048, next:5595779 st:0 invalid dropping
PTS 2048, next:5595779 invalid dropping st:0
DTS 2071, next:5618998 st:0 invalid dropping
PTS 2071, next:5618998 invalid dropping st:0
DTS 2094, next:5642217 st:0 invalid dropping
PTS 2094, next:5642217 invalid dropping st:0
DTS 2117, next:5665436 st:0 invalid dropping
PTS 2117, next:5665436 invalid dropping st:0
DTS 2140, next:5688655 st:0 invalid dropping
PTS 2140, next:5688655 invalid dropping st:0
DTS 2163, next:5711874 st:0 invalid dropping
PTS 2163, next:5711874 invalid dropping st:0
DTS 2186, next:5735093 st:0 invalid dropping
PTS 2186, next:5735093 invalid dropping st:0
DTS 2209, next:5758312 st:0 invalid dropping
PTS 2209, next:5758312 invalid dropping st:0
DTS 2232, next:5781531 st:0 invalid dropping
PTS 2232, next:5781531 invalid dropping st:0
DTS 2255, next:5804750 st:0 invalid dropping
PTS 2255, next:5804750 invalid dropping st:0
DTS 2278, next:5827969 st:0 invalid dropping
PTS 2278, next:5827969 invalid dropping st:0
DTS 2301, next:5851188 st:0 invalid dropping
PTS 2301, next:5851188 invalid dropping st:0
DTS 2324, next:5874407 st:0 invalid dropping
PTS 2324, next:5874407 invalid dropping st:0
DTS 2347, next:5897626 st:0 invalid dropping
PTS 2347, next:5897626 invalid dropping st:0
DTS 2370, next:5920845 st:0 invalid dropping
PTS 2370, next:5920845 invalid dropping st:0
DTS 2393, next:5944064 st:0 invalid dropping
PTS 2393, next:5944064 invalid dropping st:0
DTS 2416, next:5967283 st:0 invalid dropping
PTS 2416, next:5967283 invalid dropping st:0
DTS 2439, next:5990502 st:0 invalid dropping
PTS 2439, next:5990502 invalid dropping st:0
DTS 2462, next:6013721 st:0 invalid dropping
PTS 2462, next:6013721 invalid dropping st:0
DTS 2485, next:6036940 st:0 invalid dropping
PTS 2485, next:6036940 invalid dropping st:0
DTS 2527, next:6060159 st:0 invalid dropping
PTS 2527, next:6060159 invalid dropping st:0
DTS 2550, next:6083378 st:0 invalid dropping
PTS 2550, next:6083378 invalid dropping st:0
DTS 2573, next:6106597 st:0 invalid dropping
PTS 2573, next:6106597 invalid dropping st:0
DTS 2596, next:6129816 st:0 invalid dropping
PTS 2596, next:6129816 invalid dropping st:0
DTS 2619, next:6153035 st:0 invalid dropping
PTS 2619, next:6153035 invalid dropping st:0
DTS 2642, next:6176254 st:0 invalid dropping
PTS 2642, next:6176254 invalid dropping st:0
DTS 2665, next:6199473 st:0 invalid dropping
PTS 2665, next:6199473 invalid dropping st:0
DTS 2688, next:6222692 st:0 invalid dropping
PTS 2688, next:6222692 invalid dropping st:0
DTS 2711, next:6245911 st:0 invalid dropping
PTS 2711, next:6245911 invalid dropping st:0
DTS 2734, next:6269130 st:0 invalid dropping
PTS 2734, next:6269130 invalid dropping st:0
DTS 2757, next:6292349 st:0 invalid dropping
PTS 2757, next:6292349 invalid dropping st:0
DTS 2780, next:6315568 st:0 invalid dropping
PTS 2780, next:6315568 invalid dropping st:0
DTS 2803, next:6338787 st:0 invalid dropping
PTS 2803, next:6338787 invalid dropping st:0
DTS 2826, next:6362006 st:0 invalid dropping
PTS 2826, next:6362006 invalid dropping st:0
DTS 2849, next:6385225 st:0 invalid dropping
PTS 2849, next:6385225 invalid dropping st:0
DTS 2872, next:6408444 st:0 invalid dropping
PTS 2872, next:6408444 invalid dropping st:0
DTS 2895, next:6431663 st:0 invalid dropping
PTS 2895, next:6431663 invalid dropping st:0
DTS 2918, next:6454882 st:0 invalid dropping
PTS 2918, next:6454882 invalid dropping st:0
DTS 2941, next:6478101 st:0 invalid dropping
PTS 2941, next:6478101 invalid dropping st:0
DTS 2964, next:6501320 st:0 invalid dropping
PTS 2964, next:6501320 invalid dropping st:0
DTS 2987, next:6524539 st:0 invalid dropping
PTS 2987, next:6524539 invalid dropping st:0
DTS 3010, next:6547758 st:0 invalid dropping
PTS 3010, next:6547758 invalid dropping st:0
DTS 3033, next:6570977 st:0 invalid dropping
PTS 3033, next:6570977 invalid dropping st:0
DTS 3056, next:6594196 st:0 invalid dropping
PTS 3056, next:6594196 invalid dropping st:0
DTS 3079, next:6617415 st:0 invalid dropping
PTS 3079, next:6617415 invalid dropping st:0
DTS 3102, next:6640634 st:0 invalid dropping
PTS 3102, next:6640634 invalid dropping st:0
DTS 3125, next:6663853 st:0 invalid dropping
PTS 3125, next:6663853 invalid dropping st:0
DTS 3148, next:6687072 st:0 invalid dropping
PTS 3148, next:6687072 invalid dropping st:0
DTS 3171, next:6710291 st:0 invalid dropping
PTS 3171, next:6710291 invalid dropping st:0
DTS 3194, next:6733510 st:0 invalid dropping
PTS 3194, next:6733510 invalid dropping st:0
DTS 3217, next:6756729 st:0 invalid dropping
PTS 3217, next:6756729 invalid dropping st:0
DTS 3240, next:6779948 st:0 invalid dropping
PTS 3240, next:6779948 invalid dropping st:0
DTS 3263, next:6803167 st:0 invalid dropping
PTS 3263, next:6803167 invalid dropping st:0
DTS 3286, next:6826386 st:0 invalid dropping
PTS 3286, next:6826386 invalid dropping st:0
DTS 3309, next:6849605 st:0 invalid dropping
PTS 3309, next:6849605 invalid dropping st:0
DTS 3332, next:6872824 st:0 invalid dropping
PTS 3332, next:6872824 invalid dropping st:0
DTS 3355, next:6896043 st:0 invalid dropping
PTS 3355, next:6896043 invalid dropping st:0
DTS 3378, next:6919262 st:0 invalid dropping
PTS 3378, next:6919262 invalid dropping st:0
DTS 3401, next:6942481 st:0 invalid dropping
PTS 3401, next:6942481 invalid dropping st:0
DTS 3424, next:6965700 st:0 invalid dropping
PTS 3424, next:6965700 invalid dropping st:0
DTS 3447, next:6988919 st:0 invalid dropping
PTS 3447, next:6988919 invalid dropping st:0
DTS 3470, next:7012138 st:0 invalid dropping
PTS 3470, next:7012138 invalid dropping st:0
DTS 3493, next:7035357 st:0 invalid dropping
PTS 3493, next:7035357 invalid dropping st:0
DTS 3516, next:7058576 st:0 invalid dropping
PTS 3516, next:7058576 invalid dropping st:0
DTS 3539, next:7081795 st:0 invalid dropping
PTS 3539, next:7081795 invalid dropping st:0
DTS 3562, next:7105014 st:0 invalid dropping
PTS 3562, next:7105014 invalid dropping st:0
DTS 3585, next:7128233 st:0 invalid dropping
PTS 3585, next:7128233 invalid dropping st:0
DTS 3608, next:7151452 st:0 invalid dropping
PTS 3608, next:7151452 invalid dropping st:0
DTS 3631, next:7174671 st:0 invalid dropping
PTS 3631, next:7174671 invalid dropping st:0
DTS 3654, next:7197890 st:0 invalid dropping
PTS 3654, next:7197890 invalid dropping st:0
DTS 3677, next:7221109 st:0 invalid dropping
PTS 3677, next:7221109 invalid dropping st:0
DTS 3700, next:7244328 st:0 invalid dropping
PTS 3700, next:7244328 invalid dropping st:0
DTS 3723, next:7267547 st:0 invalid dropping
PTS 3723, next:7267547 invalid dropping st:0
DTS 3746, next:7290766 st:0 invalid dropping
PTS 3746, next:7290766 invalid dropping st:0
DTS 3769, next:7313985 st:0 invalid dropping
PTS 3769, next:7313985 invalid dropping st:0
DTS 3792, next:7337204 st:0 invalid dropping
PTS 3792, next:7337204 invalid dropping st:0
DTS 3815, next:7360423 st:0 invalid dropping
PTS 3815, next:7360423 invalid dropping st:0
DTS 3838, next:7383642 st:0 invalid dropping
PTS 3838, next:7383642 invalid dropping st:0
DTS 3861, next:7406861 st:0 invalid dropping
PTS 3861, next:7406861 invalid dropping st:0
DTS 3884, next:7430080 st:0 invalid dropping
PTS 3884, next:7430080 invalid dropping st:0
DTS 3907, next:7453299 st:0 invalid dropping
PTS 3907, next:7453299 invalid dropping st:0
DTS 3930, next:7476518 st:0 invalid dropping
PTS 3930, next:7476518 invalid dropping st:0
DTS 3953, next:7499737 st:0 invalid dropping
PTS 3953, next:7499737 invalid dropping st:0
DTS 3976, next:7522956 st:0 invalid dropping
PTS 3976, next:7522956 invalid dropping st:0
DTS 3999, next:7546175 st:0 invalid dropping
PTS 3999, next:7546175 invalid dropping st:0
DTS 4022, next:7569394 st:0 invalid dropping
PTS 4022, next:7569394 invalid dropping st:0
DTS 4045, next:7592613 st:0 invalid dropping
PTS 4045, next:7592613 invalid dropping st:0
DTS 4068, next:7615832 st:0 invalid dropping
PTS 4068, next:7615832 invalid dropping st:0
DTS 4091, next:7639051 st:0 invalid dropping
PTS 4091, next:7639051 invalid dropping st:0
DTS 4114, next:7662270 st:0 invalid dropping
PTS 4114, next:7662270 invalid dropping st:0
DTS 4137, next:7685489 st:0 invalid dropping
PTS 4137, next:7685489 invalid dropping st:0
DTS 4160, next:7708708 st:0 invalid dropping
PTS 4160, next:7708708 invalid dropping st:0
DTS 4183, next:7731927 st:0 invalid dropping
PTS 4183, next:7731927 invalid dropping st:0
DTS 4206, next:7755146 st:0 invalid dropping
PTS 4206, next:7755146 invalid dropping st:0
DTS 4229, next:7778365 st:0 invalid dropping
PTS 4229, next:7778365 invalid dropping st:0
DTS 4252, next:7801584 st:0 invalid dropping
PTS 4252, next:7801584 invalid dropping st:0
DTS 4275, next:7824803 st:0 invalid dropping
PTS 4275, next:7824803 invalid dropping st:0
DTS 4298, next:7848022 st:0 invalid dropping
PTS 4298, next:7848022 invalid dropping st:0
DTS 4321, next:7871241 st:0 invalid dropping
PTS 4321, next:7871241 invalid dropping st:0
DTS 4344, next:7894460 st:0 invalid dropping
PTS 4344, next:7894460 invalid dropping st:0
DTS 4367, next:7917679 st:0 invalid dropping
PTS 4367, next:7917679 invalid dropping st:0
DTS 4390, next:7940898 st:0 invalid dropping
PTS 4390, next:7940898 invalid dropping st:0
DTS 4413, next:7964117 st:0 invalid dropping
PTS 4413, next:7964117 invalid dropping st:0
DTS 4436, next:7987336 st:0 invalid dropping
PTS 4436, next:7987336 invalid dropping st:0
DTS 4459, next:8010555 st:0 invalid dropping
PTS 4459, next:8010555 invalid dropping st:0
DTS 4482, next:8033774 st:0 invalid dropping
PTS 4482, next:8033774 invalid dropping st:0
DTS 4505, next:8056993 st:0 invalid dropping
PTS 4505, next:8056993 invalid dropping st:0
DTS 4528, next:8080212 st:0 invalid dropping
PTS 4528, next:8080212 invalid dropping st:0
DTS 4571, next:8103431 st:0 invalid dropping
PTS 4571, next:8103431 invalid dropping st:0
DTS 4594, next:8126650 st:0 invalid dropping
PTS 4594, next:8126650 invalid dropping st:0
DTS 4617, next:8149869 st:0 invalid dropping
PTS 4617, next:8149869 invalid dropping st:0
DTS 4640, next:8173088 st:0 invalid dropping
PTS 4640, next:8173088 invalid dropping st:0
DTS 4663, next:8196307 st:0 invalid dropping
PTS 4663, next:8196307 invalid dropping st:0
DTS 4686, next:8219526 st:0 invalid dropping
PTS 4686, next:8219526 invalid dropping st:0
DTS 4709, next:8242745 st:0 invalid dropping
PTS 4709, next:8242745 invalid dropping st:0
DTS 4732, next:8265964 st:0 invalid dropping
PTS 4732, next:8265964 invalid dropping st:0
DTS 4755, next:8289183 st:0 invalid dropping
PTS 4755, next:8289183 invalid dropping st:0
DTS 4778, next:8312402 st:0 invalid dropping
PTS 4778, next:8312402 invalid dropping st:0
DTS 4801, next:8335621 st:0 invalid dropping
PTS 4801, next:8335621 invalid dropping st:0
DTS 4824, next:8358840 st:0 invalid dropping
PTS 4824, next:8358840 invalid dropping st:0
DTS 4847, next:8382059 st:0 invalid dropping
PTS 4847, next:8382059 invalid dropping st:0
DTS 4870, next:8405278 st:0 invalid dropping
PTS 4870, next:8405278 invalid dropping st:0
DTS 4893, next:8428497 st:0 invalid dropping
PTS 4893, next:8428497 invalid dropping st:0
DTS 4916, next:8451716 st:0 invalid dropping
PTS 4916, next:8451716 invalid dropping st:0
DTS 4939, next:8474935 st:0 invalid dropping
PTS 4939, next:8474935 invalid dropping st:0
DTS 4962, next:8498154 st:0 invalid dropping
PTS 4962, next:8498154 invalid dropping st:0
DTS 4985, next:8521373 st:0 invalid dropping
PTS 4985, next:8521373 invalid dropping st:0
DTS 5008, next:8544592 st:0 invalid dropping
PTS 5008, next:8544592 invalid dropping st:0
DTS 5031, next:8567811 st:0 invalid dropping
PTS 5031, next:8567811 invalid dropping st:0
DTS 5054, next:8591030 st:0 invalid dropping
PTS 5054, next:8591030 invalid dropping st:0
DTS 5077, next:8614249 st:0 invalid dropping
PTS 5077, next:8614249 invalid dropping st:0
DTS 5100, next:8637468 st:0 invalid dropping
PTS 5100, next:8637468 invalid dropping st:0
DTS 5123, next:8660687 st:0 invalid dropping
PTS 5123, next:8660687 invalid dropping st:0
DTS 5146, next:8683906 st:0 invalid dropping
PTS 5146, next:8683906 invalid dropping st:0
DTS 5169, next:8707125 st:0 invalid dropping
PTS 5169, next:8707125 invalid dropping st:0
DTS 5192, next:8730344 st:0 invalid dropping
PTS 5192, next:8730344 invalid dropping st:0
DTS 5215, next:8753563 st:0 invalid dropping
PTS 5215, next:8753563 invalid dropping st:0
DTS 5238, next:8776782 st:0 invalid dropping
PTS 5238, next:8776782 invalid dropping st:0
DTS 5261, next:8800001 st:0 invalid dropping
PTS 5261, next:8800001 invalid dropping st:0
DTS 5284, next:8823220 st:0 invalid dropping
PTS 5284, next:8823220 invalid dropping st:0
DTS 5307, next:8846439 st:0 invalid dropping
PTS 5307, next:8846439 invalid dropping st:0
DTS 5330, next:8869658 st:0 invalid dropping
PTS 5330, next:8869658 invalid dropping st:0
DTS 5353, next:8892877 st:0 invalid dropping
PTS 5353, next:8892877 invalid dropping st:0
DTS 5376, next:8916096 st:0 invalid dropping
PTS 5376, next:8916096 invalid dropping st:0
DTS 5399, next:8939315 st:0 invalid dropping
PTS 5399, next:8939315 invalid dropping st:0
DTS 5422, next:8962534 st:0 invalid dropping
PTS 5422, next:8962534 invalid dropping st:0
DTS 5445, next:8985753 st:0 invalid dropping
PTS 5445, next:8985753 invalid dropping st:0
DTS 5468, next:9008972 st:0 invalid dropping
PTS 5468, next:9008972 invalid dropping st:0
DTS 5491, next:9032191 st:0 invalid dropping
PTS 5491, next:9032191 invalid dropping st:0
DTS 5514, next:9055410 st:0 invalid dropping
PTS 5514, next:9055410 invalid dropping st:0
DTS 5537, next:9078629 st:0 invalid dropping
PTS 5537, next:9078629 invalid dropping st:0
DTS 5560, next:9101848 st:0 invalid dropping
PTS 5560, next:9101848 invalid dropping st:0
DTS 5583, next:9125067 st:0 invalid dropping
PTS 5583, next:9125067 invalid dropping st:0
DTS 5606, next:9148286 st:0 invalid dropping
PTS 5606, next:9148286 invalid dropping st:0
DTS 5629, next:9171505 st:0 invalid dropping
PTS 5629, next:9171505 invalid dropping st:0
DTS 5652, next:9194724 st:0 invalid dropping
PTS 5652, next:9194724 invalid dropping st:0
DTS 5675, next:9217943 st:0 invalid dropping
PTS 5675, next:9217943 invalid dropping st:0
DTS 5698, next:9241162 st:0 invalid dropping
PTS 5698, next:9241162 invalid dropping st:0
DTS 5721, next:9264381 st:0 invalid dropping
PTS 5721, next:9264381 invalid dropping st:0
DTS 5744, next:9287600 st:0 invalid dropping
PTS 5744, next:9287600 invalid dropping st:0
DTS 5767, next:9310819 st:0 invalid dropping
PTS 5767, next:9310819 invalid dropping st:0
DTS 5790, next:9334038 st:0 invalid dropping
PTS 5790, next:9334038 invalid dropping st:0
DTS 5813, next:9357257 st:0 invalid dropping
PTS 5813, next:9357257 invalid dropping st:0
DTS 5836, next:9380476 st:0 invalid dropping
PTS 5836, next:9380476 invalid dropping st:0
DTS 5859, next:9403695 st:0 invalid dropping
PTS 5859, next:9403695 invalid dropping st:0
DTS 5882, next:9426914 st:0 invalid dropping
PTS 5882, next:9426914 invalid dropping st:0
DTS 5905, next:9450133 st:0 invalid dropping
PTS 5905, next:9450133 invalid dropping st:0
DTS 5928, next:9473352 st:0 invalid dropping
PTS 5928, next:9473352 invalid dropping st:0
DTS 5951, next:9496571 st:0 invalid dropping
PTS 5951, next:9496571 invalid dropping st:0
DTS 5974, next:9519790 st:0 invalid dropping
PTS 5974, next:9519790 invalid dropping st:0
DTS 5997, next:9543009 st:0 invalid dropping
PTS 5997, next:9543009 invalid dropping st:0
DTS 6020, next:9566228 st:0 invalid dropping
PTS 6020, next:9566228 invalid dropping st:0
DTS 6043, next:9589447 st:0 invalid dropping
PTS 6043, next:9589447 invalid dropping st:0
DTS 6066, next:9612666 st:0 invalid dropping
PTS 6066, next:9612666 invalid dropping st:0
DTS 6089, next:9635885 st:0 invalid dropping
PTS 6089, next:9635885 invalid dropping st:0
DTS 6112, next:9659104 st:0 invalid dropping
PTS 6112, next:9659104 invalid dropping st:0
DTS 6135, next:9682323 st:0 invalid dropping
PTS 6135, next:9682323 invalid dropping st:0
DTS 6158, next:9705542 st:0 invalid dropping
PTS 6158, next:9705542 invalid dropping st:0
DTS 6181, next:9728761 st:0 invalid dropping
PTS 6181, next:9728761 invalid dropping st:0
DTS 6204, next:9751980 st:0 invalid dropping
PTS 6204, next:9751980 invalid dropping st:0
DTS 6227, next:9775199 st:0 invalid dropping
PTS 6227, next:9775199 invalid dropping st:0
DTS 6250, next:9798418 st:0 invalid dropping
PTS 6250, next:9798418 invalid dropping st:0
DTS 6273, next:9821637 st:0 invalid dropping
PTS 6273, next:9821637 invalid dropping st:0
DTS 6296, next:9844856 st:0 invalid dropping
PTS 6296, next:9844856 invalid dropping st:0
DTS 6319, next:9868075 st:0 invalid dropping
PTS 6319, next:9868075 invalid dropping st:0
DTS 6342, next:9891294 st:0 invalid dropping
PTS 6342, next:9891294 invalid dropping st:0
DTS 6365, next:9914513 st:0 invalid dropping
PTS 6365, next:9914513 invalid dropping st:0
DTS 6388, next:9937732 st:0 invalid dropping
PTS 6388, next:9937732 invalid dropping st:0
DTS 6411, next:9960951 st:0 invalid dropping
PTS 6411, next:9960951 invalid dropping st:0
DTS 6434, next:9984170 st:0 invalid dropping
PTS 6434, next:9984170 invalid dropping st:0
DTS 6457, next:10007389 st:0 invalid dropping
PTS 6457, next:10007389 invalid dropping st:0
size=     216kB time=00:00:10.00 bitrate= 176.4kbits/s
video:0kB audio:216kB subtitle:0 global headers:0kB muxing overhead 0.020845%
Version 0, edited 4 years ago by Abu Abdullah (next)

Changed 4 years ago by Abu Abdullah

Changed 4 years ago by cehoyos

comment:7 Changed 4 years ago by cehoyos

I have attached the result of above command for 9b1f776. Does it sound correct?

comment:8 Changed 4 years ago by Abu Abdullah

no, it has the same result. There is around 2 seconds from the beginning of the file.

There is very little difference, in version 9b1f776, the unwanted portion start from offset 0 but for the latest version it is just a fraction after the beginning of the file i.e.
9b1f776: 0 -> 2 then seeking point
gf857465: 0.x -> 2 then seeking point

comment:9 Changed 4 years ago by cehoyos

  • Reproduced by developer set
  • Status changed from new to open

comment:10 Changed 4 years ago by Abu Abdullah

Please check as well the seeking point itself, it seems it is shifted by the same amount i.e.

0 -> 2 then (seeking point+2)

comment:11 Changed 3 years ago by cehoyos

Ticket #2232 contains a test-case that is easier to reproduce:

$ ffmpeg -ss 24 -i \[CCCP\]_Mega_Weird_Audio_Test.mkv -map 0:26 out.wav
ffmpeg version N-49553-g13eb9fc Copyright (c) 2000-2013 the FFmpeg developers
  built on Feb  3 2013 14:58:47 with gcc 4.7 (SUSE Linux)
  configuration: --enable-gpl --disable-indev=jack
  libavutil      52. 17.100 / 52. 17.100
  libavcodec     54. 91.100 / 54. 91.100
  libavformat    54. 61.104 / 54. 61.104
  libavdevice    54.  3.103 / 54.  3.103
  libavfilter     3. 35.100 /  3. 35.100
  libswscale      2.  2.100 /  2.  2.100
  libswresample   0. 17.102 /  0. 17.102
  libpostproc    52.  2.100 / 52.  2.100
[wmalossless @ 0x361dda0] Bit-depth higher than 16 is not implemented. Update your FFmpeg version to the newest one from Git. If the problem still occurs, it means that your file has a feature which has not been implemented.
[wmalossless @ 0x36242c0] Bit-depth higher than 16 is not implemented. Update your FFmpeg version to the newest one from Git. If the problem still occurs, it means that your file has a feature which has not been implemented.
[mpeg4 @ 0x3584dc0] Invalid and inefficient vfw-avi packed B frames detected
[wmalossless @ 0x361dda0] Bit-depth higher than 16 is not implemented. Update your FFmpeg version to the newest one from Git. If the problem still occurs, it means that your file has a feature which has not been implemented.
[wmalossless @ 0x36242c0] Bit-depth higher than 16 is not implemented. Update your FFmpeg version to the newest one from Git. If the problem still occurs, it means that your file has a feature which has not been implemented.
Guessed Channel Layout for  Input Stream #0.6 : stereo
Guessed Channel Layout for  Input Stream #0.7 : stereo
Guessed Channel Layout for  Input Stream #0.8 : mono
Guessed Channel Layout for  Input Stream #0.10 : stereo
Guessed Channel Layout for  Input Stream #0.11 : stereo
Guessed Channel Layout for  Input Stream #0.14 : stereo
Guessed Channel Layout for  Input Stream #0.15 : stereo
Guessed Channel Layout for  Input Stream #0.17 : stereo
Guessed Channel Layout for  Input Stream #0.22 : 5.1
Guessed Channel Layout for  Input Stream #0.23 : stereo
Guessed Channel Layout for  Input Stream #0.25 : stereo
Input #0, matroska,webm, from '[CCCP]_Mega_Weird_Audio_Test.mkv':
  Metadata:
    title           : Macross Plus - First Simulator Test
    creation_time   : 2006-08-07 03:59:51
  Duration: 00:01:03.71, start: 0.000000, bitrate: 6167 kb/s
    Stream #0:0(eng): Video: mpeg4 (Advanced Simple Profile) (XVID / 0x44495658), yuv420p, 656x464 [SAR 1:1 DAR 41:29], SAR 116:123 DAR 4:3, 23.98 fps, 23.98 tbr, 1k tbn, 23.98 tbc (default)
    Metadata:
      title           : Macross Plus - First Simulator Test
    Stream #0:1(eng): Audio: ac3, 48000 Hz, 5.1(side), fltp, 448 kb/s (default)
    Metadata:
      title           : AC3 6ch Audio
    Stream #0:2(jpn): Audio: ac3, 48000 Hz, stereo, fltp, 192 kb/s
    Metadata:
      title           : AC3 2ch Audio
    Stream #0:3(eng): Audio: mp3, 48000 Hz, stereo, s16p, 192 kb/s
    Metadata:
      title           : AudX HGHQ 6ch Audio
    Stream #0:4(eng): Audio: mp3, 48000 Hz, mono, s16p, 192 kb/s
    Metadata:
      title           : AudX SPBQ 6ch Audio
    Stream #0:5(jpn): Audio: sipr (0[1][0][0] / 0x0130), 16000 Hz, mono, flt, 16 kb/s
    Metadata:
      title           : ACELP Sipro Mono Audio
    Stream #0:6(jpn): Audio: adpcm_ms ([2][0][0][0] / 0x0002), 11025 Hz, stereo, s16, 88 kb/s
    Metadata:
      title           : MS ADPCM 2ch Audio
    Stream #0:7(jpn): Audio: adpcm_ima_wav ([17][0][0][0] / 0x0011), 11025 Hz, stereo, s16p, 88 kb/s
    Metadata:
      title           : IMA ADPCM 2ch Audio
    Stream #0:8(jpn): Audio: adpcm_yamaha ( [0][0][0] / 0x0020), 16000 Hz, mono, s16, 64 kb/s
    Metadata:
      title           : Yamaha ADPCM Mono Audio
    Stream #0:9(jpn): Audio: adpcm_g726 (E[0][0][0] / 0x0045), 8000 Hz, mono, s16, 32 kb/s
    Metadata:
      title           : G.726 ADPCM Mono Audio
    Stream #0:10(jpn): Audio: pcm_mulaw ([7][0][0][0] / 0x0007), 8000 Hz, stereo, s16, 128 kb/s
    Metadata:
      title           : μ-Law 2ch Audio
    Stream #0:11(jpn): Audio: pcm_alaw ([6][0][0][0] / 0x0006), 8000 Hz, stereo, s16, 128 kb/s
    Metadata:
      title           : A-Law 2ch Audio
    Stream #0:12(jpn): Audio: gsm_ms (1[0][0][0] / 0x0031), 44100 Hz, mono, s16, 71 kb/s
    Metadata:
      title           : GSM 6.10 Mono Audio
    Stream #0:13(jpn): Audio: truespeech ([34][0][0][0] / 0x0022), 8000 Hz, mono, s16, 8 kb/s
    Metadata:
      title           : TrueSpeech Mono Audio
    Stream #0:14(jpn): Audio: wmav2 (a[1][0][0] / 0x0161), 44100 Hz, stereo, fltp, 64 kb/s
    Metadata:
      title           : WMA7 2ch Audio
    Stream #0:15(jpn): Audio: wmav2 (a[1][0][0] / 0x0161), 44100 Hz, stereo, fltp, 64 kb/s
    Metadata:
      title           : WMA8 2ch Audio
    Stream #0:16(jpn): Audio: wmavoice ([10][0][0][0] / 0x000A), 22050 Hz, mono, flt, 20 kb/s
    Metadata:
      title           : WMA9 Voice Mono Audio
    Stream #0:17(jpn): Audio: wmav2 (a[1][0][0] / 0x0161), 48000 Hz, stereo, fltp, 64 kb/s
    Metadata:
      title           : WMA9.2 Std 2ch Audio
    Stream #0:18(eng): Audio: wmapro (b[1][0][0] / 0x0162), 48000 Hz, 5.1, fltp, 192 kb/s
    Metadata:
      title           : WMA9.1 Pro 6ch Audio
    Stream #0:19(jpn): Audio: wmapro (b[1][0][0] / 0x0162), 48000 Hz, stereo, fltp, 80 kb/s
    Metadata:
      title           : WMA9.1 Pro 2ch Audio
    Stream #0:20(eng): Audio: wmapro (b[1][0][0] / 0x0162), 48000 Hz, 5.1, fltp, 192 kb/s
    Metadata:
      title           : WMA10 Pro 6ch Audio
    Stream #0:21(jpn): Audio: wmapro (b[1][0][0] / 0x0162), 48000 Hz, stereo, fltp, 64 kb/s
    Metadata:
      title           : WMA10 Pro 2ch Audio
    Stream #0:22(eng): Audio: wmalossless (c[1][0][0] / 0x0163), 48000 Hz, 5.1, s32p, 1882 kb/s
    Metadata:
      title           : WMA9.1 Lossless 6ch Audio
    Stream #0:23(jpn): Audio: wmalossless (c[1][0][0] / 0x0163), 48000 Hz, stereo, s32p, 774 kb/s
    Metadata:
      title           : WMA9.1 Lossless 2ch Audio
    Stream #0:24(jpn): Audio: cook, 44100 Hz, stereo, fltp
    Metadata:
      title           : RA6 G2 Cook 2ch Audio
    Stream #0:25(jpn): Audio: atrac3, 44100 Hz, stereo, fltp
    Metadata:
      title           : RA8 ATRC 2ch Audio
    Stream #0:26(eng): Audio: cook, 44100 Hz, 5.1, fltp
    Metadata:
      title           : RA8 Cook 6ch Audio
    Stream #0:27(jpn): Audio: cook, 44100 Hz, stereo, fltp
    Metadata:
      title           : RA8 Cook 2ch Audio
    Stream #0:28(jpn): Audio: cook, 44100 Hz, mono, fltp
    Metadata:
      title           : RA8 Cook Mono Audio
    Stream #0:29(jpn): Audio: aac, 32000 Hz, stereo, fltp
    Metadata:
      title           : RA10 RAAC 2ch Audio
    Stream #0:30(jpn): Audio: aac, 44100 Hz, stereo, fltp
    Metadata:
      title           : RA10 RACP 2ch Audio
Output #0, wav, to 'out.wav':
  Metadata:
    INAM            : Macross Plus - First Simulator Test
    ISFT            : Lavf54.61.104
    Stream #0:0(eng): Audio: pcm_s16le ([1][0][0][0] / 0x0001), 44100 Hz, 5.1, s16, 4233 kb/s
    Metadata:
      title           : RA8 Cook 6ch Audio
Stream mapping:
  Stream #0:26 -> #0:0 (cook -> pcm_s16le)
Press [q] to stop, [?] for help
[matroska,webm @ 0x3580fc0] File is broken, keyframes not correctly marked!
size=   20616kB time=00:00:37.50 bitrate=4503.3kbits/s
video:0kB audio:20616kB subtitle:0 global headers:0kB muxing overhead 0.000692%

comment:12 Changed 3 years ago by michael

  • Resolution set to fixed
  • Status changed from open to closed

comment:13 Changed 3 years ago by Abu Abdullah

It is working fine now but it gives very tiny ring (or echo) at the beginning.

Last edited 3 years ago by Abu Abdullah (previous) (diff)
Note: See TracTickets for help on using tickets.