Changes between Initial Version and Version 1 of Ticket #1541, comment 4


Ignore:
Timestamp:
Jul 18, 2012, 2:20:18 PM (4 years ago)
Author:
cehoyos
Comment:

Legend:

Unmodified
Added
Removed
Modified
  • Ticket #1541, comment 4

    initial v1  
    11I tried ffplay on linux PC. It works 
    2  
     2{{{ 
    33ffplay ~/Videos/20051210-w50s.flv  
    44ffplay version 0.8.12, Copyright (c) 2003-2011 the FFmpeg developers 
     
    3030    Stream #0.0: Video: vp6f, yuv420p, 360x288, 266 kb/s, 25 tbr, 1k tbn, 1k tbc 
    3131    Stream #0.1: Audio: mp3, 22050 Hz, stereo, s16, 40 kb/s 
     32}}}