Changes between Initial Version and Version 1 of Ticket #1464, comment 36


Ignore:
Timestamp:
Jul 4, 2012, 12:54:20 PM (4 years ago)
Author:
cehoyos
Comment:

Legend:

Unmodified
Added
Removed
Modified
  • Ticket #1464, comment 36

    initial v1  
    11Still fails: 
    2  
     2{{{ 
    33tadawson @ netier3 /Images/AVCHD <266>: /usr/local/ffmpeg-GIT/bin/ffplay -an > 
    44ffplay version N-42169-g6ea973f Copyright (c) 2003-2012 the FFmpeg developers 
     
    4949    Stream #0:0[0x1011]: Video: h264 (High) (HDMV / 0x564D4448), yuv420p, 1440x1080 [SAR 4:3 DAR 16:9], 59.96 fps, 59.94 tbr, 90k tbn, 59.94 tbc 
    5050    Stream #0:1[0x1100]: Audio: ac3 (AC[45]3 / 0x332D4341), 48000 Hz, stereo, s16, 256 kb/s 
     51}}}