Changes between Initial Version and Version 1 of Ticket #1435


Ignore:
Timestamp:
Jun 10, 2012, 8:39:52 PM (8 years ago)
Author:
cehoyos
Comment:

Is this also reproducible with current git head? Why do you use -async 1?

Do you believe this is a regression? (=Did it work with older versions of FFmpeg?)

Legend:

Unmodified
Added
Removed
Modified
  • Ticket #1435

    • Property Keywords desync added; synchronisation bug removed
    • Property Priority changed from critical to normal
  • Ticket #1435 – Description

    initial v1  
    3434
    3535Details:
    36 
    37 C:\Documents and Settings\Angel\Mes documents\Downloads>
    38 C:\Documents and Settings\Angel\Mes documents\Downloads>ffmpeg -v 9 -loglevel 99 -i "2012-03 03Praha.mp4" -async 1 -acodec
    39 copy -vcodec mpeg4 -q 20 out_mpeg4AVI.avi
     36{{{
     37C:\Documents and Settings\Angel\Mes documents\Downloads>ffmpeg -v 9 -loglevel 99 -i "2012-03 03Praha.mp4" -async 1 -acodec copy -vcodec mpeg4 -q 20 out_mpeg4AVI.avi
    4038ffmpeg version N-41416-g718607b Copyright (c) 2000-2012 the FFmpeg developers
    4139  built on Jun  8 2012 12:46:19 with gcc 4.6.3
    42   configuration: --enable-gpl --enable-version3 --disable-w32threads --enable-runtime-cpudetect --enable-avisynth --enable-
    43 bzlib --enable-frei0r --enable-libass --enable-libcelt --enable-libopencore-amrnb --enable-libopencore-amrwb --enable-libfr
    44 eetype --enable-libgsm --enable-libmp3lame --enable-libnut --enable-libopenjpeg --enable-librtmp --enable-libschroedinger -
    45 -enable-libspeex --enable-libtheora --enable-libutvideo --enable-libvo-aacenc --enable-libvo-amrwbenc --enable-libvorbis --
    46 enable-libvpx --ena  libavutil      51. 56.100 / 51. 56.100
     40  configuration: --enable-gpl --enable-version3 --disable-w32threads --enable-runtime-cpudetect --enable-avisynth --enable-bzlib --enable-frei0r --enable-libass --enable-libcelt --enable-libopencore-amrnb --enable-libopencore-amrwb --enable-libfreetype --enable-libgsm --enable-libmp3lame --enable-libnut --enable-libopenjpeg --enable-librtmp --enable-libschroedinger --enable-libspeex --enable-libtheora --enable-libutvideo --enable-libvo-aacenc --enable-libvo-amrwbenc --enable-libvorbis --enable-libvpx --ena
     41  libavutil      51. 56.100 / 51. 56.100
    4742  libavcodec     54. 25.100 / 54. 25.100
    4843  libavformat    54.  6.101 / 54.  6.101
     
    6459    creation_time   : 2012-03-29 21:13:18
    6560  Duration: 00:00:49.04, start: 0.000000, bitrate: 8933 kb/s
    66     Stream #0:0(und), 15, 1/30000: Video: mpeg4 (Advanced Coding Profile) (mp4v / 0x7634706D), yuv420p, 1280x720 [SAR 1:1 D
    67 AR 16:9], 1/30000, 8866 kb/s, 29.97 fps, 29.97 tbr, 30k tbn, 30k tbc
     61    Stream #0:0(und), 15, 1/30000: Video: mpeg4 (Advanced Coding Profile) (mp4v / 0x7634706D), yuv420p, 1280x720 [SAR 1:1 DAR 16:9], 1/30000, 8866 kb/s, 29.97 fps, 29.97 tbr, 30k tbn, 30k tbc
    6862    Metadata:
    6963      creation_time   : 2012-03-29 21:13:18
     
    8579    creation_time   : 2012-03-29 21:13:18
    8680    ISFT            : Lavf54.6.101
    87     Stream #0:0(und), 0, 1001/30000: Video: mpeg4 (FMP4 / 0x34504D46), yuv420p, 1280x720 [SAR 1:1 DAR 16:9], 1001/30000, q=
    88 2-31, 200 kb/s, 29.97 tbn, 29.97 tbc
     81    Stream #0:0(und), 0, 1001/30000: Video: mpeg4 (FMP4 / 0x34504D46), yuv420p, 1280x720 [SAR 1:1 DAR 16:9], 1001/30000, q=2-31, 200 kb/s, 29.97 tbn, 29.97 tbc
    8982    Metadata:
    9083      creation_time   : 2012-03-29 21:13:18
     
    10295
    10396C:\Documents and Settings\Angel\Mes documents\Downloads>
     97}}}