Opened 6 years ago

Closed 5 years ago

#1431 closed defect (fixed)

Console spammed with warnings when transcoding dvr-ms

Reported by: ramitbhalla Owned by:
Priority: minor Component: undetermined
Version: git-master Keywords: asf
Cc: Blocked By:
Blocking: Reproduced by developer: yes
Analyzed by developer: no

Description

Summary of the bug: When trying to convert a DVRMS file to a TS file FFMPEG shows many PTS/DTS errors and drops packets during the conversion. this happens with all the DVRMS files I've tested with.

Attaching a sample DVRMS file.

COMMAND:

ffmpeg -i "Test3.dvr-ms" -an -vcodec mpeg2video -sameq test.ts

How to reproduce:

ffmpeg version N-40824-g31dfe20 Copyright (c) 2000-2012 the FFmpeg developers
  built on May 19 2012 00:45:59 with gcc 4.6.3
  configuration: --enable-gpl --enable-version3 --disable-w32threads --enable-runtime-cpudetect --enable-avisynth --enab
le-bzlib --enable-frei0r --enable-libass --enable-libcelt --enable-libopencore-amrnb --enable-libopencore-amrwb --enable
-libfreetype --enable-libgsm --enable-libmp3lame --enable-libnut --enable-libopenjpeg --enable-librtmp --enable-libschro
edinger --enable-libspeex --enable-libtheora --enable-libutvideo --enable-libvo-aacenc --enable-libvo-amrwbenc --enable-
libvorbis --enable-libvpx --enable-libx264 --enable-libxavs --enable-libxvid --enable-zlib
  libavutil      51. 53.100 / 51. 53.100
  libavcodec     54. 21.101 / 54. 21.101
  libavformat    54.  5.100 / 54.  5.100
  libavdevice    53.  4.100 / 53.  4.100
  libavfilter     2. 74.101 /  2. 74.101
  libswscale      2.  1.100 /  2.  1.100
  libswresample   0. 12.100 /  0. 12.100
  libpostproc    52.  0.100 / 52.  0.100
Input #0, asf, from 'Test3.dvr-ms':
  Metadata:
    DVR Index Granularity: 500
    WM/SubTitleDescription: Journeying south to Myanmar, Luke uncovers the little known foods and flavours of the former
 capital, Yangon. Here he begins his culinary education by learning the art of making the famous Mohinga.
    genre           : Documentary;Other Documentaries
    WM/OriginalReleaseTime: 0
    WM/MediaCredits : ;;;
    service_provider: SBS HD
    service_name    : SBS HD
    WM/MediaNetworkAffiliation: SBS HD
    WM/MediaOriginalChannel: 30
    WM/MediaOriginalChannelSubNumber: 0
    WM/MediaOriginalBroadcastDateTime: 0001-01-01T00:00:00Z
    WM/MediaOriginalRunTime: 1844674
    WM/MediaIsStereo: 0
    WM/MediaIsRepeat: 0
    WM/MediaIsLive  : 0
    WM/MediaIsTape  : 0
    WM/MediaIsDelay : 0
    WM/MediaIsSubtitled: 0
    WM/MediaIsMovie : 0
    WM/MediaIsPremiere: 0
    WM/MediaIsFinale: 0
    WM/MediaIsSAP   : 0
    WM/MediaIsSport : 0
    WM/Provider     : MediaCenterDefault
    WM/VideoClosedCaptioning: 0
    WM/WMRVEncodeTime: 6803286
    WM/WMRVSeriesUID: !GenericSeries!Luke Nguyen's Greater Mekong
    WM/WMRVServiceID: !Generated!2de313550cf54622bf3c9ccd1105c2db
    WM/WMRVRequestID: 184
    WM/WMRVScheduleItemID: 184
    WM/WMRVQuality  : 0
    WM/WMRVOriginalSoftPrePadding: 0
    WM/WMRVOriginalSoftPostPadding: 0
    WM/WMRVHardPrePadding: 184
    WM/WMRVHardPostPadding: 0
    WM/WMRVATSCContent: 0
    WM/WMRVDTVContent: 1
    WM/WMRVHDContent: 0
    WM/WMRVEndTime  : 1844674
    WM/WMRVBitrate  : 1844674
    WM/WMRVKeepUntil: 184
    WM/WMRVActualSoftPrePadding: 0
    WM/WMRVActualSoftPostPadding: 0
    WM/WMRVContentProtected: 0
    WM/WMRVContentProtectedPercent: 0
    WM/WMRVExpirationDate: 1844674
    WM/WMRVExpirationSpan: 1844674
    WM/WMRVInBandRatingSystem: 255
    WM/WMRVInBandRatingLevel: 255
    WM/WMRVInBandRatingAttributes: 0
    WM/WMRVWatched  : 0
    WM/MediaThumbWidth: 352
    WM/MediaThumbHeight: 198
    WM/MediaThumbStride: 105
    WM/MediaThumbRet: 0
    WM/MediaThumbRatingSystem: 9
    WM/MediaThumbRatingLevel: 9
    WM/MediaThumbRatingAttributes: 0
    WM/MediaThumbAspectRatioX: 16
    WM/MediaThumbAspectRatioY: 9
    WM/MediaThumbTimeStamp: 1970874
    WM/MediaThumbType: 3
    WMFSDKVersion   : 12.0.7601.17514
    WMFSDKNeeded    : 0.0.0.0000
    VBR Peak        : 368
    IsVBR           : 1
    title           : Luke Nguyen's Greater Mekong
  Duration: 00:04:59.84, start: 0.200000, bitrate: 55 kb/s
    Stream #0:0: Audio: mp2, 48000 Hz, stereo, s16, 192 kb/s
    Stream #0:1: Video: mpeg2video (Main) (DVR  / 0x20525644), yuv420p, 1280x720 [SAR 1:1 DAR 16:9], 90000 kb/s, 50 fps,
 50 tbr, 1k tbn, 100 tbc
[buffer @ 03119020] w:1280 h:720 pixfmt:yuv420p tb:1/1000000 sar:1/1 sws_param:flags=2
[buffersink @ 030976e0] No opaque field provided
[mpegts @ 030e2da0] muxrate VBR, pcr every 2 pkts, sdt every 200, pat/pmt every 40 pkts
Output #0, mpegts, to 'test.ts':
  Metadata:
    DVR Index Granularity: 500
    WM/SubTitleDescription: Journeying south to Myanmar, Luke uncovers the little known foods and flavours of the former
 capital, Yangon. Here he begins his culinary education by learning the art of making the famous Mohinga.
    genre           : Documentary;Other Documentaries
    WM/OriginalReleaseTime: 0
    WM/MediaCredits : ;;;
    service_provider: SBS HD
    service_name    : SBS HD
    WM/MediaNetworkAffiliation: SBS HD
    WM/MediaOriginalChannel: 30
    WM/MediaOriginalChannelSubNumber: 0
    WM/MediaOriginalBroadcastDateTime: 0001-01-01T00:00:00Z
    WM/MediaOriginalRunTime: 1844674
    WM/MediaIsStereo: 0
    WM/MediaIsRepeat: 0
    WM/MediaIsLive  : 0
    WM/MediaIsTape  : 0
    WM/MediaIsDelay : 0
    WM/MediaIsSubtitled: 0
    WM/MediaIsMovie : 0
    WM/MediaIsPremiere: 0
    WM/MediaIsFinale: 0
    WM/MediaIsSAP   : 0
    WM/MediaIsSport : 0
    WM/Provider     : MediaCenterDefault
    WM/VideoClosedCaptioning: 0
    WM/WMRVEncodeTime: 6803286
    WM/WMRVSeriesUID: !GenericSeries!Luke Nguyen's Greater Mekong
    WM/WMRVServiceID: !Generated!2de313550cf54622bf3c9ccd1105c2db
    WM/WMRVRequestID: 184
    WM/WMRVScheduleItemID: 184
    WM/WMRVQuality  : 0
    WM/WMRVOriginalSoftPrePadding: 0
    WM/WMRVOriginalSoftPostPadding: 0
    WM/WMRVHardPrePadding: 184
    WM/WMRVHardPostPadding: 0
    WM/WMRVATSCContent: 0
    WM/WMRVDTVContent: 1
    WM/WMRVHDContent: 0
    WM/WMRVEndTime  : 1844674
    WM/WMRVBitrate  : 1844674
    WM/WMRVKeepUntil: 184
    WM/WMRVActualSoftPrePadding: 0
    WM/WMRVActualSoftPostPadding: 0
    WM/WMRVContentProtected: 0
    WM/WMRVContentProtectedPercent: 0
    WM/WMRVExpirationDate: 1844674
    WM/WMRVExpirationSpan: 1844674
    WM/WMRVInBandRatingSystem: 255
    WM/WMRVInBandRatingLevel: 255
    WM/WMRVInBandRatingAttributes: 0
    WM/WMRVWatched  : 0
    WM/MediaThumbWidth: 352
    WM/MediaThumbHeight: 198
    WM/MediaThumbStride: 105
    WM/MediaThumbRet: 0
    WM/MediaThumbRatingSystem: 9
    WM/MediaThumbRatingLevel: 9
    WM/MediaThumbRatingAttributes: 0
    WM/MediaThumbAspectRatioX: 16
    WM/MediaThumbAspectRatioY: 9
    WM/MediaThumbTimeStamp: 1970874
    WM/MediaThumbType: 3
    WMFSDKVersion   : 12.0.7601.17514
    WMFSDKNeeded    : 0.0.0.0000
    VBR Peak        : 368
    IsVBR           : 1
    title           : Luke Nguyen's Greater Mekong
    encoder         : Lavf54.5.100
    Stream #0:0: Video: mpeg2video, yuv420p, 1280x720 [SAR 1:1 DAR 16:9], q=2-31, 200 kb/s, 90k tbn, 25 tbc
Stream mapping:
  Stream #0:1 -> #0:0 (mpeg2video -> mpeg2video)
Press [q] to stop, [?] for help
DTS 60, next:100000 st:1 invalid dropping
PTS 60, next:100000 invalid dropping st:1
DTS 140, next:180000 st:1 invalid dropping
PTS 140, next:180000 invalid dropping st:1
DTS 180, next:240000 st:1 invalid dropping
PTS 180, next:240000 invalid dropping st:1
DTS 200, next:260000 st:1 invalid dropping
PTS 200, next:260000 invalid dropping st:1
DTS 240, next:300000 st:1 invalid dropping
PTS 240, next:300000 invalid dropping st:1
DTS 260, next:320000 st:1 invalid dropping
PTS 260, next:320000 invalid dropping st:1
DTS 300, next:360000 st:1 invalid dropping
PTS 300, next:360000 invalid dropping st:1
DTS 320, next:380000 st:1 invalid dropping
PTS 320, next:380000 invalid dropping st:1
DTS 360, next:420000 st:1 invalid dropping
PTS 360, next:420000 invalid dropping st:1
DTS 380, next:440000 st:1 invalid dropping
PTS 380, next:440000 invalid dropping st:1
DTS 420, next:480000 st:1 invalid dropping
PTS 420, next:480000 invalid dropping st:1
DTS 440, next:500000 st:1 invalid dropping
PTS 440, next:500000 invalid dropping st:1
DTS 480, next:540000 st:1 invalid dropping
PTS 480, next:540000 invalid dropping st:1
DTS 500, next:560000 st:1 invalid dropping
PTS 500, next:560000 invalid dropping st:1
DTS 540, next:600000 st:1 invalid dropping
PTS 540, next:600000 invalid dropping st:1
DTS 560, next:620000 st:1 invalid dropping
PTS 560, next:620000 invalid dropping st:1
DTS 600, next:660000 st:1 invalid dropping
PTS 600, next:660000 invalid dropping st:1
DTS 620, next:680000 st:1 invalid dropping
PTS 620, next:680000 invalid dropping st:1
DTS 660, next:720000 st:1 invalid dropping
PTS 660, next:720000 invalid dropping st:1
DTS 680, next:740000 st:1 invalid dropping
PTS 680, next:740000 invalid dropping st:1
DTS 720, next:780000 st:1 invalid dropping
PTS 720, next:780000 invalid dropping st:1
DTS 740, next:800000 st:1 invalid dropping
PTS 740, next:800000 invalid dropping st:1
DTS 780, next:840000 st:1 invalid dropping
PTS 780, next:840000 invalid dropping st:1
DTS 800, next:860000 st:1 invalid dropping
PTS 800, next:860000 invalid dropping st:1
DTS 840, next:900000 st:1 invalid droppingtime=00:00:00.88 bitrate=7393.5kbits/s dup=1 drop=18
PTS 840, next:900000 invalid dropping st:1
DTS 860, next:920000 st:1 invalid dropping
PTS 860, next:920000 invalid dropping st:1
DTS 900, next:960000 st:1 invalid dropping
PTS 900, next:960000 invalid dropping st:1
DTS 920, next:980000 st:1 invalid dropping
PTS 920, next:980000 invalid dropping st:1
DTS 960, next:1020000 st:1 invalid dropping
PTS 960, next:1020000 invalid dropping st:1
DTS 980, next:1040000 st:1 invalid dropping
PTS 980, next:1040000 invalid dropping st:1
DTS 1020, next:1080000 st:1 invalid dropping
PTS 1020, next:1080000 invalid dropping st:1
DTS 1040, next:1100000 st:1 invalid dropping
PTS 1040, next:1100000 invalid dropping st:1
DTS 1080, next:1140000 st:1 invalid dropping
PTS 1080, next:1140000 invalid dropping st:1
DTS 1100, next:1160000 st:1 invalid dropping
PTS 1100, next:1160000 invalid dropping st:1
DTS 1140, next:1200000 st:1 invalid dropping
PTS 1140, next:1200000 invalid dropping st:1
DTS 1160, next:1220000 st:1 invalid dropping
PTS 1160, next:1220000 invalid dropping st:1
DTS 1200, next:1260000 st:1 invalid dropping
PTS 1200, next:1260000 invalid dropping st:1
DTS 1220, next:1280000 st:1 invalid dropping
PTS 1220, next:1280000 invalid dropping st:1
DTS 1260, next:1320000 st:1 invalid dropping
PTS 1260, next:1320000 invalid dropping st:1
DTS 1280, next:1340000 st:1 invalid dropping
PTS 1280, next:1340000 invalid dropping st:1
DTS 1320, next:1380000 st:1 invalid dropping
PTS 1320, next:1380000 invalid dropping st:1
DTS 1340, next:1400000 st:1 invalid dropping
PTS 1340, next:1400000 invalid dropping st:1
DTS 1380, next:1440000 st:1 invalid dropping
PTS 1380, next:1440000 invalid dropping st:1
DTS 1400, next:1460000 st:1 invalid dropping
PTS 1400, next:1460000 invalid dropping st:1
DTS 1440, next:1500000 st:1 invalid dropping
PTS 1440, next:1500000 invalid dropping st:1
DTS 1460, next:1520000 st:1 invalid dropping
PTS 1460, next:1520000 invalid dropping st:1
[mpeg2video @ 02bbfa40] ac-tex damaged at 11 32
[mpeg2video @ 02bbfa40] Warning MVs not available
[mpeg2video @ 02bbfa40] concealing 1040 DC, 1040 AC, 1040 MV errors
frame=   42 fps=0.0 q=0.0 Lsize=    1617kB time=00:00:01.64 bitrate=8074.8kbits/s dup=1 drop=35
video:1494kB audio:0kB global headers:0kB muxing overhead 8.186854%

Attachments (1)

Test3.dvr-ms (2.0 MB) - added by ramitbhalla 6 years ago.

Download all attachments as: .zip

Change History (5)

Changed 6 years ago by ramitbhalla

comment:1 Changed 5 years ago by cehoyos

  • Keywords asf added

Could you retry with current git head? I am unable to reproduce the amount of dropped frames.

comment:2 Changed 5 years ago by ramitbhalla

The amount of dropped frame reported have reduced but is it normal to get the invalid dropping messages?

This is what I'm getting:

ffmpeg -i "Test3.dvr-ms" -an -vcodec mpeg2video -sameq test.ts

ffmpeg version N-41578-ga5c1a0c Copyright (c) 2000-2012 the FFmpeg developers
  built on Jun 13 2012 22:34:53 with gcc 4.6.3
  configuration: --enable-gpl --enable-version3 --disable-w32threads --enable-runtime-cpudetect --enable-avisynth --enab
le-bzlib --enable-frei0r --enable-libass --enable-libcelt --enable-libopencore-amrnb --enable-libopencore-amrwb --enable
-libfreetype --enable-libgsm --enable-libmp3lame --enable-libnut --enable-libopenjpeg --enable-librtmp --enable-libschro
edinger --enable-libspeex --enable-libtheora --enable-libutvideo --enable-libvo-aacenc --enable-libvo-amrwbenc --enable-
libvorbis --enable-libvpx --ena  libavutil      51. 58.100 / 51. 58.100
  libavcodec     54. 25.100 / 54. 25.100
  libavformat    54.  6.101 / 54.  6.101
  libavdevice    54.  0.100 / 54.  0.100
  libavfilter     2. 79.100 /  2. 79.100
  libswscale      2.  1.100 /  2.  1.100
  libswresample   0. 15.100 /  0. 15.100
  libpostproc    52.  0.100 / 52.  0.100
Input #0, asf, from 'Test3.dvr-ms':
  Metadata:
    DVR Index Granularity: 500
    WM/SubTitleDescription: Journeying south to Myanmar, Luke uncovers the little known foods and flavours of the former
 capital, Yangon. Here he begins his culinary education by learning the art of making the famous Mohinga.
    genre           : Documentary;Other Documentaries
    WM/OriginalReleaseTime: 0
    WM/MediaCredits : ;;;
    service_provider: SBS HD
    service_name    : SBS HD
    WM/MediaNetworkAffiliation: SBS HD
    WM/MediaOriginalChannel: 30
    WM/MediaOriginalChannelSubNumber: 0
    WM/MediaOriginalBroadcastDateTime: 0001-01-01T00:00:00Z
    WM/MediaOriginalRunTime: 1844674
    WM/MediaIsStereo: 0
    WM/MediaIsRepeat: 0
    WM/MediaIsLive  : 0
    WM/MediaIsTape  : 0
    WM/MediaIsDelay : 0
    WM/MediaIsSubtitled: 0
    WM/MediaIsMovie : 0
    WM/MediaIsPremiere: 0
    WM/MediaIsFinale: 0
    WM/MediaIsSAP   : 0
    WM/MediaIsSport : 0
    WM/Provider     : MediaCenterDefault
    WM/VideoClosedCaptioning: 0
    WM/WMRVEncodeTime: 6803286
    WM/WMRVSeriesUID: !GenericSeries!Luke Nguyen's Greater Mekong
    WM/WMRVServiceID: !Generated!2de313550cf54622bf3c9ccd1105c2db
    WM/WMRVRequestID: 184
    WM/WMRVScheduleItemID: 184
    WM/WMRVQuality  : 0
    WM/WMRVOriginalSoftPrePadding: 0
    WM/WMRVOriginalSoftPostPadding: 0
    WM/WMRVHardPrePadding: 184
    WM/WMRVHardPostPadding: 0
    WM/WMRVATSCContent: 0
    WM/WMRVDTVContent: 1
    WM/WMRVHDContent: 0
    WM/WMRVEndTime  : 1844674
    WM/WMRVBitrate  : 1844674
    WM/WMRVKeepUntil: 184
    WM/WMRVActualSoftPrePadding: 0
    WM/WMRVActualSoftPostPadding: 0
    WM/WMRVContentProtected: 0
    WM/WMRVContentProtectedPercent: 0
    WM/WMRVExpirationDate: 1844674
    WM/WMRVExpirationSpan: 1844674
    WM/WMRVInBandRatingSystem: 255
    WM/WMRVInBandRatingLevel: 255
    WM/WMRVInBandRatingAttributes: 0
    WM/WMRVWatched  : 0
    WM/MediaThumbWidth: 352
    WM/MediaThumbHeight: 198
    WM/MediaThumbStride: 105
    WM/MediaThumbRet: 0
    WM/MediaThumbRatingSystem: 9
    WM/MediaThumbRatingLevel: 9
    WM/MediaThumbRatingAttributes: 0
    WM/MediaThumbAspectRatioX: 16
    WM/MediaThumbAspectRatioY: 9
    WM/MediaThumbTimeStamp: 1970874
    WM/MediaThumbType: 3
    WMFSDKVersion   : 12.0.7601.17514
    WMFSDKNeeded    : 0.0.0.0000
    VBR Peak        : 368
    IsVBR           : 1
    title           : Luke Nguyen's Greater Mekong
  Duration: 00:04:59.84, start: 0.200000, bitrate: 55 kb/s
    Stream #0:0: Audio: mp2, 48000 Hz, stereo, s16, 192 kb/s
    Stream #0:1: Video: mpeg2video (Main) (DVR  / 0x20525644), yuv420p, 1280x720 [SAR 1:1 DAR 16:9], 90000 kb/s, 50 fps,
 50 tbr, 1k tbn, 100 tbc
[buffer @ 0317ef00] w:1280 h:720 pixfmt:yuv420p tb:1/1000 fr:50/1 sar:1/1 sws_param:flags=2
[ffmpeg_buffersink @ 0317efc0] No opaque field provided
[mpegts @ 03110e60] muxrate VBR, pcr every 5 pkts, sdt every 200, pat/pmt every 40 pkts
Output #0, mpegts, to 'test.ts':
  Metadata:
    DVR Index Granularity: 500
    WM/SubTitleDescription: Journeying south to Myanmar, Luke uncovers the little known foods and flavours of the former
 capital, Yangon. Here he begins his culinary education by learning the art of making the famous Mohinga.
    genre           : Documentary;Other Documentaries
    WM/OriginalReleaseTime: 0
    WM/MediaCredits : ;;;
    service_provider: SBS HD
    service_name    : SBS HD
    WM/MediaNetworkAffiliation: SBS HD
    WM/MediaOriginalChannel: 30
    WM/MediaOriginalChannelSubNumber: 0
    WM/MediaOriginalBroadcastDateTime: 0001-01-01T00:00:00Z
    WM/MediaOriginalRunTime: 1844674
    WM/MediaIsStereo: 0
    WM/MediaIsRepeat: 0
    WM/MediaIsLive  : 0
    WM/MediaIsTape  : 0
    WM/MediaIsDelay : 0
    WM/MediaIsSubtitled: 0
    WM/MediaIsMovie : 0
    WM/MediaIsPremiere: 0
    WM/MediaIsFinale: 0
    WM/MediaIsSAP   : 0
    WM/MediaIsSport : 0
    WM/Provider     : MediaCenterDefault
    WM/VideoClosedCaptioning: 0
    WM/WMRVEncodeTime: 6803286
    WM/WMRVSeriesUID: !GenericSeries!Luke Nguyen's Greater Mekong
    WM/WMRVServiceID: !Generated!2de313550cf54622bf3c9ccd1105c2db
    WM/WMRVRequestID: 184
    WM/WMRVScheduleItemID: 184
    WM/WMRVQuality  : 0
    WM/WMRVOriginalSoftPrePadding: 0
    WM/WMRVOriginalSoftPostPadding: 0
    WM/WMRVHardPrePadding: 184
    WM/WMRVHardPostPadding: 0
    WM/WMRVATSCContent: 0
    WM/WMRVDTVContent: 1
    WM/WMRVHDContent: 0
    WM/WMRVEndTime  : 1844674
    WM/WMRVBitrate  : 1844674
    WM/WMRVKeepUntil: 184
    WM/WMRVActualSoftPrePadding: 0
    WM/WMRVActualSoftPostPadding: 0
    WM/WMRVContentProtected: 0
    WM/WMRVContentProtectedPercent: 0
    WM/WMRVExpirationDate: 1844674
    WM/WMRVExpirationSpan: 1844674
    WM/WMRVInBandRatingSystem: 255
    WM/WMRVInBandRatingLevel: 255
    WM/WMRVInBandRatingAttributes: 0
    WM/WMRVWatched  : 0
    WM/MediaThumbWidth: 352
    WM/MediaThumbHeight: 198
    WM/MediaThumbStride: 105
    WM/MediaThumbRet: 0
    WM/MediaThumbRatingSystem: 9
    WM/MediaThumbRatingLevel: 9
    WM/MediaThumbRatingAttributes: 0
    WM/MediaThumbAspectRatioX: 16
    WM/MediaThumbAspectRatioY: 9
    WM/MediaThumbTimeStamp: 1970874
    WM/MediaThumbType: 3
    WMFSDKVersion   : 12.0.7601.17514
    WMFSDKNeeded    : 0.0.0.0000
    VBR Peak        : 368
    IsVBR           : 1
    title           : Luke Nguyen's Greater Mekong
    encoder         : Lavf54.6.101
    Stream #0:0: Video: mpeg2video, yuv420p, 1280x720 [SAR 1:1 DAR 16:9], q=2-31, 200 kb/s, 90k tbn, 50 tbc
Stream mapping:
  Stream #0:1 -> #0:0 (mpeg2video -> mpeg2video)
Press [q] to stop, [?] for help
DTS 60, next:100000 st:1 invalid dropping
PTS 60, next:100000 invalid dropping st:1
DTS 140, next:180000 st:1 invalid dropping
PTS 140, next:180000 invalid dropping st:1
DTS 180, next:240000 st:1 invalid dropping
PTS 180, next:240000 invalid dropping st:1
DTS 200, next:260000 st:1 invalid dropping
PTS 200, next:260000 invalid dropping st:1
DTS 240, next:300000 st:1 invalid dropping
PTS 240, next:300000 invalid dropping st:1
DTS 260, next:320000 st:1 invalid dropping
PTS 260, next:320000 invalid dropping st:1
DTS 300, next:360000 st:1 invalid dropping
PTS 300, next:360000 invalid dropping st:1
DTS 320, next:380000 st:1 invalid dropping
PTS 320, next:380000 invalid dropping st:1
DTS 360, next:420000 st:1 invalid dropping
PTS 360, next:420000 invalid dropping st:1
DTS 380, next:440000 st:1 invalid dropping
PTS 380, next:440000 invalid dropping st:1
DTS 420, next:480000 st:1 invalid dropping
PTS 420, next:480000 invalid dropping st:1
DTS 440, next:500000 st:1 invalid dropping
PTS 440, next:500000 invalid dropping st:1
DTS 480, next:540000 st:1 invalid dropping
PTS 480, next:540000 invalid dropping st:1
DTS 500, next:560000 st:1 invalid dropping
PTS 500, next:560000 invalid dropping st:1
DTS 540, next:600000 st:1 invalid droppingtime=00:00:00.54 bitrate=11527.9kbits/s dup=3 drop=0
PTS 540, next:600000 invalid dropping st:1
DTS 560, next:620000 st:1 invalid dropping
PTS 560, next:620000 invalid dropping st:1
DTS 600, next:660000 st:1 invalid dropping
PTS 600, next:660000 invalid dropping st:1
DTS 620, next:680000 st:1 invalid dropping
PTS 620, next:680000 invalid dropping st:1
DTS 660, next:720000 st:1 invalid dropping
PTS 660, next:720000 invalid dropping st:1
DTS 680, next:740000 st:1 invalid dropping
PTS 680, next:740000 invalid dropping st:1
DTS 720, next:780000 st:1 invalid dropping
PTS 720, next:780000 invalid dropping st:1
DTS 740, next:800000 st:1 invalid dropping
PTS 740, next:800000 invalid dropping st:1
DTS 780, next:840000 st:1 invalid dropping
PTS 780, next:840000 invalid dropping st:1
DTS 800, next:860000 st:1 invalid dropping
PTS 800, next:860000 invalid dropping st:1
DTS 840, next:900000 st:1 invalid dropping
PTS 840, next:900000 invalid dropping st:1
DTS 860, next:920000 st:1 invalid dropping
PTS 860, next:920000 invalid dropping st:1
DTS 900, next:960000 st:1 invalid dropping
PTS 900, next:960000 invalid dropping st:1
DTS 920, next:980000 st:1 invalid dropping
PTS 920, next:980000 invalid dropping st:1
DTS 960, next:1020000 st:1 invalid dropping
PTS 960, next:1020000 invalid dropping st:1
DTS 980, next:1040000 st:1 invalid dropping
PTS 980, next:1040000 invalid dropping st:1
DTS 1020, next:1080000 st:1 invalid dropping
PTS 1020, next:1080000 invalid dropping st:1
DTS 1040, next:1100000 st:1 invalid droppingme=00:00:01.06 bitrate=12419.4kbits/s dup=3 drop=0
PTS 1040, next:1100000 invalid dropping st:1
DTS 1080, next:1140000 st:1 invalid dropping
PTS 1080, next:1140000 invalid dropping st:1
DTS 1100, next:1160000 st:1 invalid dropping
PTS 1100, next:1160000 invalid dropping st:1
DTS 1140, next:1200000 st:1 invalid dropping
PTS 1140, next:1200000 invalid dropping st:1
DTS 1160, next:1220000 st:1 invalid dropping
PTS 1160, next:1220000 invalid dropping st:1
DTS 1200, next:1260000 st:1 invalid dropping
PTS 1200, next:1260000 invalid dropping st:1
DTS 1220, next:1280000 st:1 invalid dropping
PTS 1220, next:1280000 invalid dropping st:1
DTS 1260, next:1320000 st:1 invalid dropping
PTS 1260, next:1320000 invalid dropping st:1
DTS 1280, next:1340000 st:1 invalid dropping
PTS 1280, next:1340000 invalid dropping st:1
DTS 1320, next:1380000 st:1 invalid dropping
PTS 1320, next:1380000 invalid dropping st:1
DTS 1340, next:1400000 st:1 invalid dropping
PTS 1340, next:1400000 invalid dropping st:1
DTS 1380, next:1440000 st:1 invalid dropping
PTS 1380, next:1440000 invalid dropping st:1
DTS 1400, next:1460000 st:1 invalid dropping
PTS 1400, next:1460000 invalid dropping st:1
DTS 1440, next:1500000 st:1 invalid dropping
PTS 1440, next:1500000 invalid dropping st:1
DTS 1460, next:1520000 st:1 invalid dropping
PTS 1460, next:1520000 invalid dropping st:1
[mpeg2video @ 02f41aa0] ac-tex damaged at 11 32
[mpeg2video @ 02f41aa0] Warning MVs not available
[mpeg2video @ 02f41aa0] concealing 1040 DC, 1040 AC, 1040 MV errors
frame=   79 fps= 50 q=0.0 Lsize=    2378kB time=00:00:01.56 bitrate=12489.9kbits/s dup=3 drop=0
video:2197kB audio:0kB global headers:0kB muxing overhead 8.281113%

comment:3 Changed 5 years ago by cehoyos

  • Priority changed from normal to minor
  • Reproduced by developer set
  • Status changed from new to open
  • Summary changed from FFMPEG causing PTS/DTS errors and dropping frames with DVRMS files to Console spammed with warnings when transcoding dvr-ms
  • Version changed from unspecified to git-master

comment:4 Changed 5 years ago by cehoyos

  • Resolution set to fixed
  • Status changed from open to closed

This appears to have been fixed.

Note: See TracTickets for help on using tickets.