Changes between Initial Version and Version 1 of Ticket #1321, comment 3


Ignore:
Timestamp:
May 19, 2012, 5:18:35 PM (4 years ago)
Author:
pisto
Comment:

Legend:

Unmodified
Added
Removed
Modified
  • Ticket #1321, comment 3

    initial v1  
    11 
    22{{{ 
    3 ffmpeg -f image2pipe -vcodec pbm -r 30 -i - -y -vcodec yuv4 output.mkv 
     3ffmpeg -f image2pipe -vcodec pbm -r 30 -i - -f null - 
    44}}} 
    55 
     
    1818  libswresample   0. 12.100 /  0. 12.100 
    1919  libpostproc    52.  0.100 / 52.  0.100 
    20 [image2pipe @ 0x1839340] Estimating duration from bitrate, this may be inaccurate 
     20[image2pipe @ 0x2dde340] Estimating duration from bitrate, this may be inaccurate 
    2121Input #0, image2pipe, from 'pipe:': 
    2222  Duration: N/A, bitrate: N/A 
    2323    Stream #0:0: Video: pbm, monow, 800x800, 30 fps, 30 tbr, 30 tbn, 30 tbc 
    24 [buffer @ 0x18487a0] w:800 h:800 pixfmt:monow tb:1/1000000 sar:0/1 sws_param:flags=2 
    25 [buffersink @ 0x1be5400] No opaque field provided 
    26 [format @ 0x18adba0] auto-inserting filter 'auto-inserted scaler 0' between the filter 'src' and the filter 'format' 
    27 [scale @ 0x1843060] w:800 h:800 fmt:monow sar:0/1 -> w:800 h:800 fmt:yuv420p sar:0/1 flags:0x4 
    28 Output #0, matroska, to 'output.mkv': 
     24[buffer @ 0x2e52ba0] w:800 h:800 pixfmt:monow tb:1/1000000 sar:0/1 sws_param:flags=2 
     25[buffersink @ 0x318a5c0] No opaque field provided 
     26Output #0, null, to 'pipe:': 
    2927  Metadata: 
    3028    encoder         : Lavf54.5.100 
    31     Stream #0:0: Video: yuv4 (yuv4 / 0x34767579), yuv420p, 800x800, q=2-31, 200 kb/s, 1k tbn, 30 tbc 
     29    Stream #0:0: Video: rawvideo (B1W0 / 0x30573142), monow, 800x800, q=2-31, 200 kb/s, 90k tbn, 30 tbc 
    3230Stream mapping: 
    33   Stream #0:0 -> #0:0 (pbm -> yuv4) 
    34 Error while decoding stream #0:01834724kB time=00:01:05.23 bitrate=230405.8kbits/s     
    35 Error while decoding stream #0:01935977kB time=00:01:08.86 bitrate=230295.4kbits/s     
    36 frame= 2079 fps= 63 q=0.0 Lsize= 1949146kB time=00:01:09.33 bitrate=230300.3kbits/s     
    37 video:1949062kB audio:0kB global headers:0kB muxing overhead 0.004309% 
     31  Stream #0:0 -> #0:0 (pbm -> rawvideo) 
     32[null @ 0x3189620] Encoder did not produce proper pts, making some up. 
     33Error while decoding stream #0:0      0kB time=00:00:58.40 bitrate=   0.0kbits/s     
     34Error while decoding stream #0:0      0kB time=00:01:08.83 bitrate=   0.0kbits/s     
     35frame= 2079 fps=133 q=0.0 Lsize=       0kB time=00:01:09.30 bitrate=   0.0kbits/s     
     36video:0kB audio:0kB global headers:0kB muxing overhead -nan% 
     37Output file is empty, nothing was encoded (check -ss / -t / -frames parameters if used) 
    3838 
    3939}}}