Opened 4 years ago

Closed 4 years ago

#1289 closed defect (fixed)

logarith yuy2: wrong colors

Reported by: ami_stuff Owned by:
Priority: normal Component: avcodec
Version: git-master Keywords: lagarith
Cc: Blocked By:
Blocking: Reproduced by developer: yes
Analyzed by developer: no

Description

decodes correctly with org codec (and -vf swapuv)

C:\>ffmpeg -i yuy2.avi out.avi
ffmpeg version N-40511-g66337bf Copyright (c) 2000-2012 the FFmpeg developers
  built on May  9 2012 02:38:42 with gcc 4.5.0 20100414 (Fedora MinGW 4.5.0-1.fc
14)
  configuration: --prefix=/var/www/users/research/ffmpeg/snapshots/build --arch=
x86 --target-os=mingw32 --cross-prefix=i686-pc-mingw32- --cc='ccache i686-pc-min
gw32-gcc' --enable-w32threads --enable-memalign-hack --enable-runtime-cpudetect
--enable-cross-compile --enable-static --disable-shared --extra-libs='-lws2_32 -
lwinmm' --extra-cflags='--static -I/var/www/users/research/ffmpeg/snapshots/buil
d/include' --extra-ldflags='-static -L/var/www/users/research/ffmpeg/snapshots/b
uild/lib' --enable-bzlib --enable-zlib --enable-gpl --enable-version3 --enable-n
onfree --enable-libx264 --enable-libspeex --enable-libtheora --enable-libvorbis
--enable-libfaac --enable-libxvid --enable-libopencore-amrnb --enable-libopencor
e-amrwb --enable-libmp3lame --enable-libvpx --disable-decoder=libvpx
  libavutil      51. 50.100 / 51. 50.100
  libavcodec     54. 21.100 / 54. 21.100
  libavformat    54.  4.100 / 54.  4.100
  libavdevice    53.  4.100 / 53.  4.100
  libavfilter     2. 72.105 /  2. 72.105
  libswscale      2.  1.100 /  2.  1.100
  libswresample   0. 11.100 /  0. 11.100
  libpostproc    52.  0.100 / 52.  0.100
Input #0, avi, from 'yuy2.avi':
  Duration: 00:00:00.10, start: 0.000000, bitrate: 43109 kb/s
    Stream #0:0: Video: lagarith (LAGS / 0x5347414C), yuv422p, 1024x768, 10 tbr,
 10 tbn, 10 tbc
w:1024 h:768 pixfmt:yuv422p tb:1/1000000 sar:0/1 sws_param:flags=2
[buffersink @ 0x1dd11c0] auto-inserting filter 'auto-inserted scale 0' between t
he filter 'src' and the filter 'out'
[scale @ 0x1dd2340] w:1024 h:768 fmt:yuv422p sar:0/1 -> w:1024 h:768 fmt:yuv420p
 sar:0/1 flags:0x4
Output #0, avi, to 'out.avi':
  Metadata:
    ISFT            : Lavf54.4.100
    Stream #0:0: Video: mpeg4 (FMP4 / 0x34504D46), yuv420p, 1024x768, q=2-31, 20
0 kb/s, 10 tbn, 10 tbc
Stream mapping:
  Stream #0:0 -> #0:0 (lagarith -> mpeg4)
Press [q] to stop, [?] for help
frame=    1 fps=0.0 q=6.1 Lsize=      59kB time=00:00:00.10 bitrate=4815.0kbits/
s
video:53kB audio:0kB global headers:0kB muxing overhead 10.473184%

Attachments (1)

yuy2.avi (526.2 KB) - added by ami_stuff 4 years ago.

Download all attachments as: .zip

Change History (2)

Changed 4 years ago by ami_stuff

comment:1 Changed 4 years ago by cehoyos

  • Component changed from undetermined to avcodec
  • Keywords lagarith added
  • Reproduced by developer set
  • Resolution set to fixed
  • Status changed from new to closed
  • Version changed from unspecified to git-master

Thank you for testing more carefully than I did!

Note: See TracTickets for help on using tickets.