Changes between Initial Version and Version 1 of Ticket #1182


Ignore:
Timestamp:
Apr 10, 2012, 2:32:27 AM (5 years ago)
Author:
cehoyos
Comment:

Not reproducible with ffmpeg.

$ ffplay powderblue.avi
ffplay version N-39664-g6bfb304 Copyright (c) 2003-2012 the FFmpeg developers
  built on Apr 10 2012 01:24:40 with gcc 4.5.3
  configuration: --cc=/usr/local/gcc-4.5.3/bin/gcc --enable-gpl --enable-libtheora --enable-libopenjpeg
  libavutil      51. 46.100 / 51. 46.100
  libavcodec     54. 14.101 / 54. 14.101
  libavformat    54.  3.100 / 54.  3.100
  libavdevice    53.  4.100 / 53.  4.100
  libavfilter     2. 67.101 /  2. 67.101
  libswscale      2.  1.100 /  2.  1.100
  libswresample   0. 10.100 /  0. 10.100
  libpostproc    52.  0.100 / 52.  0.100
Input #0, avi, from 'powderblue.avi':
  Metadata:
    encoder         : MEncoder version 3.8.5 building on 20100625
  Duration: 01:46:05.10, start: 0.000000, bitrate: 13 kb/s
    Stream #0:0: Video: mpeg4 (Advanced Simple Profile) (XVID / 0x44495658), yuv420p, 692x388 [SAR 1:1 DAR 173:97], SAR 794624:794589 DAR 8192:4593, 23.98 tbr, 23.98 tbn, 23.98 tbc
    Stream #0:1: Audio: ac3 ([0] [0][0] / 0x2000), 48000 Hz, 5.1(side), s16, 448 kb/s
[ac3 @ 0x14f3a00] frame sync error86KB vq=   27KB sq=    0B f=0/0   0/0
  19.82 A-V: -0.325 fd=   0 aq=   95KB vq=    2KB sq=    0B f=0/0

Legend:

Unmodified
Added
Removed
Modified
  • Ticket #1182

    • Property Priority changed from normal to minor
    • Property Status changed from new to open
    • Property Version changed from unspecified to git-master
    • Property Reproduced by developer set