Changes between Initial Version and Version 1 of Ticket #1137


Ignore:
Timestamp:
Mar 27, 2012, 10:04:20 PM (4 years ago)
Author:
cehoyos
Comment:

(I wonder if using ffv1 for the sample instead of for example mpeg4 really is a good idea.)

Legend:

Unmodified
Added
Removed
Modified
  • Ticket #1137

    • Property Status changed from new to open
    • Property Component changed from undetermined to avformat
    • Property Priority changed from normal to wish
    • Property Version changed from unspecified to git-master
    • Property Keywords mov added; quicktime removed
    • Property Reproduced by developer set
  • Ticket #1137 – Description

    initial v1  
    4040    Stream #0:0(eng), 1, 1/25: Video: ffv1 (FFV1 / 0x31564646), bgr0, 320x240, 825 kb/s, 25 fps, 25 tbr, 25 tbn, 25 tbc 
    4141    Metadata: 
    42       handler_name    : Apple Alias Data Handler 
     42      handler_name    : Apple Alias Data Handler 
    4343[buffer @ 0x7fb7fa4195a0] w:320 h:240 pixfmt:bgr0 tb:1/1000000 sar:0/1 sws_param: 
    4444[ffv1 @ 0x7fb7fa87da00] detected 8 logical cores 
     
    5353    Stream #0:0(eng), 0, 1/25: Video: ffv1, bgr0, 320x240, q=2-31, 200 kb/s, 25 tbn, 25 tbc 
    5454    Metadata: 
    55       handler_name    : Apple Alias Data Handler 
     55      handler_name    : Apple Alias Data Handler 
    5656Stream mapping: 
    5757  Stream #0:0 -> #0:0 (ffv1 -> ffv1)