Changes between Initial Version and Version 1 of Ticket #1034, comment 2


Ignore:
Timestamp:
Mar 5, 2012, 9:27:07 AM (4 years ago)
Author:
Krieger
Comment:

Legend:

Unmodified
Added
Removed
Modified
  • Ticket #1034, comment 2

    initial v1  
     1 
     2{{{ 
    13ffmpeg -i http://streams.videolan.org/samples/MPEG-VOB/LPCM/Fever.vob -loglevel debug 
    24ffmpeg version N-38519-g14aa1ba Copyright (c) 2000-2012 the FFmpeg developers 
     
    3234    Stream #0:0[0x1e0], 123, 1/90000: Video: mpeg2video (Main), yuv420p, 720x576 [SAR 16:15 DAR 4:3], 1/50, 5096 kb/s, 25 fps, 25 tbr, 90k tbn, 50 tbc 
    3335    Stream #0:1[0xa0], 481, 1/90000: Audio: pcm_s16be, 48000 Hz, 2 channels, s16, 1536 kb/s 
     36}}}