Ticket #962: ffmpeg-20120131-173344.log

File ffmpeg-20120131-173344.log, 6.6 KB (added by bgk, 5 years ago)
Line 
1ffmpeg started on 2012-01-31 at 17:33:44
2Report written to "ffmpeg-20120131-173344.log"
3Command line:
4ffmpeg -v 9 -loglevel 99 -i dump/NACH-19248.bik "19248-%d.png" -report
5ffmpeg version 0.9.1-4:0.9.1-0ubuntu1~jon1~lucid1, Copyright (c) 2000-2012 the FFmpeg developers
6  built on Jan  7 2012 15:05:17 with gcc 4.4.3
7  configuration: --extra-version='4:0.9.1-0ubuntu1~jon1~lucid1' --arch=i386 --prefix=/usr --disable-stripping --enable-vdpau --enable-bzlib --enable-libgsm --enable-libschroedinger --enable-libspeex --enable-libtheora --enable-libvorbis --enable-pthreads --enable-zlib --enable-libvpx --enable-runtime-cpudetect --enable-libfreetype --enable-gpl --enable-postproc --enable-x11grab --enable-libdc1394 --enable-shared --disable-static
8  WARNING: library configuration mismatch
9  avutil      configuration: --extra-version='4:0.9.1-0ubuntu1~jon1~lucid1' --arch=i386 --prefix=/usr --disable-stripping --enable-vdpau --enable-bzlib --enable-libgsm --enable-libschroedinger --enable-libspeex --enable-libtheora --enable-libvorbis --enable-pthreads --enable-zlib --enable-libvpx --enable-runtime-cpudetect --enable-libfreetype --enable-gpl --enable-postproc --enable-x11grab --enable-libdc1394 --shlibdir=/usr/lib/i686/cmov --cpu=i686 --enable-shared --disable-static --disable-ffmpeg --disable-ffplay --disable-ffprobe --disable-ffserver --disable-avconv
10  avcodec     configuration: --extra-version='4:0.9.1-0ubuntu1~jon1~lucid1' --arch=i386 --prefix=/usr --disable-stripping --enable-vdpau --enable-bzlib --enable-libgsm --enable-libschroedinger --enable-libspeex --enable-libtheora --enable-libvorbis --enable-pthreads --enable-zlib --enable-libvpx --enable-runtime-cpudetect --enable-libfreetype --enable-gpl --enable-postproc --enable-x11grab --enable-libdc1394 --shlibdir=/usr/lib/i686/cmov --cpu=i686 --enable-shared --disable-static --disable-ffmpeg --disable-ffplay --disable-ffprobe --disable-ffserver --disable-avconv
11  avformat    configuration: --extra-version='4:0.9.1-0ubuntu1~jon1~lucid1' --arch=i386 --prefix=/usr --disable-stripping --enable-vdpau --enable-bzlib --enable-libgsm --enable-libschroedinger --enable-libspeex --enable-libtheora --enable-libvorbis --enable-pthreads --enable-zlib --enable-libvpx --enable-runtime-cpudetect --enable-libfreetype --enable-gpl --enable-postproc --enable-x11grab --enable-libdc1394 --shlibdir=/usr/lib/i686/cmov --cpu=i686 --enable-shared --disable-static --disable-ffmpeg --disable-ffplay --disable-ffprobe --disable-ffserver --disable-avconv
12  avdevice    configuration: --extra-version='4:0.9.1-0ubuntu1~jon1~lucid1' --arch=i386 --prefix=/usr --disable-stripping --enable-vdpau --enable-bzlib --enable-libgsm --enable-libschroedinger --enable-libspeex --enable-libtheora --enable-libvorbis --enable-pthreads --enable-zlib --enable-libvpx --enable-runtime-cpudetect --enable-libfreetype --enable-gpl --enable-postproc --enable-x11grab --enable-libdc1394 --shlibdir=/usr/lib/i686/cmov --cpu=i686 --enable-shared --disable-static --disable-ffmpeg --disable-ffplay --disable-ffprobe --disable-ffserver --disable-avconv
13  avfilter    configuration: --extra-version='4:0.9.1-0ubuntu1~jon1~lucid1' --arch=i386 --prefix=/usr --disable-stripping --enable-vdpau --enable-bzlib --enable-libgsm --enable-libschroedinger --enable-libspeex --enable-libtheora --enable-libvorbis --enable-pthreads --enable-zlib --enable-libvpx --enable-runtime-cpudetect --enable-libfreetype --enable-gpl --enable-postproc --enable-x11grab --enable-libdc1394 --shlibdir=/usr/lib/i686/cmov --cpu=i686 --enable-shared --disable-static --disable-ffmpeg --disable-ffplay --disable-ffprobe --disable-ffserver --disable-avconv
14  swscale     configuration: --extra-version='4:0.9.1-0ubuntu1~jon1~lucid1' --arch=i386 --prefix=/usr --disable-stripping --enable-vdpau --enable-bzlib --enable-libgsm --enable-libschroedinger --enable-libspeex --enable-libtheora --enable-libvorbis --enable-pthreads --enable-zlib --enable-libvpx --enable-runtime-cpudetect --enable-libfreetype --enable-gpl --enable-postproc --enable-x11grab --enable-libdc1394 --shlibdir=/usr/lib/i686/cmov --cpu=i686 --enable-shared --disable-static --disable-ffmpeg --disable-ffplay --disable-ffprobe --disable-ffserver --disable-avconv
15  postproc    configuration: --extra-version='4:0.9.1-0ubuntu1~jon1~lucid1' --arch=i386 --prefix=/usr --disable-stripping --enable-vdpau --enable-bzlib --enable-libgsm --enable-libschroedinger --enable-libspeex --enable-libtheora --enable-libvorbis --enable-pthreads --enable-zlib --enable-libvpx --enable-runtime-cpudetect --enable-libfreetype --enable-gpl --enable-postproc --enable-x11grab --enable-libdc1394 --shlibdir=/usr/lib/i686/cmov --cpu=i686 --enable-shared --disable-static --disable-ffmpeg --disable-ffplay --disable-ffprobe --disable-ffserver --disable-avconv
16  libavutil    51. 32. 0 / 51. 32. 0
17  libavcodec   53. 42. 4 / 53. 42. 4
18  libavformat  53. 24. 2 / 53. 24. 2
19  libavdevice  53.  4. 0 / 53.  4. 0
20  libavfilter   2. 53. 0 /  2. 53. 0
21  libswscale    2.  1. 0 /  2.  1. 0
22  libpostproc  52.  0. 0 / 52.  0. 0
23[bink @ 0x98611e0] Format bink probed with size=2048 and score=100
24[binkvideo @ 0x9867be0] err{or,}_recognition separate: 1; 1
25[binkvideo @ 0x9867be0] err{or,}_recognition combined: 1; 65537
26[binkvideo @ 0x9867be0] Unsupported bit depth: 0
27[bink @ 0x98611e0] All info found
28Input #0, bink, from 'dump/NACH-19248.bik':
29  Duration: 00:00:00.06, start: 0.000000, bitrate: 44 kb/s
30    Stream #0:0, 1, 1/15: Video: binkvideo (BIKi / 0x694B4942), yuva420p, 24x48, 1/15, 15 tbr, 15 tbn, 15 tbc
31Incompatible pixel format 'yuva420p' for codec 'png', auto-selecting format 'rgb24'
32[buffer @ 0x9867ae0] w:24 h:48 pixfmt:yuva420p tb:1/1000000 sar:0/1 sws_param:
33[buffersink @ 0x98735c0] auto-inserting filter 'auto-inserted scale 0' between the filter 'src' and the filter 'out'
34[scale @ 0x9873aa0] w:24 h:48 fmt:yuva420p -> w:24 h:48 fmt:rgb24 flags:0x4
35[png @ 0x98676e0] err{or,}_recognition separate: 1; 1
36[png @ 0x98676e0] err{or,}_recognition combined: 1; 65537
37[png @ 0x98676e0] Unsupported bit depth: 0
38[binkvideo @ 0x9867be0] err{or,}_recognition separate: 1; 65537
39[binkvideo @ 0x9867be0] err{or,}_recognition combined: 1; 65537
40[binkvideo @ 0x9867be0] Unsupported bit depth: 0
41Output #0, image2, to '19248-%d.png':
42  Metadata:
43    encoder         : Lavf53.24.2
44    Stream #0:0, 0, 1/90000: Video: png, rgb24, 24x48, 1/15, q=2-31, 200 kb/s, 90k tbn, 15 tbc
45Stream mapping:
46  Stream #0:0 -> #0:0 (binkvideo -> png)
47Press [q] to stop, [?] for help
48Error while decoding stream #0:0
49frame=    0 fps=  0 q=0.0 Lsize=       0kB time=00:00:00.00 bitrate=   0.0kbits/s   
50video:0kB audio:0kB global headers:0kB muxing overhead -nan%
51Output file is empty, nothing was encoded (check -ss / -t / -frames parameters if used)