Ticket #957: ffmpeg-20120130-122028.log

File ffmpeg-20120130-122028.log, 6.7 KB (added by swybo, 5 years ago)

output report

Line 
1ffmpeg started on 2012-01-30 at 12:20:28
2Report written to "ffmpeg-20120130-122028.log"
3Command line:
4ffmpeg -v 9 -loglevel 99 -i MJPEGVideoWithDFrames.avi output.avi -report
5ffmpeg version N-37208-g01fcbdf Copyright (c) 2000-2012 the FFmpeg developers
6  built on Jan 27 2012 18:34:52 with gcc 4.6.2
7  configuration: --enable-gpl --enable-version3 --disable-w32threads --enable-runtime-cpudetect --enable-avisynth --enable-bzlib --enable-frei0r --enable-libopencore-amrnb --enable-libopencore-amrwb --enable-libfreetype --enable-libgsm --enable-libmp3lame --enable-libopenjpeg --enable-librtmp --enable-libschroedinger --enable-libspeex --enable-libtheora --enable-libvo-aacenc --enable-libvo-amrwbenc --enable-libvorbis --enable-libvpx --enable-libx264 --enable-libxavs --enable-libxvid --enable-zlib
8  libavutil      51. 34.101 / 51. 34.101
9  libavcodec     53. 60.100 / 53. 60.100
10  libavformat    53. 31.100 / 53. 31.100
11  libavdevice    53.  4.100 / 53.  4.100
12  libavfilter     2. 60.100 /  2. 60.100
13  libswscale      2.  1.100 /  2.  1.100
14  libswresample   0.  6.100 /  0.  6.100
15  libpostproc    52.  0.100 / 52.  0.100
16[avi @ 01D7AAA0] Format avi probed with size=2048 and score=100
17[AVI demuxer @ 01D7B040] use odml:1
18st:0 removing common factor 40000 from timebase
19[avi @ 01D7AAA0] non-interleaved AVI
20[mjpeg @ 01D7B2E0] err{or,}_recognition separate: 1; 1
21[mjpeg @ 01D7B2E0] err{or,}_recognition combined: 1; 10001
22[mjpeg @ 01D7B2E0] Unsupported bit depth: 0
23[mjpeg @ 01D7B2E0] marker=d8 avail_size_in_buf=td
24[mjpeg @ 01D7B2E0] marker parser used 0 bytes (0 bits)
25[mjpeg @ 01D7B2E0] marker=e0 avail_size_in_buf=td
26[mjpeg @ 01D7B2E0] marker parser used 16 bytes (128 bits)
27[mjpeg @ 01D7B2E0] marker=db avail_size_in_buf=td
28[mjpeg @ 01D7B2E0] index=0
29[mjpeg @ 01D7B2E0] qscale[0]: 4
30[mjpeg @ 01D7B2E0] marker parser used 67 bytes (536 bits)
31[mjpeg @ 01D7B2E0] marker=db avail_size_in_buf=td
32[mjpeg @ 01D7B2E0] index=1
33[mjpeg @ 01D7B2E0] qscale[1]: 8
34[mjpeg @ 01D7B2E0] marker parser used 67 bytes (536 bits)
35[mjpeg @ 01D7B2E0] marker=c0 avail_size_in_buf=td
36[mjpeg @ 01D7B2E0] sof0: picture: 768x608
37[mjpeg @ 01D7B2E0] component 0 2:2 id: 0 quant:0
38[mjpeg @ 01D7B2E0] component 1 1:1 id: 1 quant:1
39[mjpeg @ 01D7B2E0] component 2 1:1 id: 2 quant:1
40[mjpeg @ 01D7B2E0] pix fmt id 22111100
41[mjpeg @ 01D7B2E0] marker parser used 17 bytes (136 bits)
42[mjpeg @ 01D7B2E0] marker=c4 avail_size_in_buf=td
43[mjpeg @ 01D7B2E0] class=0 index=0 nb_codes=12
44[mjpeg @ 01D7B2E0] marker parser used 31 bytes (248 bits)
45[mjpeg @ 01D7B2E0] marker=c4 avail_size_in_buf=td
46[mjpeg @ 01D7B2E0] class=1 index=0 nb_codes=251
47[mjpeg @ 01D7B2E0] marker parser used 181 bytes (1448 bits)
48[mjpeg @ 01D7B2E0] marker=c4 avail_size_in_buf=td
49[mjpeg @ 01D7B2E0] class=0 index=1 nb_codes=12
50[mjpeg @ 01D7B2E0] marker parser used 31 bytes (248 bits)
51[mjpeg @ 01D7B2E0] marker=c4 avail_size_in_buf=td
52[mjpeg @ 01D7B2E0] class=1 index=1 nb_codes=251
53[mjpeg @ 01D7B2E0] marker parser used 181 bytes (1448 bits)
54[mjpeg @ 01D7B2E0] escaping removed td bytes
55[mjpeg @ 01D7B2E0] marker=da avail_size_in_buf=td
56[mjpeg @ 01D7B2E0] component: 0
57[mjpeg @ 01D7B2E0] component: 1
58[mjpeg @ 01D7B2E0] component: 2
59[mjpeg @ 01D7B2E0] marker parser used 30908 bytes (247263 bits)
60[mjpeg @ 01D7B2E0] marker=d9 avail_size_in_buf=td
61[mjpeg @ 01D7B2E0] mjpeg decode frame unused td bytes
62[avi @ 01D7AAA0] All info found
63Input #0, avi, from 'MJPEGVideoWithDFrames.avi':
64  Duration: 00:00:25.24, start: 0.000000, bitrate: 2217 kb/s
65    Stream #0:0, 1, 1/25: Video: mjpeg (MJPG / 0x47504A4D), yuvj420p, 768x608 [SAR 1:1 DAR 24:19], 1/25, 25 tbr, 25 tbn, 25 tbc
66Incompatible pixel format 'yuvj420p' for codec 'mpeg4', auto-selecting format 'yuv420p'
67[buffer @ 04028000] w:768 h:608 pixfmt:yuvj420p tb:1/1000000 sar:1/1 sws_param:
68[buffersink @ 04042140] auto-inserting filter 'auto-inserted scale 0' between the filter 'src' and the filter 'out'
69[scale @ 04042520] w:768 h:608 fmt:yuvj420p -> w:768 h:608 fmt:yuv420p flags:0x4
70[mpeg4 @ 040277C0] err{or,}_recognition separate: 1; 1
71[mpeg4 @ 040277C0] err{or,}_recognition combined: 1; 10001
72[mpeg4 @ 040277C0] detected 16 logical cores
73[mpeg4 @ 040277C0] intra_quant_bias = 0 inter_quant_bias = -64
74[mpeg4 @ 040277C0] Unsupported bit depth: 0
75[mjpeg @ 01D7B2E0] err{or,}_recognition separate: 1; 10001
76[mjpeg @ 01D7B2E0] err{or,}_recognition combined: 1; 10001
77[mjpeg @ 01D7B2E0] Unsupported bit depth: 0
78Output #0, avi, to 'output.avi':
79  Metadata:
80    ISFT            : Lavf53.31.100
81    Stream #0:0, 0, 1/25: Video: mpeg4 (FMP4 / 0x34504D46), yuv420p, 768x608 [SAR 1:1 DAR 24:19], 1/25, q=2-31, 200 kb/s, 25 tbn, 25 tbc
82Stream mapping:
83  Stream #0:0 -> #0:0 (mjpeg -> mpeg4)
84Press [q] to stop, [?] for help
85[mjpeg @ 01D7B2E0] marker=d8 avail_size_in_buf=td
86[mjpeg @ 01D7B2E0] marker parser used 0 bytes (0 bits)
87[mjpeg @ 01D7B2E0] marker=e0 avail_size_in_buf=td
88[mjpeg @ 01D7B2E0] marker parser used 16 bytes (128 bits)
89[mjpeg @ 01D7B2E0] marker=db avail_size_in_buf=td
90[mjpeg @ 01D7B2E0] index=0
91[mjpeg @ 01D7B2E0] qscale[0]: 4
92[mjpeg @ 01D7B2E0] marker parser used 67 bytes (536 bits)
93[mjpeg @ 01D7B2E0] marker=db avail_size_in_buf=td
94[mjpeg @ 01D7B2E0] index=1
95[mjpeg @ 01D7B2E0] qscale[1]: 8
96[mjpeg @ 01D7B2E0] marker parser used 67 bytes (536 bits)
97[mjpeg @ 01D7B2E0] marker=c0 avail_size_in_buf=td
98[mjpeg @ 01D7B2E0] sof0: picture: 768x608
99[mjpeg @ 01D7B2E0] component 0 2:2 id: 0 quant:0
100[mjpeg @ 01D7B2E0] component 1 1:1 id: 1 quant:1
101[mjpeg @ 01D7B2E0] component 2 1:1 id: 2 quant:1
102[mjpeg @ 01D7B2E0] pix fmt id 22111100
103[mjpeg @ 01D7B2E0] marker parser used 17 bytes (136 bits)
104[mjpeg @ 01D7B2E0] marker=c4 avail_size_in_buf=td
105[mjpeg @ 01D7B2E0] class=0 index=0 nb_codes=12
106[mjpeg @ 01D7B2E0] marker parser used 31 bytes (248 bits)
107[mjpeg @ 01D7B2E0] marker=c4 avail_size_in_buf=td
108[mjpeg @ 01D7B2E0] class=1 index=0 nb_codes=251
109[mjpeg @ 01D7B2E0] marker parser used 181 bytes (1448 bits)
110[mjpeg @ 01D7B2E0] marker=c4 avail_size_in_buf=td
111[mjpeg @ 01D7B2E0] class=0 index=1 nb_codes=12
112[mjpeg @ 01D7B2E0] marker parser used 31 bytes (248 bits)
113[mjpeg @ 01D7B2E0] marker=c4 avail_size_in_buf=td
114[mjpeg @ 01D7B2E0] class=1 index=1 nb_codes=251
115[mjpeg @ 01D7B2E0] marker parser used 181 bytes (1448 bits)
116[mjpeg @ 01D7B2E0] escaping removed td bytes
117[mjpeg @ 01D7B2E0] marker=da avail_size_in_buf=td
118[mjpeg @ 01D7B2E0] component: 0
119[mjpeg @ 01D7B2E0] component: 1
120[mjpeg @ 01D7B2E0] component: 2
121[mjpeg @ 01D7B2E0] marker parser used 30908 bytes (247263 bits)
122[mjpeg @ 01D7B2E0] marker=d9 avail_size_in_buf=td
123[mjpeg @ 01D7B2E0] mjpeg decode frame unused td bytes
124frame=    1 fps=  0 q=4.4 Lsize=      29kB time=00:00:00.04 bitrate=5897.2kbits/s   
125
126video:23kB audio:0kB global headers:0kB muxing overhead 24.392508%