Ticket #945: ffplay.log

File ffplay.log, 5.6 KB (added by twinther, 5 years ago)
Line 
1./ffplay -loglevel 99 -v 99 "rtsp://62.242.233.129/rtpencoder/e20_wcif.sdp?ir=850000&life=0&ttl=20&ip&gtime=1327696807&tn=key5&guid=BY+3QCtVQC//qQ==ACEow69c&da=0&key=T/iKkDNqzGHLL2QV3IUPMQ=="
2ffplay version N-37208-g01fcbdf Copyright (c) 2003-2012 the FFmpeg developers
3  built on Jan 27 2012 17:55:23 with gcc 4.6.1
4  configuration:
5  libavutil      51. 34.101 / 51. 34.101
6  libavcodec     53. 60.100 / 53. 60.100
7  libavformat    53. 31.100 / 53. 31.100
8  libavdevice    53.  4.100 / 53.  4.100
9  libavfilter     2. 60.100 /  2. 60.100
10  libswscale      2.  1.100 /  2.  1.100
11  libswresample   0.  6.100 /  0.  6.100
12[rtsp @ 0x7ff5f80008e0] SDP:
13v=0
14o=- 711028 711028 IN IP4 62.242.233.137
15s=mpegable DS - Digital Rapids
16i=<No author> <No copyright>
17c=IN IP4 0.0.0.0
18t=0 0
19a=StreamCount:integer;2
20a=control:*
21a=LiveStream:integer;1
22a=Title:buffer;"bXBlZ2FibGUgRFMgLSBEaWdpdGFsIFJhcGlkcwA="
23a=range:npt=0-
24m=audio 22010 RTP/AVP 97
25b=AS:56
26b=TIAS:48000
27b=RR:960
28b=RS:480
29a=maxprate:16.000000
30a=control:streamid=1
31a=range:npt=0-
32a=length:npt=0
33a=rtpmap:97 mpeg4-generic/90000/2
34a=fmtp:97 streamtype=5;profile-level-id=1;mode=AAC-hbr;sizelength=13;indexlength=3;indexdeltalength=3;bitrate=48000;config=1390
35a=mimetype:string;"audio/mpeg4-generic"
36a=3GPP-Adaptation-Support:1
37a=Helix-Adaptation-Support:1
38a=ForceRTP:integer;1
39m=video 22012 RTP/AVP 96
40b=AS:210
41b=TIAS:202000
42b=RR:4040
43b=RS:2020
44a=maxprate:16.000000
45a=control:streamid=2
46a=range:npt=0-
47a=length:npt=0
48a=rtpmap:96 H264/90000
49a=fmtp:96 packetization-mode=1;profile-level-id=42E01E;sprop-parameter-sets=Z0LgHpZUBAEtgKBAAAADAEAAAAyh,aM4GDMg=
50a=mimaudio codec set to: aac
51[rtsp @ 0x7ff5f80008e0] audio samplerate set to: 90000
52[rtsp @ 0x7ff5f80008e0] audio channels set to: 2
53[rtsp @ 0x7ff5f80008e0] video codec set to: h264
54[NULL @ 0x7ff5f800f900] RTP Packetization Mode: 1
55[NULL @ 0x7ff5f800f900] RTP Profile IDC: 42 Profile IOP: e0 Level: 1e
56[NULL @ 0x7ff5f800f900] Extradata set to 0x7ff5f800ff60 (size: 32)!method SETUP failed: 461 Unsupported transport
57[rtsp @ 0x7ff5f80008e0] CSeq: 4
58Date: Fri, 27 Jan 2012 20:40:12 GMT
59
60[rtsp @ 0x7ff5f80008e0] hello state=0
61[aac @ 0x7ff5f8009160] err{or,}_recognition separate: 1; 1
62[aac @ 0x7ff5f8009160] err{or,}_recognition combined: 1; 10001
63[aac @ 0x7ff5f8009160] Unsupported bit depth: 0
64[rtsp @ 0x7ff5f80008e0] hello state=1
65[h264 @ 0x7ff5f800f900] err{or,}_recognition separate: 1; 1
66[h264 @ 0x7ff5f800f900] err{or,}_recognition combined: 1; 10001
67[h264 @ 0x7ff5f800f900] Missing reference picture
68[h264 @ 0x7ff5f800f900] decode_slice_header error
69[h264 @ 0x7ff5f800f900] concealing 576 DC, 576 AC, 576 MV errors
70[rtsp @ 0x7ff5f80008e0] All info found
71rfps: 24.416667 0.015430
72rfps: 24.500000 0.011023
73    Last message repeated 1 times
74rfps: 24.583333 0.007358
75    Last message repeated 1 times
76rfps: 24.666667 0.004434
77    Last message repeated 1 times
78rfps: 24.750000 0.002251
79    Last message repeated 1 times
80rfps: 24.833333 0.000811
81    Last message repeated 1 times
82rfps: 24.916667 0.000112
83    Last message repeated 1 times
84rfps: 25.000000 0.000155
85rfps: 25.083333 0.000939
86    Last message repeated 1 times
87rfps: 25.166667 0.002465
88    Last message repeated 1 times
89rfps: 25.250000 0.004733
90    Last message repeated 1 times
91rfps: 25.333333 0.007742
92    Last message repeated 1 times
93rfps: 25.416667 0.011493
94    Last message repeated 1 times
95rfps: 25.500000 0.015985
96    Last message repeated 1 times
97rfps: 49.333333 0.017735
98rfps: 49.416667 0.013000
99    Last message repeated 1 times
100rfps: 49.500000 0.009006
101    Last message repeated 1 times
102rfps: 49.583333 0.005754
103    Last message repeated 1 times
104rfps: 49.666667 0.003244
105    Last message repeated 1 times
106rfps: 49.750000 0.001475
107    Last message repeated 1 times
108rfps: 49.833333 0.000448
109    Last message repeated 1 times
110rfps: 49.916667 0.000163
111rfps: 50.000000 0.000619
112rfps: 50.083333 0.001817
113    Last message repeated 1 times
114rfps: 50.166667 0.003756
115    Last message repeated 1 times
116rfps: 50.250000 0.006437
117    Last message repeated 1 times
118rfps: 50.333333 0.009860
119    Last message repeated 1 times
120rfps: 50.416667 0.014025
121    Last message repeated 1 times
122rfps: 50.500000 0.018931
123[rtsp @ 0x7ff5f80008e0] Estimating duration from bitrate, this may be inaccurate
124Input #0, rtsp, from 'rtsp://62.242.233.129/rtpencoder/e20_wcif.sdp?ir=850000&life=0&ttl=20&ip&gtime=1327696807&tn=key5&guid=BY+3QCtVQC//qQ==ACEow69c&da=0&key=T/iKkDNqzGHLL2QV3IUPMQ==':
125  Metadata:
126    title           : mpegable DS - Digital Rapids
127    comment         : <No author> <No copyright>
128  Duration: N/A, start: 0.042000, bitrate: N/A
129    Stream #0:0, 20, 1/90000: Audio: aac, 44100 Hz, stereo, s16
130    Stream #0:1, 22, 1/90000: Video: h264 (Constrained Baseline), yuv420p, 512x288 [SAR 1:1 DAR 16:9], 1/50, 25 fps, 24.92 tbr, 90k tbn, 50 tbc
131[aac @ 0x7ff5f8009160] err{or,}_recognition separate: 1; 10001
132[aac @ 0x7ff5f8009160] err{or,}_recognition combined: 1; 10001
133[aac @ 0x7ff5f8009160] Unsupported bit depth: 0
134[h264 @ 0x7ff5f800f900] err{or,}_recognition separate: 1; 10001
135[h264 @ 0x7ff5f800f900] err{or,}_recognition combined: 1; 10001
136[h264 @ 0x7ff5f800f900] detected 4 logical cores
137[h264 @ 0x7ff5f80835a0] Missing reference picture
138[h264 @ 0x7ff5f80835a0] decode_slice_header error
139[h264 @ 0x7ff5f80835a0] concealing 576 DC, 576 AC, 576 MV errors
140[h264 @ 0x7ff5f800f900] Current profile doesn't provide more RBSP data in PPS, skipping
141    Last message repeated 33 times 5KB vq=   14KB sq=    0B f=0/0   f=0/0   
142[rtsp @ 0x7ff5f80008e0] CSeq 10 expected, 1 received.
143 168.37 A-V:  0.644 fd=   4 aq=    0KB vq=    0KB sq=    0B f=0/0   
144./ffplay -loglevel 99 -v 99   8,41s user 3,79s system 7% cpu 2:52,69 total
145