Ticket #902: valgrind

File valgrind, 4.5 KB (added by oanastratulat, 5 years ago)

valgrind report

Line 
1==23880== Memcheck, a memory error detector
2==23880== Copyright (C) 2002-2010, and GNU GPL'd, by Julian Seward et al.
3==23880== Using Valgrind-3.6.1-Debian and LibVEX; rerun with -h for copyright info
4==23880== Command: ./ffmpeg_g -i /home/ungureanu/seg11 -f null -
5==23880==
6ffmpeg version N-36616-g7ddb55b Copyright (c) 2000-2012 the FFmpeg developers
7  built on Jan  9 2012 00:57:53 with gcc 4.6.1
8  configuration: --disable-optimizations
9  libavutil      51. 34.100 / 51. 34.100
10  libavcodec     53. 54.100 / 53. 54.100
11  libavformat    53. 29.100 / 53. 29.100
12  libavdevice    53.  4.100 / 53.  4.100
13  libavfilter     2. 58.100 /  2. 58.100
14  libswscale      2.  1.100 /  2.  1.100
15  libswresample   0.  5.100 /  0.  5.100
16[fraps @ 0x4ba49a0] Too high symbol frequencies. Tree construction is not possible
17[fraps @ 0x4ba49a0] Error decoding plane 0
18Input #0, avi, from '/home/ungureanu/seg11':
19  Metadata:
20    encoder         : Lavf52.9.0
21  Duration: 00:00:09.50, start: 0.000000, bitrate: 1766 kb/s
22    Stream #0:0: Video: fraps (FPS1 / 0x31535046), yuvj420p, 640x512, 30 tbr, 30 tbn, 30 tbc
23[buffer @ 0x4c58520] w:640 h:512 pixfmt:yuvj420p tb:1/1000000 sar:0/1 sws_param:
24Output #0, null, to 'pipe:':
25  Metadata:
26    encoder         : Lavf53.29.100
27    Stream #0:0: Video: rawvideo (I420 / 0x30323449), yuvj420p, 640x512, q=2-31, 200 kb/s, 90k tbn, 30 tbc
28Stream mapping:
29  Stream #0:0 -> #0:0 (fraps -> rawvideo)
30Press [q] to stop, [?] for help
31[fraps @ 0x4ba49a0] Too high symbol frequencies. Tree construction is not possible
32[fraps @ 0x4ba49a0] Error decoding plane 0
33Error while decoding stream #0:0
34[fraps @ 0x4ba49a0] Too high symbol frequencies. Tree construction is not possible
35[fraps @ 0x4ba49a0] Error decoding plane 0
36Error while decoding stream #0:0
37[fraps @ 0x4ba49a0] Too high symbol frequencies. Tree construction is not possible
38[fraps @ 0x4ba49a0] Error decoding plane 0
39Error while decoding stream #0:0
40[fraps @ 0x4ba49a0] Error decoding plane 1
41Error while decoding stream #0:0
42==23880== Invalid read of size 4
43==23880==    at 0x4029D4D: memcpy (mc_replace_strmem.c:635)
44==23880==    by 0x8696AD8: av_image_copy_plane (imgutils.c:239)
45==23880==    by 0x8696CD7: av_image_copy (imgutils.c:272)
46==23880==    by 0x833F97B: av_picture_copy (imgconvert.c:528)
47==23880==    by 0x84A33B8: avcodec_default_reget_buffer (utils.c:586)
48==23880==    by 0x82ACD24: decode_frame (fraps.c:260)
49==23880==    by 0x84A459D: avcodec_decode_video2 (utils.c:998)
50==23880==    by 0x8051520: transcode_video (ffmpeg.c:2056)
51==23880==    by 0x8051EDD: output_packet (ffmpeg.c:2237)
52==23880==    by 0x80554F2: transcode (ffmpeg.c:3009)
53==23880==    by 0x805CE69: main (ffmpeg.c:5092)
54==23880==  Address 0x19c is not stack'd, malloc'd or (recently) free'd
55==23880==
56==23880==
57==23880== Process terminating with default action of signal 11 (SIGSEGV)
58==23880==  Access not within mapped region at address 0x19C
59==23880==    at 0x4029D4D: memcpy (mc_replace_strmem.c:635)
60==23880==    by 0x8696AD8: av_image_copy_plane (imgutils.c:239)
61==23880==    by 0x8696CD7: av_image_copy (imgutils.c:272)
62==23880==    by 0x833F97B: av_picture_copy (imgconvert.c:528)
63==23880==    by 0x84A33B8: avcodec_default_reget_buffer (utils.c:586)
64==23880==    by 0x82ACD24: decode_frame (fraps.c:260)
65==23880==    by 0x84A459D: avcodec_decode_video2 (utils.c:998)
66==23880==    by 0x8051520: transcode_video (ffmpeg.c:2056)
67==23880==    by 0x8051EDD: output_packet (ffmpeg.c:2237)
68==23880==    by 0x80554F2: transcode (ffmpeg.c:3009)
69==23880==    by 0x805CE69: main (ffmpeg.c:5092)
70==23880==  If you believe this happened as a result of a stack
71==23880==  overflow in your program's main thread (unlikely but
72==23880==  possible), you can try to increase the size of the
73==23880==  main thread stack using the --main-stacksize= flag.
74==23880==  The main thread stack size used in this run was 8388608.
75==23880==
76==23880== HEAP SUMMARY:
77==23880==     in use at exit: 4,757,281 bytes in 63 blocks
78==23880==   total heap usage: 170 allocs, 107 frees, 7,544,634 bytes allocated
79==23880==
80==23880== LEAK SUMMARY:
81==23880==    definitely lost: 8 bytes in 1 blocks
82==23880==    indirectly lost: 18 bytes in 3 blocks
83==23880==      possibly lost: 0 bytes in 0 blocks
84==23880==    still reachable: 4,757,255 bytes in 59 blocks
85==23880==         suppressed: 0 bytes in 0 blocks
86==23880== Rerun with --leak-check=full to see details of leaked memory
87==23880==
88==23880== For counts of detected and suppressed errors, rerun with: -v
89==23880== ERROR SUMMARY: 1 errors from 1 contexts (suppressed: 81 from 8)