Ticket #862: ffmpeg.verbose.log

File ffmpeg.verbose.log, 2.5 KB (added by vlada.matena, 5 years ago)

Output of "ffmpeg -loglevel verbose -scodec srt -i source.mkv -y target.srt"

Line 
1ffmpeg -loglevel verbose -scodec srt -i source.mkv -y target.srt
2ffmpeg version N-36274-gbace181, Copyright (c) 2000-2011 the FFmpeg developers
3  built on Jan  1 2012 11:39:25 with gcc 4.5.3
4  configuration: --prefix=/usr --libdir=/usr/lib64 --shlibdir=/usr/lib64 --mandir=/usr/share/man --enable-shared --cc=x86_64-pc-linux-gnu-gcc --cxx=x86_64-pc-linux-gnu-g++ --ar=x86_64-pc-linux-gnu-ar --optflags='-march=native -O3 -pipe' --extra-cflags='-march=native -O3 -pipe' --extra-cxxflags='-march=native -O3 -pipe' --disable-static --enable-gpl --enable-version3 --enable-postproc --enable-avfilter --disable-stripping --disable-debug --disable-doc --disable-network --disable-vdpau --enable-libmp3lame --enable-libvo-aacenc --enable-libvo-amrwbenc --enable-libtheora --enable-libvorbis --enable-libx264 --enable-libxvid --enable-libaacplus --enable-nonfree --enable-libfaac --enable-nonfree --enable-libcdio --enable-libdc1394 --disable-indev=v4l --disable-indev=oss --disable-indev=jack --enable-x11grab --enable-libv4l2 --disable-outdev=oss --enable-libfreetype --enable-libass --enable-pthreads --enable-libopencore-amrwb --enable-libopencore-amrnb --enable-libgsm --enable-librtmp --enable-libspeex
5  libavutil      51. 33.100 / 51. 33.100
6  libavcodec     53. 49.100 / 53. 49.100
7  libavformat    53. 29.100 / 53. 29.100
8  libavdevice    53.  4.100 / 53.  4.100
9  libavfilter     2. 55.100 /  2. 55.100
10  libswscale      2.  1.100 /  2.  1.100
11  libswresample   0.  5.100 /  0.  5.100
12  libpostproc    51.  2.100 / 51.  2.100
13[matroska,webm @ 0xce5820] parser not found for codec vorbis, packets or times may be invalid.
14
15Seems stream 0 codec frame rate differs from container frame rate: 47.96 (43690/911) -> 23.98 (24000/1001)
16Input #0, matroska,webm, from 'source.mkv':
17  Metadata:
18    ENCODER         : Lavf53.29.100
19  Duration: 00:00:05.01, start: 0.000000, bitrate: 434 kb/s
20    Stream #0:0: Video: h264 (High), yuv420p, 624x352 [SAR 1:1 DAR 39:22], 23.98 fps, 23.98 tbr, 1k tbn, 47.96 tbc (default)
21    Stream #0:1(eng): Audio: vorbis, 48000 Hz, stereo, s16 (default)
22    Stream #0:2(cze): Subtitle: srt (default)
23Output #0, srt, to 'target.srt':
24  Metadata:
25    encoder         : Lavf53.29.100
26    Stream #0:0(cze): Subtitle: srt (default)
27Stream mapping:
28  Stream #0:2 -> #0:0 (srt -> srt)
29Press [q] to stop, [?] for help
30size=       0kB time=00:00:00.00 bitrate=   0.0kbits/s   
31video:0kB audio:0kB global headers:0kB muxing overhead -nan%
32Output file is empty, nothing was encoded (check -ss / -t / -frames parameters if used)