Ticket #857: log2.txt

File log2.txt, 4.4 KB (added by LubosD, 5 years ago)

Example 2

Line 
1# Without SW scaling
2
3# ffmpeg -strict experimental -vcodec h264_crystalhd -crystalhd_downscale_width 640 -v verbose -i /home/shared/Serialy\ EN/The\ Simpsons/The.Simpsons.S22E02.720p.HDTV.X264-DIMENSION.mkv -vcodec libx264 -preset veryfast -b:v 1050k -acodec libfaac -ac 2 -ar 44100 -ab 128k -y -f matroska /dev/null
4
5(omitted some unrelated output)
6
7[h264_crystalhd @ 0x152a140] CrystalHD Init for h264_crystalhd
8[h264_crystalhd @ 0x152a140] CrystalHD: starting up
9Running DIL (3.22.0) Version
10DtsDeviceOpen: Opening HW in mode 0
11Clock set to 180
12Enable single threaded mode
13Setting Color Mode to 1
14[h264_crystalhd @ 0x152a140] CrystalHD: Init complete.
15Output #0, matroska, to '/dev/null':
16  Metadata:
17    encoder         : Lavf53.29.100
18    Stream #0:0(eng): Video: h264, yuv420p, 1280x720 [SAR 1:1 DAR 16:9], q=-1--1, 1050 kb/s, 1k tbn, 23.98 tbc
19    Stream #0:1: Audio: aac, 44100 Hz, 2 channels, s16, 128 kb/s (default)
20Stream mapping:
21  Stream #0:0 -> #0:0 (h264_crystalhd -> libx264)
22  Stream #0:1 -> #0:1 (ac3 -> libfaac)
23Press [q] to stop, [?] for help
24[h264_crystalhd @ 0x152a140] CrystalHD: decode_frame
25[h264_crystalhd @ 0x152a140] CrystalHD: parser picture type 3
26[h264_crystalhd @ 0x152a140] input "pts": 100000
27[h264_crystalhd @ 0x152a140] CrystalHD: Filling pipeline.
28Input stream #0:1 frame changed from rate:48000 fmt:s16 ch:6 to rate:48000 fmt:s16 ch:2
29[h264_crystalhd @ 0x152a140] CrystalHD: decode_frame
30[h264_crystalhd @ 0x152a140] CrystalHD: parser picture type 3
31[h264_crystalhd @ 0x152a140] input "pts": 200000
32[h264_crystalhd @ 0x152a140] CrystalHD: Filling pipeline.
33[h264_crystalhd @ 0x152a140] CrystalHD: decode_frame
34[h264_crystalhd @ 0x152a140] CrystalHD: parser picture type 3
35[h264_crystalhd @ 0x152a140] input "pts": 300000
36[h264_crystalhd @ 0x152a140] CrystalHD: Filling pipeline.
37[h264_crystalhd @ 0x152a140] CrystalHD: decode_frame
38[h264_crystalhd @ 0x152a140] CrystalHD: parser picture type 3
39[h264_crystalhd @ 0x152a140] input "pts": 400000
40[h264_crystalhd @ 0x152a140] CrystalHD: Filling pipeline.
41[h264_crystalhd @ 0x152a140] CrystalHD: decode_frame
42[h264_crystalhd @ 0x152a140] CrystalHD: parser picture type 3
43[h264_crystalhd @ 0x152a140] input "pts": 500000
44[h264_crystalhd @ 0x152a140] CrystalHD: Filling pipeline.
45[h264_crystalhd @ 0x152a140] CrystalHD: decode_frame
46[h264_crystalhd @ 0x152a140] CrystalHD: parser picture type 3
47[h264_crystalhd @ 0x152a140] input "pts": 600000
48[h264_crystalhd @ 0x152a140] CrystalHD: Filling pipeline.
49[h264_crystalhd @ 0x152a140] CrystalHD: decode_frame
50[h264_crystalhd @ 0x152a140] CrystalHD: parser picture type 3
51[h264_crystalhd @ 0x152a140] input "pts": 700000
52[h264_crystalhd @ 0x152a140] CrystalHD: Filling pipeline.
53[h264_crystalhd @ 0x152a140] CrystalHD: decode_frame
54[h264_crystalhd @ 0x152a140] CrystalHD: parser picture type 3
55[h264_crystalhd @ 0x152a140] input "pts": 800000
56[h264_crystalhd @ 0x152a140] CrystalHD: Filling pipeline.
57[h264_crystalhd @ 0x152a140] CrystalHD: decode_frame
58[h264_crystalhd @ 0x152a140] CrystalHD: parser picture type 3
59[h264_crystalhd @ 0x152a140] input "pts": 900000
60[h264_crystalhd @ 0x152a140] CrystalHD: Initial format change
61[h264_crystalhd @ 0x152a140]    YBuffSz: 0
62[h264_crystalhd @ 0x152a140]    YBuffDoneSz: 462080
63[h264_crystalhd @ 0x152a140]    UVBuffDoneSz: 0
64[h264_crystalhd @ 0x152a140]    Timestamp: 100000
65[h264_crystalhd @ 0x152a140]    Picture Number: 3
66[h264_crystalhd @ 0x152a140]    Width: 1280
67[h264_crystalhd @ 0x152a140]    Height: 720
68[h264_crystalhd @ 0x152a140]    Chroma: 0x420
69[h264_crystalhd @ 0x152a140]    Pulldown: 0
70[h264_crystalhd @ 0x152a140]    Flags: 0x80040000
71[h264_crystalhd @ 0x152a140]    Frame Rate/Res: 23970
72[h264_crystalhd @ 0x152a140]    Aspect Ratio: 0
73[h264_crystalhd @ 0x152a140]    Color Primaries: 2
74[h264_crystalhd @ 0x152a140]    MetaData: 655616
75[h264_crystalhd @ 0x152a140]    Session Number: 0
76[h264_crystalhd @ 0x152a140]    ycom: 269488144
77[h264_crystalhd @ 0x152a140]    Custom Aspect: 0
78[h264_crystalhd @ 0x152a140]    Frames to Drop: 0
79[h264_crystalhd @ 0x152a140]    H264 Valid Fields: 0x00000024
80[h264_crystalhd @ 0x152a140] output "pts": 100000
81[h264_crystalhd @ 0x152a140] output picture type 3
82[h264_crystalhd @ 0x152a140] Interlaced state: 0 | trust_interlaced 1
83[h264_crystalhd @ 0x152a140] CrystalHD: Copying out frame
84[h264_crystalhd @ 0x152a140] CrystalHD: Pipeline length: 10
85[libx264 @ 0x8269a0] Input picture width (640) is greater than stride (0)
86Video encoding failed