Ticket #801: valgrind

File valgrind, 2.1 KB (added by oanastratulat, 5 years ago)
Line 
1==18532== Memcheck, a memory error detector
2==18532== Copyright (C) 2002-2010, and GNU GPL'd, by Julian Seward et al.
3==18532== Using Valgrind-3.6.1-Debian and LibVEX; rerun with -h for copyright info
4==18532== Command: ffmpeg -i corruptfile -f null -
5==18532==
6ffmpeg version N-35989-gaa1c590, Copyright (c) 2000-2011 the FFmpeg developers
7  built on Dec 20 2011 14:30:54 with gcc 4.6.1
8  configuration:
9  libavutil    51. 32. 0 / 51. 32. 0
10  libavcodec   53. 46. 1 / 53. 46. 1
11  libavformat  53. 27. 0 / 53. 27. 0
12  libavdevice  53.  4. 0 / 53.  4. 0
13  libavfilter   2. 53. 0 /  2. 53. 0
14  libswscale    2.  1. 0 /  2.  1. 0
15[ipmovie @ 0x588c820] Estimating duration from bitrate, this may be inaccurate
16Input #0, ipmovie, from 'corruptfile':
17  Duration: 00:00:47.55, start: 0.000000, bitrate: 352 kb/s
18    Stream #0:0: Video: interplayvideo, pal8, 432x320, 1000k tbr, 1000k tbn, 1000k tbc
19    Stream #0:1: Audio: interplay_dpcm, 22050 Hz, 2 channels, s16, 352 kb/s
20[null @ 0x58b42a0] Frame rate very high for a muxer not effciciently supporting it.
21Please consider specifiying a lower framerate, a different muxer or -vsync 2
22[buffer @ 0x58c74a0] w:432 h:320 pixfmt:pal8 tb:1/1000000 sar:0/1 sws_param:
23Output #0, null, to 'pipe:':
24  Metadata:
25    encoder         : Lavf53.27.0
26    Stream #0:0: Video: rawvideo, pal8, 432x320, q=2-31, 200 kb/s, 90k tbn, 1000k tbc
27    Stream #0:1: Audio: pcm_s16le, 22050 Hz, 2 channels, s16, 705 kb/s
28Stream mapping:
29  Stream #0:0 -> #0:0 (interplayvideo -> rawvideo)
30  Stream #0:1 -> #0:1 (interplay_dpcm -> pcm_s16le)
31Press [q] to stop, [?] for help
32frame=    0 fps=  0 q=0.0 Lsize=       0kB time=00:00:00.00 bitrate=   0.0kbits/s   
33video:0kB audio:11kB global headers:0kB muxing overhead -100.000000%
34==18532==
35==18532== HEAP SUMMARY:
36==18532==     in use at exit: 0 bytes in 0 blocks
37==18532==   total heap usage: 103 allocs, 103 frees, 1,397,574 bytes allocated
38==18532==
39==18532== All heap blocks were freed -- no leaks are possible
40==18532==
41==18532== For counts of detected and suppressed errors, rerun with: -v
42==18532== ERROR SUMMARY: 0 errors from 0 contexts (suppressed: 4 from 4)