Ticket #774: valgrind.txt

File valgrind.txt, 1.9 KB (added by dianamuscalu, 5 years ago)

valgrind report

Line 
1==3224== Memcheck, a memory error detector
2==3224== Copyright (C) 2002-2010, and GNU GPL'd, by Julian Seward et al.
3==3224== Using Valgrind-3.6.1-Debian and LibVEX; rerun with -h for copyright info
4==3224== Command: /home/vlad/Desktop/ffmpeg/ffmpeg_g -i corruptfile -f null -
5==3224==
6ffmpeg version N-35772-g366605f, Copyright (c) 2000-2011 the FFmpeg developers
7  built on Dec 13 2011 22:32:03 with gcc 4.6.1
8  configuration:
9  libavutil    51. 32. 0 / 51. 32. 0
10  libavcodec   53. 44. 0 / 53. 44. 0
11  libavformat  53. 25. 0 / 53. 25. 0
12  libavdevice  53.  4. 0 / 53.  4. 0
13  libavfilter   2. 53. 0 /  2. 53. 0
14  libswscale    2.  1. 0 /  2.  1. 0
15==3224== Warning: set address range perms: large range [0x393c9080, 0x793ca040) (undefined)
16==3224== Warning: set address range perms: large range [0x393c9070, 0x793ca050) (noaccess)
17[thp @ 0x5674820] Could not find codec parameters (Video: thp, 608x320)
18[thp @ 0x5674820] Estimating duration from bitrate, this may be inaccurate
19Input #0, thp, from 'corruptfile':
20  Duration: N/A, bitrate: N/A
21    Stream #0:0: Video: thp, 608x320, 29.97 tbr, 29.97 tbn, 29.97 tbc
22    Stream #0:1: Audio: adpcm_thp, 32000 Hz, 2 channels, s16
23Video pixel format is unknown, stream cannot be encoded
24==3224==
25==3224== HEAP SUMMARY:
26==3224==     in use at exit: 385 bytes in 2 blocks
27==3224==   total heap usage: 69 allocs, 67 frees, 1,074,040,388 bytes allocated
28==3224==
29==3224== LEAK SUMMARY:
30==3224==    definitely lost: 384 bytes in 1 blocks
31==3224==    indirectly lost: 0 bytes in 0 blocks
32==3224==      possibly lost: 0 bytes in 0 blocks
33==3224==    still reachable: 1 bytes in 1 blocks
34==3224==         suppressed: 0 bytes in 0 blocks
35==3224== Rerun with --leak-check=full to see details of leaked memory
36==3224==
37==3224== For counts of detected and suppressed errors, rerun with: -v
38==3224== ERROR SUMMARY: 0 errors from 0 contexts (suppressed: 4 from 4)