Ticket #7709: 20181206_Restreamed_Probe.txt

File 20181206_Restreamed_Probe.txt, 81.4 KB (added by gstair, 4 months ago)

N-92624-gb44a571dc4 ffprobe output

Line 
1[PACKET]
2codec_type=data
3stream_index=1
4pts=140040
5pts_time=1.556000
6dts=140040
7dts_time=1.556000
8duration=N/A
9duration_time=N/A
10convergence_duration=N/A
11convergence_duration_time=N/A
12size=299
13pos=126524
14flags=K_
15[SIDE_DATA]
16side_data_type=MPEGTS Stream ID
17[/SIDE_DATA]
18[/PACKET]
19[PACKET]
20codec_type=data
21stream_index=1
22pts=144720
23pts_time=1.608000
24dts=144720
25dts_time=1.608000
26duration=N/A
27duration_time=N/A
28convergence_duration=N/A
29convergence_duration_time=N/A
30size=299
31pos=126900
32flags=K_
33[SIDE_DATA]
34side_data_type=MPEGTS Stream ID
35[/SIDE_DATA]
36[/PACKET]
37[PACKET]
38codec_type=data
39stream_index=1
40pts=149490
41pts_time=1.661000
42dts=149490
43dts_time=1.661000
44duration=N/A
45duration_time=N/A
46convergence_duration=N/A
47convergence_duration_time=N/A
48size=299
49pos=170328
50flags=K_
51[SIDE_DATA]
52side_data_type=MPEGTS Stream ID
53[/SIDE_DATA]
54[/PACKET]
55[PACKET]
56codec_type=video
57stream_index=0
58pts=126000
59pts_time=1.400000
60dts=126000
61dts_time=1.400000
62duration=N/A
63duration_time=N/A
64convergence_duration=N/A
65convergence_duration_time=N/A
66size=117182
67pos=564
68flags=K_
69[SIDE_DATA]
70side_data_type=MPEGTS Stream ID
71[/SIDE_DATA]
72[/PACKET]
73[PACKET]
74codec_type=data
75stream_index=1
76pts=155070
77pts_time=1.723000
78dts=155070
79dts_time=1.723000
80duration=N/A
81duration_time=N/A
82convergence_duration=N/A
83convergence_duration_time=N/A
84size=299
85pos=232556
86flags=K_
87[SIDE_DATA]
88side_data_type=MPEGTS Stream ID
89[/SIDE_DATA]
90[/PACKET]
91[PACKET]
92codec_type=video
93stream_index=0
94pts=149490
95pts_time=1.661000
96dts=149490
97dts_time=1.661000
98duration=N/A
99duration_time=N/A
100convergence_duration=N/A
101convergence_duration_time=N/A
102size=39690
103pos=127652
104flags=__
105[SIDE_DATA]
106side_data_type=MPEGTS Stream ID
107[/SIDE_DATA]
108[/PACKET]
109[PACKET]
110codec_type=data
111stream_index=1
112pts=159390
113pts_time=1.771000
114dts=159390
115dts_time=1.771000
116duration=N/A
117duration_time=N/A
118convergence_duration=N/A
119convergence_duration_time=N/A
120size=299
121pos=307756
122flags=K_
123[SIDE_DATA]
124side_data_type=MPEGTS Stream ID
125[/SIDE_DATA]
126[/PACKET]
127[PACKET]
128codec_type=video
129stream_index=0
130pts=155070
131pts_time=1.723000
132dts=155070
133dts_time=1.723000
134duration=N/A
135duration_time=N/A
136convergence_duration=N/A
137convergence_duration_time=N/A
138size=57344
139pos=170704
140flags=__
141[SIDE_DATA]
142side_data_type=MPEGTS Stream ID
143[/SIDE_DATA]
144[/PACKET]
145[PACKET]
146codec_type=data
147stream_index=1
148pts=163800
149pts_time=1.820000
150dts=163800
151dts_time=1.820000
152duration=N/A
153duration_time=N/A
154convergence_duration=N/A
155convergence_duration_time=N/A
156size=299
157pos=385024
158flags=K_
159[SIDE_DATA]
160side_data_type=MPEGTS Stream ID
161[/SIDE_DATA]
162[/PACKET]
163[PACKET]
164codec_type=video
165stream_index=0
166pts=159390
167pts_time=1.771000
168dts=159390
169dts_time=1.771000
170duration=N/A
171duration_time=N/A
172convergence_duration=N/A
173convergence_duration_time=N/A
174size=69362
175pos=232932
176flags=__
177[SIDE_DATA]
178side_data_type=MPEGTS Stream ID
179[/SIDE_DATA]
180[/PACKET]
181[PACKET]
182codec_type=data
183stream_index=1
184pts=168660
185pts_time=1.874000
186dts=168660
187dts_time=1.874000
188duration=N/A
189duration_time=N/A
190convergence_duration=N/A
191convergence_duration_time=N/A
192size=299
193pos=469812
194flags=K_
195[SIDE_DATA]
196side_data_type=MPEGTS Stream ID
197[/SIDE_DATA]
198[/PACKET]
199[PACKET]
200codec_type=video
201stream_index=0
202pts=163800
203pts_time=1.820000
204dts=163800
205dts_time=1.820000
206duration=N/A
207duration_time=N/A
208convergence_duration=N/A
209convergence_duration_time=N/A
210size=71062
211pos=308132
212flags=__
213[SIDE_DATA]
214side_data_type=MPEGTS Stream ID
215[/SIDE_DATA]
216[/PACKET]
217[PACKET]
218codec_type=data
219stream_index=1
220pts=173070
221pts_time=1.923000
222dts=173070
223dts_time=1.923000
224duration=N/A
225duration_time=N/A
226convergence_duration=N/A
227convergence_duration_time=N/A
228size=299
229pos=533920
230flags=K_
231[SIDE_DATA]
232side_data_type=MPEGTS Stream ID
233[/SIDE_DATA]
234[/PACKET]
235[PACKET]
236codec_type=video
237stream_index=0
238pts=168660
239pts_time=1.874000
240dts=168660
241dts_time=1.874000
242duration=N/A
243duration_time=N/A
244convergence_duration=N/A
245convergence_duration_time=N/A
246size=78101
247pos=385400
248flags=__
249[SIDE_DATA]
250side_data_type=MPEGTS Stream ID
251[/SIDE_DATA]
252[/PACKET]
253[PACKET]
254codec_type=data
255stream_index=1
256pts=178200
257pts_time=1.980000
258dts=178200
259dts_time=1.980000
260duration=N/A
261duration_time=N/A
262convergence_duration=N/A
263convergence_duration_time=N/A
264size=299
265pos=580356
266flags=K_
267[SIDE_DATA]
268side_data_type=MPEGTS Stream ID
269[/SIDE_DATA]
270[/PACKET]
271[PACKET]
272codec_type=video
273stream_index=0
274pts=173070
275pts_time=1.923000
276dts=173070
277dts_time=1.923000
278duration=N/A
279duration_time=N/A
280convergence_duration=N/A
281convergence_duration_time=N/A
282size=58978
283pos=470188
284flags=__
285[SIDE_DATA]
286side_data_type=MPEGTS Stream ID
287[/SIDE_DATA]
288[/PACKET]
289[PACKET]
290codec_type=data
291stream_index=1
292pts=183780
293pts_time=2.042000
294dts=183780
295dts_time=2.042000
296duration=N/A
297duration_time=N/A
298convergence_duration=N/A
299convergence_duration_time=N/A
300size=299
301pos=625852
302flags=K_
303[SIDE_DATA]
304side_data_type=MPEGTS Stream ID
305[/SIDE_DATA]
306[/PACKET]
307[PACKET]
308codec_type=video
309stream_index=0
310pts=178200
311pts_time=1.980000
312dts=178200
313dts_time=1.980000
314duration=N/A
315duration_time=N/A
316convergence_duration=N/A
317convergence_duration_time=N/A
318size=42594
319pos=534296
320flags=__
321[SIDE_DATA]
322side_data_type=MPEGTS Stream ID
323[/SIDE_DATA]
324[/PACKET]
325[PACKET]
326codec_type=data
327stream_index=1
328pts=188820
329pts_time=2.098000
330dts=188820
331dts_time=2.098000
332duration=N/A
333duration_time=N/A
334convergence_duration=N/A
335convergence_duration_time=N/A
336size=299
337pos=706504
338flags=K_
339[SIDE_DATA]
340side_data_type=MPEGTS Stream ID
341[/SIDE_DATA]
342[/PACKET]
343[PACKET]
344codec_type=video
345stream_index=0
346pts=183780
347pts_time=2.042000
348dts=183780
349dts_time=2.042000
350duration=N/A
351duration_time=N/A
352convergence_duration=N/A
353convergence_duration_time=N/A
354size=42035
355pos=580732
356flags=__
357[SIDE_DATA]
358side_data_type=MPEGTS Stream ID
359[/SIDE_DATA]
360[/PACKET]
361[PACKET]
362codec_type=data
363stream_index=1
364pts=194310
365pts_time=2.159000
366dts=194310
367dts_time=2.159000
368duration=N/A
369duration_time=N/A
370convergence_duration=N/A
371convergence_duration_time=N/A
372size=299
373pos=771176
374flags=K_
375[SIDE_DATA]
376side_data_type=MPEGTS Stream ID
377[/SIDE_DATA]
378[/PACKET]
379[PACKET]
380codec_type=video
381stream_index=0
382pts=188820
383pts_time=2.098000
384dts=188820
385dts_time=2.098000
386duration=N/A
387duration_time=N/A
388convergence_duration=N/A
389convergence_duration_time=N/A
390size=74018
391pos=626228
392flags=__
393[SIDE_DATA]
394side_data_type=MPEGTS Stream ID
395[/SIDE_DATA]
396[/PACKET]
397[PACKET]
398codec_type=data
399stream_index=1
400pts=199350
401pts_time=2.215000
402dts=199350
403dts_time=2.215000
404duration=N/A
405duration_time=N/A
406convergence_duration=N/A
407convergence_duration_time=N/A
408size=299
409pos=846564
410flags=K_
411[SIDE_DATA]
412side_data_type=MPEGTS Stream ID
413[/SIDE_DATA]
414[/PACKET]
415[PACKET]
416codec_type=video
417stream_index=0
418pts=194310
419pts_time=2.159000
420dts=194310
421dts_time=2.159000
422duration=N/A
423duration_time=N/A
424convergence_duration=N/A
425convergence_duration_time=N/A
426size=59476
427pos=706880
428flags=__
429[SIDE_DATA]
430side_data_type=MPEGTS Stream ID
431[/SIDE_DATA]
432[/PACKET]
433[PACKET]
434codec_type=data
435stream_index=1
436pts=205200
437pts_time=2.280000
438dts=205200
439dts_time=2.280000
440duration=N/A
441duration_time=N/A
442convergence_duration=N/A
443convergence_duration_time=N/A
444size=299
445pos=904092
446flags=K_
447[SIDE_DATA]
448side_data_type=MPEGTS Stream ID
449[/SIDE_DATA]
450[/PACKET]
451[PACKET]
452codec_type=video
453stream_index=0
454pts=199350
455pts_time=2.215000
456dts=199350
457dts_time=2.215000
458duration=N/A
459duration_time=N/A
460convergence_duration=N/A
461convergence_duration_time=N/A
462size=69719
463pos=771552
464flags=__
465[SIDE_DATA]
466side_data_type=MPEGTS Stream ID
467[/SIDE_DATA]
468[/PACKET]
469[PACKET]
470codec_type=data
471stream_index=1
472pts=210690
473pts_time=2.341000
474dts=210690
475dts_time=2.341000
476duration=N/A
477duration_time=N/A
478convergence_duration=N/A
479convergence_duration_time=N/A
480size=299
481pos=966132
482flags=K_
483[SIDE_DATA]
484side_data_type=MPEGTS Stream ID
485[/SIDE_DATA]
486[/PACKET]
487[PACKET]
488codec_type=video
489stream_index=0
490pts=205200
491pts_time=2.280000
492dts=205200
493dts_time=2.280000
494duration=N/A
495duration_time=N/A
496convergence_duration=N/A
497convergence_duration_time=N/A
498size=53068
499pos=846940
500flags=__
501[SIDE_DATA]
502side_data_type=MPEGTS Stream ID
503[/SIDE_DATA]
504[/PACKET]
505[PACKET]
506codec_type=data
507stream_index=1
508pts=215640
509pts_time=2.396000
510dts=215640
511dts_time=2.396000
512duration=N/A
513duration_time=N/A
514convergence_duration=N/A
515convergence_duration_time=N/A
516size=299
517pos=1026668
518flags=K_
519[SIDE_DATA]
520side_data_type=MPEGTS Stream ID
521[/SIDE_DATA]
522[/PACKET]
523[PACKET]
524codec_type=video
525stream_index=0
526pts=210690
527pts_time=2.341000
528dts=210690
529dts_time=2.341000
530duration=N/A
531duration_time=N/A
532convergence_duration=N/A
533convergence_duration_time=N/A
534size=56916
535pos=904844
536flags=__
537[SIDE_DATA]
538side_data_type=MPEGTS Stream ID
539[/SIDE_DATA]
540[/PACKET]
541[PACKET]
542codec_type=data
543stream_index=1
544pts=221310
545pts_time=2.459000
546dts=221310
547dts_time=2.459000
548duration=N/A
549duration_time=N/A
550convergence_duration=N/A
551convergence_duration_time=N/A
552size=299
553pos=1087392
554flags=K_
555[SIDE_DATA]
556side_data_type=MPEGTS Stream ID
557[/SIDE_DATA]
558[/PACKET]
559[PACKET]
560codec_type=video
561stream_index=0
562pts=215640
563pts_time=2.396000
564dts=215640
565dts_time=2.396000
566duration=N/A
567duration_time=N/A
568convergence_duration=N/A
569convergence_duration_time=N/A
570size=55662
571pos=966508
572flags=__
573[SIDE_DATA]
574side_data_type=MPEGTS Stream ID
575[/SIDE_DATA]
576[/PACKET]
577[PACKET]
578codec_type=data
579stream_index=1
580pts=226980
581pts_time=2.522000
582dts=226980
583dts_time=2.522000
584duration=N/A
585duration_time=N/A
586convergence_duration=N/A
587convergence_duration_time=N/A
588size=299
589pos=1147928
590flags=K_
591[SIDE_DATA]
592side_data_type=MPEGTS Stream ID
593[/SIDE_DATA]
594[/PACKET]
595[PACKET]
596codec_type=video
597stream_index=0
598pts=221310
599pts_time=2.459000
600dts=221310
601dts_time=2.459000
602duration=N/A
603duration_time=N/A
604convergence_duration=N/A
605convergence_duration_time=N/A
606size=55583
607pos=1027044
608flags=__
609[SIDE_DATA]
610side_data_type=MPEGTS Stream ID
611[/SIDE_DATA]
612[/PACKET]
613[PACKET]
614codec_type=data
615stream_index=1
616pts=231930
617pts_time=2.577000
618dts=231930
619dts_time=2.577000
620duration=N/A
621duration_time=N/A
622convergence_duration=N/A
623convergence_duration_time=N/A
624size=299
625pos=1203200
626flags=K_
627[SIDE_DATA]
628side_data_type=MPEGTS Stream ID
629[/SIDE_DATA]
630[/PACKET]
631[PACKET]
632codec_type=video
633stream_index=0
634pts=226980
635pts_time=2.522000
636dts=226980
637dts_time=2.522000
638duration=N/A
639duration_time=N/A
640convergence_duration=N/A
641convergence_duration_time=N/A
642size=56003
643pos=1087768
644flags=__
645[SIDE_DATA]
646side_data_type=MPEGTS Stream ID
647[/SIDE_DATA]
648[/PACKET]
649[PACKET]
650codec_type=data
651stream_index=1
652pts=237420
653pts_time=2.638000
654dts=237420
655dts_time=2.638000
656duration=N/A
657duration_time=N/A
658convergence_duration=N/A
659convergence_duration_time=N/A
660size=299
661pos=1276520
662flags=K_
663[SIDE_DATA]
664side_data_type=MPEGTS Stream ID
665[/SIDE_DATA]
666[/PACKET]
667[PACKET]
668codec_type=video
669stream_index=0
670pts=231930
671pts_time=2.577000
672dts=231930
673dts_time=2.577000
674duration=N/A
675duration_time=N/A
676convergence_duration=N/A
677convergence_duration_time=N/A
678size=50736
679pos=1148304
680flags=__
681[SIDE_DATA]
682side_data_type=MPEGTS Stream ID
683[/SIDE_DATA]
684[/PACKET]
685[PACKET]
686codec_type=data
687stream_index=1
688pts=242100
689pts_time=2.690000
690dts=242100
691dts_time=2.690000
692duration=N/A
693duration_time=N/A
694convergence_duration=N/A
695convergence_duration_time=N/A
696size=299
697pos=1339688
698flags=K_
699[SIDE_DATA]
700side_data_type=MPEGTS Stream ID
701[/SIDE_DATA]
702[/PACKET]
703[PACKET]
704codec_type=video
705stream_index=0
706pts=237420
707pts_time=2.638000
708dts=237420
709dts_time=2.638000
710duration=N/A
711duration_time=N/A
712convergence_duration=N/A
713convergence_duration_time=N/A
714size=67547
715pos=1203576
716flags=__
717[SIDE_DATA]
718side_data_type=MPEGTS Stream ID
719[/SIDE_DATA]
720[/PACKET]
721[PACKET]
722codec_type=data
723stream_index=1
724pts=248220
725pts_time=2.758000
726dts=248220
727dts_time=2.758000
728duration=N/A
729duration_time=N/A
730convergence_duration=N/A
731convergence_duration_time=N/A
732size=299
733pos=1417896
734flags=K_
735[SIDE_DATA]
736side_data_type=MPEGTS Stream ID
737[/SIDE_DATA]
738[/PACKET]
739[PACKET]
740codec_type=video
741stream_index=0
742pts=242100
743pts_time=2.690000
744dts=242100
745dts_time=2.690000
746duration=N/A
747duration_time=N/A
748convergence_duration=N/A
749convergence_duration_time=N/A
750size=58295
751pos=1276896
752flags=__
753[SIDE_DATA]
754side_data_type=MPEGTS Stream ID
755[/SIDE_DATA]
756[/PACKET]
757[PACKET]
758codec_type=data
759stream_index=1
760pts=253080
761pts_time=2.812000
762dts=253080
763dts_time=2.812000
764duration=N/A
765duration_time=N/A
766convergence_duration=N/A
767convergence_duration_time=N/A
768size=299
769pos=1615484
770flags=K_
771[SIDE_DATA]
772side_data_type=MPEGTS Stream ID
773[/SIDE_DATA]
774[/PACKET]
775[PACKET]
776codec_type=video
777stream_index=0
778pts=248220
779pts_time=2.758000
780dts=248220
781dts_time=2.758000
782duration=N/A
783duration_time=N/A
784convergence_duration=N/A
785convergence_duration_time=N/A
786size=72046
787pos=1340064
788flags=__
789[SIDE_DATA]
790side_data_type=MPEGTS Stream ID
791[/SIDE_DATA]
792[/PACKET]
793[PACKET]
794codec_type=data
795stream_index=1
796pts=257670
797pts_time=2.863000
798dts=257670
799dts_time=2.863000
800duration=N/A
801duration_time=N/A
802convergence_duration=N/A
803convergence_duration_time=N/A
804size=299
805pos=1621500
806flags=K_
807[SIDE_DATA]
808side_data_type=MPEGTS Stream ID
809[/SIDE_DATA]
810[/PACKET]
811[PACKET]
812codec_type=video
813stream_index=0
814pts=253080
815pts_time=2.812000
816dts=253080
817dts_time=2.812000
818duration=N/A
819duration_time=N/A
820convergence_duration=N/A
821convergence_duration_time=N/A
822size=182787
823pos=1418648
824flags=K_
825[SIDE_DATA]
826side_data_type=MPEGTS Stream ID
827[/SIDE_DATA]
828[/PACKET]
829[PACKET]
830codec_type=data
831stream_index=1
832pts=262890
833pts_time=2.921000
834dts=262890
835dts_time=2.921000
836duration=N/A
837duration_time=N/A
838convergence_duration=N/A
839convergence_duration_time=N/A
840size=299
841pos=1667936
842flags=K_
843[SIDE_DATA]
844side_data_type=MPEGTS Stream ID
845[/SIDE_DATA]
846[/PACKET]
847[PACKET]
848codec_type=video
849stream_index=0
850pts=257670
851pts_time=2.863000
852dts=257670
853dts_time=2.863000
854duration=N/A
855duration_time=N/A
856convergence_duration=N/A
857convergence_duration_time=N/A
858size=5051
859pos=1615860
860flags=__
861[SIDE_DATA]
862side_data_type=MPEGTS Stream ID
863[/SIDE_DATA]
864[/PACKET]
865[PACKET]
866codec_type=data
867stream_index=1
868pts=267570
869pts_time=2.973000
870dts=267570
871dts_time=2.973000
872duration=N/A
873duration_time=N/A
874convergence_duration=N/A
875convergence_duration_time=N/A
876size=299
877pos=1714372
878flags=K_
879[SIDE_DATA]
880side_data_type=MPEGTS Stream ID
881[/SIDE_DATA]
882[/PACKET]
883[PACKET]
884codec_type=video
885stream_index=0
886pts=262890
887pts_time=2.921000
888dts=262890
889dts_time=2.921000
890duration=N/A
891duration_time=N/A
892convergence_duration=N/A
893convergence_duration_time=N/A
894size=42337
895pos=1621876
896flags=__
897[SIDE_DATA]
898side_data_type=MPEGTS Stream ID
899[/SIDE_DATA]
900[/PACKET]
901[PACKET]
902codec_type=data
903stream_index=1
904pts=272430
905pts_time=3.027000
906dts=272430
907dts_time=3.027000
908duration=N/A
909duration_time=N/A
910convergence_duration=N/A
911convergence_duration_time=N/A
912size=299
913pos=1815516
914flags=K_
915[SIDE_DATA]
916side_data_type=MPEGTS Stream ID
917[/SIDE_DATA]
918[/PACKET]
919[PACKET]
920codec_type=video
921stream_index=0
922pts=267570
923pts_time=2.973000
924dts=267570
925dts_time=2.973000
926duration=N/A
927duration_time=N/A
928convergence_duration=N/A
929convergence_duration_time=N/A
930size=42599
931pos=1668312
932flags=__
933[SIDE_DATA]
934side_data_type=MPEGTS Stream ID
935[/SIDE_DATA]
936[/PACKET]
937[PACKET]
938codec_type=data
939stream_index=1
940pts=277830
941pts_time=3.087000
942dts=277830
943dts_time=3.087000
944duration=N/A
945duration_time=N/A
946convergence_duration=N/A
947convergence_duration_time=N/A
948size=299
949pos=1869096
950flags=K_
951[SIDE_DATA]
952side_data_type=MPEGTS Stream ID
953[/SIDE_DATA]
954[/PACKET]
955[PACKET]
956codec_type=video
957stream_index=0
958pts=272430
959pts_time=3.027000
960dts=272430
961dts_time=3.027000
962duration=N/A
963duration_time=N/A
964convergence_duration=N/A
965convergence_duration_time=N/A
966size=93406
967pos=1714748
968flags=__
969[SIDE_DATA]
970side_data_type=MPEGTS Stream ID
971[/SIDE_DATA]
972[/PACKET]
973[PACKET]
974codec_type=data
975stream_index=1
976pts=282330
977pts_time=3.137000
978dts=282330
979dts_time=3.137000
980duration=N/A
981duration_time=N/A
982convergence_duration=N/A
983convergence_duration_time=N/A
984size=299
985pos=1943732
986flags=K_
987[SIDE_DATA]
988side_data_type=MPEGTS Stream ID
989[/SIDE_DATA]
990[/PACKET]
991[PACKET]
992codec_type=video
993stream_index=0
994pts=277830
995pts_time=3.087000
996dts=277830
997dts_time=3.087000
998duration=N/A
999duration_time=N/A
1000convergence_duration=N/A
1001convergence_duration_time=N/A
1002size=49299
1003pos=1815892
1004flags=__
1005[SIDE_DATA]
1006side_data_type=MPEGTS Stream ID
1007[/SIDE_DATA]
1008[/PACKET]
1009[PACKET]
1010codec_type=data
1011stream_index=1
1012pts=287190
1013pts_time=3.191000
1014dts=287190
1015dts_time=3.191000
1016duration=N/A
1017duration_time=N/A
1018convergence_duration=N/A
1019convergence_duration_time=N/A
1020size=299
1021pos=1998252
1022flags=K_
1023[SIDE_DATA]
1024side_data_type=MPEGTS Stream ID
1025[/SIDE_DATA]
1026[/PACKET]
1027[PACKET]
1028codec_type=video
1029stream_index=0
1030pts=282330
1031pts_time=3.137000
1032dts=282330
1033dts_time=3.137000
1034duration=N/A
1035duration_time=N/A
1036convergence_duration=N/A
1037convergence_duration_time=N/A
1038size=68699
1039pos=1869472
1040flags=__
1041[SIDE_DATA]
1042side_data_type=MPEGTS Stream ID
1043[/SIDE_DATA]
1044[/PACKET]
1045[PACKET]
1046codec_type=data
1047stream_index=1
1048pts=293040
1049pts_time=3.256000
1050dts=293040
1051dts_time=3.256000
1052duration=N/A
1053duration_time=N/A
1054convergence_duration=N/A
1055convergence_duration_time=N/A
1056size=299
1057pos=2098644
1058flags=K_
1059[SIDE_DATA]
1060side_data_type=MPEGTS Stream ID
1061[/SIDE_DATA]
1062[/PACKET]
1063[PACKET]
1064codec_type=video
1065stream_index=0
1066pts=287190
1067pts_time=3.191000
1068dts=287190
1069dts_time=3.191000
1070duration=N/A
1071duration_time=N/A
1072convergence_duration=N/A
1073convergence_duration_time=N/A
1074size=50007
1075pos=1944296
1076flags=__
1077[SIDE_DATA]
1078side_data_type=MPEGTS Stream ID
1079[/SIDE_DATA]
1080[/PACKET]
1081[PACKET]
1082codec_type=data
1083stream_index=1
1084pts=298890
1085pts_time=3.321000
1086dts=298890
1087dts_time=3.321000
1088duration=N/A
1089duration_time=N/A
1090convergence_duration=N/A
1091convergence_duration_time=N/A
1092size=299
1093pos=2178732
1094flags=K_
1095[SIDE_DATA]
1096side_data_type=MPEGTS Stream ID
1097[/SIDE_DATA]
1098[/PACKET]
1099[PACKET]
1100codec_type=video
1101stream_index=0
1102pts=293040
1103pts_time=3.256000
1104dts=293040
1105dts_time=3.256000
1106duration=N/A
1107duration_time=N/A
1108convergence_duration=N/A
1109convergence_duration_time=N/A
1110size=93069
1111pos=1998628
1112flags=__
1113[SIDE_DATA]
1114side_data_type=MPEGTS Stream ID
1115[/SIDE_DATA]
1116[/PACKET]
1117[PACKET]
1118codec_type=data
1119stream_index=1
1120pts=305100
1121pts_time=3.390000
1122dts=305100
1123dts_time=3.390000
1124duration=N/A
1125duration_time=N/A
1126convergence_duration=N/A
1127convergence_duration_time=N/A
1128size=299
1129pos=2223288
1130flags=K_
1131[SIDE_DATA]
1132side_data_type=MPEGTS Stream ID
1133[/SIDE_DATA]
1134[/PACKET]
1135[PACKET]
1136codec_type=video
1137stream_index=0
1138pts=298890
1139pts_time=3.321000
1140dts=298890
1141dts_time=3.321000
1142duration=N/A
1143duration_time=N/A
1144convergence_duration=N/A
1145convergence_duration_time=N/A
1146size=73885
1147pos=2099020
1148flags=__
1149[SIDE_DATA]
1150side_data_type=MPEGTS Stream ID
1151[/SIDE_DATA]
1152[/PACKET]
1153[PACKET]
1154codec_type=data
1155stream_index=1
1156pts=310410
1157pts_time=3.449000
1158dts=310410
1159dts_time=3.449000
1160duration=N/A
1161duration_time=N/A
1162convergence_duration=N/A
1163convergence_duration_time=N/A
1164size=299
1165pos=2310520
1166flags=K_
1167[SIDE_DATA]
1168side_data_type=MPEGTS Stream ID
1169[/SIDE_DATA]
1170[/PACKET]
1171[PACKET]
1172codec_type=video
1173stream_index=0
1174pts=305100
1175pts_time=3.390000
1176dts=305100
1177dts_time=3.390000
1178duration=N/A
1179duration_time=N/A
1180convergence_duration=N/A
1181convergence_duration_time=N/A
1182size=40566
1183pos=2179108
1184flags=__
1185[SIDE_DATA]
1186side_data_type=MPEGTS Stream ID
1187[/SIDE_DATA]
1188[/PACKET]
1189[PACKET]
1190codec_type=data
1191stream_index=1
1192pts=316080
1193pts_time=3.512000
1194dts=316080
1195dts_time=3.512000
1196duration=N/A
1197duration_time=N/A
1198convergence_duration=N/A
1199convergence_duration_time=N/A
1200size=299
1201pos=2385720
1202flags=K_
1203[SIDE_DATA]
1204side_data_type=MPEGTS Stream ID
1205[/SIDE_DATA]
1206[/PACKET]
1207[PACKET]
1208codec_type=video
1209stream_index=0
1210pts=310410
1211pts_time=3.449000
1212dts=310410
1213dts_time=3.449000
1214duration=N/A
1215duration_time=N/A
1216convergence_duration=N/A
1217convergence_duration_time=N/A
1218size=80531
1219pos=2223664
1220flags=__
1221[SIDE_DATA]
1222side_data_type=MPEGTS Stream ID
1223[/SIDE_DATA]
1224[/PACKET]
1225[PACKET]
1226codec_type=data
1227stream_index=1
1228pts=321750
1229pts_time=3.575000
1230dts=321750
1231dts_time=3.575000
1232duration=N/A
1233duration_time=N/A
1234convergence_duration=N/A
1235convergence_duration_time=N/A
1236size=299
1237pos=2461296
1238flags=K_
1239[SIDE_DATA]
1240side_data_type=MPEGTS Stream ID
1241[/SIDE_DATA]
1242[/PACKET]
1243[PACKET]
1244codec_type=video
1245stream_index=0
1246pts=316080
1247pts_time=3.512000
1248dts=316080
1249dts_time=3.512000
1250duration=N/A
1251duration_time=N/A
1252convergence_duration=N/A
1253convergence_duration_time=N/A
1254size=69463
1255pos=2310896
1256flags=__
1257[SIDE_DATA]
1258side_data_type=MPEGTS Stream ID
1259[/SIDE_DATA]
1260[/PACKET]
1261[PACKET]
1262codec_type=data
1263stream_index=1
1264pts=327150
1265pts_time=3.635000
1266dts=327150
1267dts_time=3.635000
1268duration=N/A
1269duration_time=N/A
1270convergence_duration=N/A
1271convergence_duration_time=N/A
1272size=299
1273pos=2535368
1274flags=K_
1275[SIDE_DATA]
1276side_data_type=MPEGTS Stream ID
1277[/SIDE_DATA]
1278[/PACKET]
1279[PACKET]
1280codec_type=video
1281stream_index=0
1282pts=321750
1283pts_time=3.575000
1284dts=321750
1285dts_time=3.575000
1286duration=N/A
1287duration_time=N/A
1288convergence_duration=N/A
1289convergence_duration_time=N/A
1290size=69404
1291pos=2386096
1292flags=__
1293[SIDE_DATA]
1294side_data_type=MPEGTS Stream ID
1295[/SIDE_DATA]
1296[/PACKET]
1297[PACKET]
1298codec_type=data
1299stream_index=1
1300pts=332190
1301pts_time=3.691000
1302dts=332190
1303dts_time=3.691000
1304duration=N/A
1305duration_time=N/A
1306convergence_duration=N/A
1307convergence_duration_time=N/A
1308size=299
1309pos=2610004
1310flags=K_
1311[SIDE_DATA]
1312side_data_type=MPEGTS Stream ID
1313[/SIDE_DATA]
1314[/PACKET]
1315[PACKET]
1316codec_type=video
1317stream_index=0
1318pts=327150
1319pts_time=3.635000
1320dts=327150
1321dts_time=3.635000
1322duration=N/A
1323duration_time=N/A
1324convergence_duration=N/A
1325convergence_duration_time=N/A
1326size=68446
1327pos=2461672
1328flags=__
1329[SIDE_DATA]
1330side_data_type=MPEGTS Stream ID
1331[/SIDE_DATA]
1332[/PACKET]
1333[PACKET]
1334codec_type=data
1335stream_index=1
1336pts=337320
1337pts_time=3.748000
1338dts=337320
1339dts_time=3.748000
1340duration=N/A
1341duration_time=N/A
1342convergence_duration=N/A
1343convergence_duration_time=N/A
1344size=299
1345pos=2654748
1346flags=K_
1347[SIDE_DATA]
1348side_data_type=MPEGTS Stream ID
1349[/SIDE_DATA]
1350[/PACKET]
1351[PACKET]
1352codec_type=video
1353stream_index=0
1354pts=332190
1355pts_time=3.691000
1356dts=332190
1357dts_time=3.691000
1358duration=N/A
1359duration_time=N/A
1360convergence_duration=N/A
1361convergence_duration_time=N/A
1362size=68534
1363pos=2535744
1364flags=__
1365[SIDE_DATA]
1366side_data_type=MPEGTS Stream ID
1367[/SIDE_DATA]
1368[/PACKET]
1369[PACKET]
1370codec_type=data
1371stream_index=1
1372pts=342450
1373pts_time=3.805000
1374dts=342450
1375dts_time=3.805000
1376duration=N/A
1377duration_time=N/A
1378convergence_duration=N/A
1379convergence_duration_time=N/A
1380size=299
1381pos=2699116
1382flags=K_
1383[SIDE_DATA]
1384side_data_type=MPEGTS Stream ID
1385[/SIDE_DATA]
1386[/PACKET]
1387[PACKET]
1388codec_type=video
1389stream_index=0
1390pts=337320
1391pts_time=3.748000
1392dts=337320
1393dts_time=3.748000
1394duration=N/A
1395duration_time=N/A
1396convergence_duration=N/A
1397convergence_duration_time=N/A
1398size=41384
1399pos=2610380
1400flags=__
1401[SIDE_DATA]
1402side_data_type=MPEGTS Stream ID
1403[/SIDE_DATA]
1404[/PACKET]
1405[PACKET]
1406codec_type=data
1407stream_index=1
1408pts=347220
1409pts_time=3.858000
1410dts=347220
1411dts_time=3.858000
1412duration=N/A
1413duration_time=N/A
1414convergence_duration=N/A
1415convergence_duration_time=N/A
1416size=299
1417pos=2764916
1418flags=K_
1419[SIDE_DATA]
1420side_data_type=MPEGTS Stream ID
1421[/SIDE_DATA]
1422[/PACKET]
1423[PACKET]
1424codec_type=video
1425stream_index=0
1426pts=342450
1427pts_time=3.805000
1428dts=342450
1429dts_time=3.805000
1430duration=N/A
1431duration_time=N/A
1432convergence_duration=N/A
1433convergence_duration_time=N/A
1434size=40395
1435pos=2655124
1436flags=__
1437[SIDE_DATA]
1438side_data_type=MPEGTS Stream ID
1439[/SIDE_DATA]
1440[/PACKET]
1441[PACKET]
1442codec_type=data
1443stream_index=1
1444pts=353250
1445pts_time=3.925000
1446dts=353250
1447dts_time=3.925000
1448duration=N/A
1449duration_time=N/A
1450convergence_duration=N/A
1451convergence_duration_time=N/A
1452size=299
1453pos=2843500
1454flags=K_
1455[SIDE_DATA]
1456side_data_type=MPEGTS Stream ID
1457[/SIDE_DATA]
1458[/PACKET]
1459[PACKET]
1460codec_type=video
1461stream_index=0
1462pts=347220
1463pts_time=3.858000
1464dts=347220
1465dts_time=3.858000
1466duration=N/A
1467duration_time=N/A
1468convergence_duration=N/A
1469convergence_duration_time=N/A
1470size=60853
1471pos=2699492
1472flags=__
1473[SIDE_DATA]
1474side_data_type=MPEGTS Stream ID
1475[/SIDE_DATA]
1476[/PACKET]
1477[PACKET]
1478codec_type=data
1479stream_index=1
1480pts=358290
1481pts_time=3.981000
1482dts=358290
1483dts_time=3.981000
1484duration=N/A
1485duration_time=N/A
1486convergence_duration=N/A
1487convergence_duration_time=N/A
1488size=299
1489pos=2921520
1490flags=K_
1491[SIDE_DATA]
1492side_data_type=MPEGTS Stream ID
1493[/SIDE_DATA]
1494[/PACKET]
1495[PACKET]
1496codec_type=video
1497stream_index=0
1498pts=353250
1499pts_time=3.925000
1500dts=353250
1501dts_time=3.925000
1502duration=N/A
1503duration_time=N/A
1504convergence_duration=N/A
1505convergence_duration_time=N/A
1506size=72408
1507pos=2765292
1508flags=__
1509[SIDE_DATA]
1510side_data_type=MPEGTS Stream ID
1511[/SIDE_DATA]
1512[/PACKET]
1513[PACKET]
1514codec_type=data
1515stream_index=1
1516pts=364140
1517pts_time=4.046000
1518dts=364140
1519dts_time=4.046000
1520duration=N/A
1521duration_time=N/A
1522convergence_duration=N/A
1523convergence_duration_time=N/A
1524size=299
1525pos=3017024
1526flags=K_
1527[SIDE_DATA]
1528side_data_type=MPEGTS Stream ID
1529[/SIDE_DATA]
1530[/PACKET]
1531[PACKET]
1532codec_type=video
1533stream_index=0
1534pts=358290
1535pts_time=3.981000
1536dts=358290
1537dts_time=3.981000
1538duration=N/A
1539duration_time=N/A
1540convergence_duration=N/A
1541convergence_duration_time=N/A
1542size=71910
1543pos=2843876
1544flags=__
1545[SIDE_DATA]
1546side_data_type=MPEGTS Stream ID
1547[/SIDE_DATA]
1548[/PACKET]
1549[PACKET]
1550codec_type=data
1551stream_index=1
1552pts=369090
1553pts_time=4.101000
1554dts=369090
1555dts_time=4.101000
1556duration=N/A
1557duration_time=N/A
1558convergence_duration=N/A
1559convergence_duration_time=N/A
1560size=299
1561pos=3060076
1562flags=K_
1563[SIDE_DATA]
1564side_data_type=MPEGTS Stream ID
1565[/SIDE_DATA]
1566[/PACKET]
1567[PACKET]
1568codec_type=video
1569stream_index=0
1570pts=364140
1571pts_time=4.046000
1572dts=364140
1573dts_time=4.046000
1574duration=N/A
1575duration_time=N/A
1576convergence_duration=N/A
1577convergence_duration_time=N/A
1578size=88000
1579pos=2921896
1580flags=__
1581[SIDE_DATA]
1582side_data_type=MPEGTS Stream ID
1583[/SIDE_DATA]
1584[/PACKET]
1585[PACKET]
1586codec_type=data
1587stream_index=1
1588pts=373230
1589pts_time=4.147000
1590dts=373230
1591dts_time=4.147000
1592duration=N/A
1593duration_time=N/A
1594convergence_duration=N/A
1595convergence_duration_time=N/A
1596size=299
1597pos=3101812
1598flags=K_
1599[SIDE_DATA]
1600side_data_type=MPEGTS Stream ID
1601[/SIDE_DATA]
1602[/PACKET]
1603[PACKET]
1604codec_type=video
1605stream_index=0
1606pts=369090
1607pts_time=4.101000
1608dts=369090
1609dts_time=4.101000
1610duration=N/A
1611duration_time=N/A
1612convergence_duration=N/A
1613convergence_duration_time=N/A
1614size=39727
1615pos=3017400
1616flags=__
1617[SIDE_DATA]
1618side_data_type=MPEGTS Stream ID
1619[/SIDE_DATA]
1620[/PACKET]
1621[PACKET]
1622codec_type=data
1623stream_index=1
1624pts=377730
1625pts_time=4.197000
1626dts=377730
1627dts_time=4.197000
1628duration=N/A
1629duration_time=N/A
1630convergence_duration=N/A
1631convergence_duration_time=N/A
1632size=299
1633pos=3296956
1634flags=K_
1635[SIDE_DATA]
1636side_data_type=MPEGTS Stream ID
1637[/SIDE_DATA]
1638[/PACKET]
1639[PACKET]
1640codec_type=video
1641stream_index=0
1642pts=373230
1643pts_time=4.147000
1644dts=373230
1645dts_time=4.147000
1646duration=N/A
1647duration_time=N/A
1648convergence_duration=N/A
1649convergence_duration_time=N/A
1650size=38047
1651pos=3060452
1652flags=__
1653[SIDE_DATA]
1654side_data_type=MPEGTS Stream ID
1655[/SIDE_DATA]
1656[/PACKET]
1657[PACKET]
1658codec_type=data
1659stream_index=1
1660pts=382140
1661pts_time=4.246000
1662dts=382140
1663dts_time=4.246000
1664duration=N/A
1665duration_time=N/A
1666convergence_duration=N/A
1667convergence_duration_time=N/A
1668size=299
1669pos=3349220
1670flags=K_
1671[SIDE_DATA]
1672side_data_type=MPEGTS Stream ID
1673[/SIDE_DATA]
1674[/PACKET]
1675[PACKET]
1676codec_type=video
1677stream_index=0
1678pts=377730
1679pts_time=4.197000
1680dts=377730
1681dts_time=4.197000
1682duration=N/A
1683duration_time=N/A
1684convergence_duration=N/A
1685convergence_duration_time=N/A
1686size=180385
1687pos=3102564
1688flags=K_
1689[SIDE_DATA]
1690side_data_type=MPEGTS Stream ID
1691[/SIDE_DATA]
1692[/PACKET]
1693[PACKET]
1694codec_type=data
1695stream_index=1
1696pts=386640
1697pts_time=4.296000
1698dts=386640
1699dts_time=4.296000
1700duration=N/A
1701duration_time=N/A
1702convergence_duration=N/A
1703convergence_duration_time=N/A
1704size=299
1705pos=3385504
1706flags=K_
1707[SIDE_DATA]
1708side_data_type=MPEGTS Stream ID
1709[/SIDE_DATA]
1710[/PACKET]
1711[PACKET]
1712codec_type=video
1713stream_index=0
1714pts=382140
1715pts_time=4.246000
1716dts=382140
1717dts_time=4.246000
1718duration=N/A
1719duration_time=N/A
1720convergence_duration=N/A
1721convergence_duration_time=N/A
1722size=47905
1723pos=3297332
1724flags=__
1725[SIDE_DATA]
1726side_data_type=MPEGTS Stream ID
1727[/SIDE_DATA]
1728[/PACKET]
1729[PACKET]
1730codec_type=data
1731stream_index=1
1732pts=391140
1733pts_time=4.346000
1734dts=391140
1735dts_time=4.346000
1736duration=N/A
1737duration_time=N/A
1738convergence_duration=N/A
1739convergence_duration_time=N/A
1740size=299
1741pos=3440588
1742flags=K_
1743[SIDE_DATA]
1744side_data_type=MPEGTS Stream ID
1745[/SIDE_DATA]
1746[/PACKET]
1747[PACKET]
1748codec_type=video
1749stream_index=0
1750pts=386640
1751pts_time=4.296000
1752dts=386640
1753dts_time=4.296000
1754duration=N/A
1755duration_time=N/A
1756convergence_duration=N/A
1757convergence_duration_time=N/A
1758size=33336
1759pos=3349596
1760flags=__
1761[SIDE_DATA]
1762side_data_type=MPEGTS Stream ID
1763[/SIDE_DATA]
1764[/PACKET]
1765[PACKET]
1766codec_type=data
1767stream_index=1
1768pts=395820
1769pts_time=4.398000
1770dts=395820
1771dts_time=4.398000
1772duration=N/A
1773duration_time=N/A
1774convergence_duration=N/A
1775convergence_duration_time=N/A
1776size=299
1777pos=3495672
1778flags=K_
1779[SIDE_DATA]
1780side_data_type=MPEGTS Stream ID
1781[/SIDE_DATA]
1782[/PACKET]
1783[PACKET]
1784codec_type=video
1785stream_index=0
1786pts=391140
1787pts_time=4.346000
1788dts=391140
1789dts_time=4.346000
1790duration=N/A
1791duration_time=N/A
1792convergence_duration=N/A
1793convergence_duration_time=N/A
1794size=50662
1795pos=3385880
1796flags=__
1797[SIDE_DATA]
1798side_data_type=MPEGTS Stream ID
1799[/SIDE_DATA]
1800[/PACKET]
1801[PACKET]
1802codec_type=data
1803stream_index=1
1804pts=400500
1805pts_time=4.450000
1806dts=400500
1807dts_time=4.450000
1808duration=N/A
1809duration_time=N/A
1810convergence_duration=N/A
1811convergence_duration_time=N/A
1812size=299
1813pos=3547748
1814flags=K_
1815[SIDE_DATA]
1816side_data_type=MPEGTS Stream ID
1817[/SIDE_DATA]
1818[/PACKET]
1819[PACKET]
1820codec_type=video
1821stream_index=0
1822pts=395820
1823pts_time=4.398000
1824dts=395820
1825dts_time=4.398000
1826duration=N/A
1827duration_time=N/A
1828convergence_duration=N/A
1829convergence_duration_time=N/A
1830size=50462
1831pos=3440964
1832flags=__
1833[SIDE_DATA]
1834side_data_type=MPEGTS Stream ID
1835[/SIDE_DATA]
1836[/PACKET]
1837[PACKET]
1838codec_type=data
1839stream_index=1
1840pts=405000
1841pts_time=4.500000
1842dts=405000
1843dts_time=4.500000
1844duration=N/A
1845duration_time=N/A
1846convergence_duration=N/A
1847convergence_duration_time=N/A
1848size=299
1849pos=3596816
1850flags=K_
1851[SIDE_DATA]
1852side_data_type=MPEGTS Stream ID
1853[/SIDE_DATA]
1854[/PACKET]
1855[PACKET]
1856codec_type=video
1857stream_index=0
1858pts=400500
1859pts_time=4.450000
1860dts=400500
1861dts_time=4.450000
1862duration=N/A
1863duration_time=N/A
1864convergence_duration=N/A
1865convergence_duration_time=N/A
1866size=47731
1867pos=3496048
1868flags=__
1869[SIDE_DATA]
1870side_data_type=MPEGTS Stream ID
1871[/SIDE_DATA]
1872[/PACKET]
1873[PACKET]
1874codec_type=data
1875stream_index=1
1876pts=409770
1877pts_time=4.553000
1878dts=409770
1879dts_time=4.553000
1880duration=N/A
1881duration_time=N/A
1882convergence_duration=N/A
1883convergence_duration_time=N/A
1884size=299
1885pos=3645132
1886flags=K_
1887[SIDE_DATA]
1888side_data_type=MPEGTS Stream ID
1889[/SIDE_DATA]
1890[/PACKET]
1891[PACKET]
1892codec_type=video
1893stream_index=0
1894pts=405000
1895pts_time=4.500000
1896dts=405000
1897dts_time=4.500000
1898duration=N/A
1899duration_time=N/A
1900convergence_duration=N/A
1901convergence_duration_time=N/A
1902size=45145
1903pos=3548124
1904flags=__
1905[SIDE_DATA]
1906side_data_type=MPEGTS Stream ID
1907[/SIDE_DATA]
1908[/PACKET]
1909[PACKET]
1910codec_type=data
1911stream_index=1
1912pts=414900
1913pts_time=4.610000
1914dts=414900
1915dts_time=4.610000
1916duration=N/A
1917duration_time=N/A
1918convergence_duration=N/A
1919convergence_duration_time=N/A
1920size=299
1921pos=3713940
1922flags=K_
1923[SIDE_DATA]
1924side_data_type=MPEGTS Stream ID
1925[/SIDE_DATA]
1926[/PACKET]
1927[PACKET]
1928codec_type=video
1929stream_index=0
1930pts=409770
1931pts_time=4.553000
1932dts=409770
1933dts_time=4.553000
1934duration=N/A
1935duration_time=N/A
1936convergence_duration=N/A
1937convergence_duration_time=N/A
1938size=44333
1939pos=3597192
1940flags=__
1941[SIDE_DATA]
1942side_data_type=MPEGTS Stream ID
1943[/SIDE_DATA]
1944[/PACKET]
1945[PACKET]
1946codec_type=data
1947stream_index=1
1948pts=419490
1949pts_time=4.661000
1950dts=419490
1951dts_time=4.661000
1952duration=N/A
1953duration_time=N/A
1954convergence_duration=N/A
1955convergence_duration_time=N/A
1956size=299
1957pos=3776168
1958flags=K_
1959[SIDE_DATA]
1960side_data_type=MPEGTS Stream ID
1961[/SIDE_DATA]
1962[/PACKET]
1963[PACKET]
1964codec_type=video
1965stream_index=0
1966pts=414900
1967pts_time=4.610000
1968dts=414900
1969dts_time=4.610000
1970duration=N/A
1971duration_time=N/A
1972convergence_duration=N/A
1973convergence_duration_time=N/A
1974size=63273
1975pos=3645508
1976flags=__
1977[SIDE_DATA]
1978side_data_type=MPEGTS Stream ID
1979[/SIDE_DATA]
1980[/PACKET]
1981[PACKET]
1982codec_type=data
1983stream_index=1
1984pts=424080
1985pts_time=4.712000
1986dts=424080
1987dts_time=4.712000
1988duration=N/A
1989duration_time=N/A
1990convergence_duration=N/A
1991convergence_duration_time=N/A
1992size=299
1993pos=3841216
1994flags=K_
1995[SIDE_DATA]
1996side_data_type=MPEGTS Stream ID
1997[/SIDE_DATA]
1998[/PACKET]
1999[PACKET]
2000codec_type=video
2001stream_index=0
2002pts=419490
2003pts_time=4.661000
2004dts=419490
2005dts_time=4.661000
2006duration=N/A
2007duration_time=N/A
2008convergence_duration=N/A
2009convergence_duration_time=N/A
2010size=57534
2011pos=3714316
2012flags=__
2013[SIDE_DATA]
2014side_data_type=MPEGTS Stream ID
2015[/SIDE_DATA]
2016[/PACKET]
2017[PACKET]
2018codec_type=data
2019stream_index=1
2020pts=429120
2021pts_time=4.768000
2022dts=429120
2023dts_time=4.768000
2024duration=N/A
2025duration_time=N/A
2026convergence_duration=N/A
2027convergence_duration_time=N/A
2028size=299
2029pos=3886712
2030flags=K_
2031[SIDE_DATA]
2032side_data_type=MPEGTS Stream ID
2033[/SIDE_DATA]
2034[/PACKET]
2035[PACKET]
2036codec_type=video
2037stream_index=0
2038pts=424080
2039pts_time=4.712000
2040dts=424080
2041dts_time=4.712000
2042duration=N/A
2043duration_time=N/A
2044convergence_duration=N/A
2045convergence_duration_time=N/A
2046size=59628
2047pos=3776920
2048flags=__
2049[SIDE_DATA]
2050side_data_type=MPEGTS Stream ID
2051[/SIDE_DATA]
2052[/PACKET]
2053[PACKET]
2054codec_type=data
2055stream_index=1
2056pts=435330
2057pts_time=4.837000
2058dts=435330
2059dts_time=4.837000
2060duration=N/A
2061duration_time=N/A
2062convergence_duration=N/A
2063convergence_duration_time=N/A
2064size=299
2065pos=3933900
2066flags=K_
2067[SIDE_DATA]
2068side_data_type=MPEGTS Stream ID
2069[/SIDE_DATA]
2070[/PACKET]
2071[PACKET]
2072codec_type=video
2073stream_index=0
2074pts=429120
2075pts_time=4.768000
2076dts=429120
2077dts_time=4.768000
2078duration=N/A
2079duration_time=N/A
2080convergence_duration=N/A
2081convergence_duration_time=N/A
2082size=41985
2083pos=3841592
2084flags=__
2085[SIDE_DATA]
2086side_data_type=MPEGTS Stream ID
2087[/SIDE_DATA]
2088[/PACKET]
2089[PACKET]
2090codec_type=data
2091stream_index=1
2092pts=441360
2093pts_time=4.904000
2094dts=441360
2095dts_time=4.904000
2096duration=N/A
2097duration_time=N/A
2098convergence_duration=N/A
2099convergence_duration_time=N/A
2100size=299
2101pos=4067568
2102flags=K_
2103[SIDE_DATA]
2104side_data_type=MPEGTS Stream ID
2105[/SIDE_DATA]
2106[/PACKET]
2107[PACKET]
2108codec_type=video
2109stream_index=0
2110pts=435330
2111pts_time=4.837000
2112dts=435330
2113dts_time=4.837000
2114duration=N/A
2115duration_time=N/A
2116convergence_duration=N/A
2117convergence_duration_time=N/A
2118size=43063
2119pos=3887088
2120flags=__
2121[SIDE_DATA]
2122side_data_type=MPEGTS Stream ID
2123[/SIDE_DATA]
2124[/PACKET]
2125[PACKET]
2126codec_type=data
2127stream_index=1
2128pts=447120
2129pts_time=4.968000
2130dts=447120
2131dts_time=4.968000
2132duration=N/A
2133duration_time=N/A
2134convergence_duration=N/A
2135convergence_duration_time=N/A
2136size=299
2137pos=4115696
2138flags=K_
2139[SIDE_DATA]
2140side_data_type=MPEGTS Stream ID
2141[/SIDE_DATA]
2142[/PACKET]
2143[PACKET]
2144codec_type=video
2145stream_index=0
2146pts=441360
2147pts_time=4.904000
2148dts=441360
2149dts_time=4.904000
2150duration=N/A
2151duration_time=N/A
2152convergence_duration=N/A
2153convergence_duration_time=N/A
2154size=123478
2155pos=3934276
2156flags=__
2157[SIDE_DATA]
2158side_data_type=MPEGTS Stream ID
2159[/SIDE_DATA]
2160[/PACKET]
2161[PACKET]
2162codec_type=data
2163stream_index=1
2164pts=452070
2165pts_time=5.023000
2166dts=452070
2167dts_time=5.023000
2168duration=N/A
2169duration_time=N/A
2170convergence_duration=N/A
2171convergence_duration_time=N/A
2172size=299
2173pos=4182812
2174flags=K_
2175[SIDE_DATA]
2176side_data_type=MPEGTS Stream ID
2177[/SIDE_DATA]
2178[/PACKET]
2179[PACKET]
2180codec_type=video
2181stream_index=0
2182pts=447120
2183pts_time=4.968000
2184dts=447120
2185dts_time=4.968000
2186duration=N/A
2187duration_time=N/A
2188convergence_duration=N/A
2189convergence_duration_time=N/A
2190size=44163
2191pos=4067944
2192flags=__
2193[SIDE_DATA]
2194side_data_type=MPEGTS Stream ID
2195[/SIDE_DATA]
2196[/PACKET]
2197[PACKET]
2198codec_type=data
2199stream_index=1
2200pts=458370
2201pts_time=5.093000
2202dts=458370
2203dts_time=5.093000
2204duration=N/A
2205duration_time=N/A
2206convergence_duration=N/A
2207convergence_duration_time=N/A
2208size=299
2209pos=4265720
2210flags=K_
2211[SIDE_DATA]
2212side_data_type=MPEGTS Stream ID
2213[/SIDE_DATA]
2214[/PACKET]
2215[PACKET]
2216codec_type=video
2217stream_index=0
2218pts=452070
2219pts_time=5.023000
2220dts=452070
2221dts_time=5.023000
2222duration=N/A
2223duration_time=N/A
2224convergence_duration=N/A
2225convergence_duration_time=N/A
2226size=61568
2227pos=4116072
2228flags=__
2229[SIDE_DATA]
2230side_data_type=MPEGTS Stream ID
2231[/SIDE_DATA]
2232[/PACKET]
2233[PACKET]
2234codec_type=data
2235stream_index=1
2236pts=462780
2237pts_time=5.142000
2238dts=462780
2239dts_time=5.142000
2240duration=N/A
2241duration_time=N/A
2242convergence_duration=N/A
2243convergence_duration_time=N/A
2244size=299
2245pos=4369120
2246flags=K_
2247[SIDE_DATA]
2248side_data_type=MPEGTS Stream ID
2249[/SIDE_DATA]
2250[/PACKET]
2251[PACKET]
2252codec_type=video
2253stream_index=0
2254pts=458370
2255pts_time=5.093000
2256dts=458370
2257dts_time=5.093000
2258duration=N/A
2259duration_time=N/A
2260convergence_duration=N/A
2261convergence_duration_time=N/A
2262size=76550
2263pos=4183188
2264flags=__
2265[SIDE_DATA]
2266side_data_type=MPEGTS Stream ID
2267[/SIDE_DATA]
2268[/PACKET]
2269[PACKET]
2270codec_type=data
2271stream_index=1
2272pts=468000
2273pts_time=5.200000
2274dts=468000
2275dts_time=5.200000
2276duration=N/A
2277duration_time=N/A
2278convergence_duration=N/A
2279convergence_duration_time=N/A
2280size=299
2281pos=4458608
2282flags=K_
2283[SIDE_DATA]
2284side_data_type=MPEGTS Stream ID
2285[/SIDE_DATA]
2286[/PACKET]
2287[PACKET]
2288codec_type=video
2289stream_index=0
2290pts=462780
2291pts_time=5.142000
2292dts=462780
2293dts_time=5.142000
2294duration=N/A
2295duration_time=N/A
2296convergence_duration=N/A
2297convergence_duration_time=N/A
2298size=95462
2299pos=4266096
2300flags=__
2301[SIDE_DATA]
2302side_data_type=MPEGTS Stream ID
2303[/SIDE_DATA]
2304[/PACKET]
2305[PACKET]
2306codec_type=data
2307stream_index=1
2308pts=473040
2309pts_time=5.256000
2310dts=473040
2311dts_time=5.256000
2312duration=N/A
2313duration_time=N/A
2314convergence_duration=N/A
2315convergence_duration_time=N/A
2316size=299
2317pos=4535124
2318flags=K_
2319[SIDE_DATA]
2320side_data_type=MPEGTS Stream ID
2321[/SIDE_DATA]
2322[/PACKET]
2323[PACKET]
2324codec_type=video
2325stream_index=0
2326pts=468000
2327pts_time=5.200000
2328dts=468000
2329dts_time=5.200000
2330duration=N/A
2331duration_time=N/A
2332convergence_duration=N/A
2333convergence_duration_time=N/A
2334size=82614
2335pos=4369496
2336flags=__
2337[SIDE_DATA]
2338side_data_type=MPEGTS Stream ID
2339[/SIDE_DATA]
2340[/PACKET]
2341[PACKET]
2342codec_type=data
2343stream_index=1
2344pts=477360
2345pts_time=5.304000
2346dts=477360
2347dts_time=5.304000
2348duration=N/A
2349duration_time=N/A
2350convergence_duration=N/A
2351convergence_duration_time=N/A
2352size=299
2353pos=4596600
2354flags=K_
2355[SIDE_DATA]
2356side_data_type=MPEGTS Stream ID
2357[/SIDE_DATA]
2358[/PACKET]
2359[PACKET]
2360codec_type=video
2361stream_index=0
2362pts=473040
2363pts_time=5.256000
2364dts=473040
2365dts_time=5.256000
2366duration=N/A
2367duration_time=N/A
2368convergence_duration=N/A
2369convergence_duration_time=N/A
2370size=70319
2371pos=4459360
2372flags=__
2373[SIDE_DATA]
2374side_data_type=MPEGTS Stream ID
2375[/SIDE_DATA]
2376[/PACKET]
2377[PACKET]
2378codec_type=data
2379stream_index=1
2380pts=482130
2381pts_time=5.357000
2382dts=482130
2383dts_time=5.357000
2384duration=N/A
2385duration_time=N/A
2386convergence_duration=N/A
2387convergence_duration_time=N/A
2388size=299
2389pos=4628560
2390flags=K_
2391[SIDE_DATA]
2392side_data_type=MPEGTS Stream ID
2393[/SIDE_DATA]
2394[/PACKET]
2395[PACKET]
2396codec_type=video
2397stream_index=0
2398pts=477360
2399pts_time=5.304000
2400dts=477360
2401dts_time=5.304000
2402duration=N/A
2403duration_time=N/A
2404convergence_duration=N/A
2405convergence_duration_time=N/A
2406size=56522
2407pos=4535500
2408flags=__
2409[SIDE_DATA]
2410side_data_type=MPEGTS Stream ID
2411[/SIDE_DATA]
2412[/PACKET]
2413[PACKET]
2414codec_type=data
2415stream_index=1
2416pts=487350
2417pts_time=5.415000
2418dts=487350
2419dts_time=5.415000
2420duration=N/A
2421duration_time=N/A
2422convergence_duration=N/A
2423convergence_duration_time=N/A
2424size=299
2425pos=4659016
2426flags=K_
2427[SIDE_DATA]
2428side_data_type=MPEGTS Stream ID
2429[/SIDE_DATA]
2430[/PACKET]
2431[PACKET]
2432codec_type=video
2433stream_index=0
2434pts=482130
2435pts_time=5.357000
2436dts=482130
2437dts_time=5.357000
2438duration=N/A
2439duration_time=N/A
2440convergence_duration=N/A
2441convergence_duration_time=N/A
2442size=29148
2443pos=4596976
2444flags=__
2445[SIDE_DATA]
2446side_data_type=MPEGTS Stream ID
2447[/SIDE_DATA]
2448[/PACKET]
2449[PACKET]
2450codec_type=video
2451stream_index=0
2452pts=487350
2453pts_time=5.415000
2454dts=487350
2455dts_time=5.415000
2456duration=N/A
2457duration_time=N/A
2458convergence_duration=N/A
2459convergence_duration_time=N/A
2460size=27766
2461pos=4628936
2462flags=__
2463[SIDE_DATA]
2464side_data_type=MPEGTS Stream ID
2465[/SIDE_DATA]
2466[/PACKET]
2467[PACKET]
2468codec_type=video
2469stream_index=0
2470pts=492210
2471pts_time=5.469000
2472dts=492210
2473dts_time=5.469000
2474duration=N/A
2475duration_time=N/A
2476convergence_duration=N/A
2477convergence_duration_time=N/A
2478size=40385
2479pos=4659392
2480flags=__
2481[SIDE_DATA]
2482side_data_type=MPEGTS Stream ID
2483[/SIDE_DATA]
2484[/PACKET]
2485[PACKET]
2486codec_type=video
2487stream_index=0
2488pts=497160
2489pts_time=5.524000
2490dts=497160
2491dts_time=5.524000
2492duration=N/A
2493duration_time=N/A
2494convergence_duration=N/A
2495convergence_duration_time=N/A
2496size=86826
2497pos=4703196
2498flags=K_
2499[/PACKET]