Ticket #692: ffmpeg-20120831-173234.log

File ffmpeg-20120831-173234.log, 6.3 KB (added by ewhac, 4 years ago)

Specifies video input first; audio in final file is slightly early.

Line 
1ffmpeg started on 2012-08-31 at 17:32:34
2Report written to "ffmpeg-20120831-173234.log"
3Command line:
4ffmpeg -f v4l2 -i /dev/video0 -f alsa -i hw:1,0 -acodec mp2 -b:a 384k -vcodec mpeg2video -b:v 8000k -f mpegts badsync-va.mpg -report
5ffmpeg version 0.11.1 Copyright (c) 2000-2012 the FFmpeg developers
6  built on Aug 11 2012 10:06:22 with gcc 4.6.3
7  configuration: --prefix=/usr --extra-cflags='-g -O2 -fstack-protector --param=ssp-buffer-size=4 -Wformat -Werror=format-security ' --extra-ldflags='-Wl,-z,relro' --cc='ccache cc' --enable-shared --enable-libmp3lame --enable-gpl --enable-nonfree --disable-decoder=libdirac --enable-libvorbis --enable-pthreads --enable-libfaac --enable-libxvid --enable-postproc --enable-x11grab --enable-libgsm --enable-libtheora --enable-libopencore-amrnb --enable-libopencore-amrwb --enable-libx264 --enable-libspeex --enable-nonfree --disable-stripping --enable-libschroedinger --disable-encoder=libschroedinger --enable-version3 --enable-libopenjpeg --enable-libvpx --enable-librtmp --enable-avfilter --enable-libfreetype --enable-libvo-aacenc --disable-decoder=amrnb --enable-libvo-amrwbenc --enable-libaacplus --libdir=/usr/lib/i386-linux-gnu --disable-vda --enable-libbluray --enable-libcdio --enable-gnutls --enable-frei0r --enable-openssl --enable-libass --enable-libdc1394 --disable-altivec --disable-armv5te --disable-armv6 --d  libavutil      51. 54.100 / 51. 54.100
8  libavcodec     54. 23.100 / 54. 23.100
9  libavformat    54.  6.100 / 54.  6.100
10  libavdevice    54.  0.100 / 54.  0.100
11  libavfilter     2. 77.100 /  2. 77.100
12  libswscale      2.  1.100 /  2.  1.100
13  libswresample   0. 15.100 /  0. 15.100
14  libpostproc    52.  0.100 / 52.  0.100
15[video4linux2,v4l2 @ 0x877a380] [5]Capabilities: 5020041
16[video4linux2,v4l2 @ 0x877a380] Querying the device for the current frame size
17[video4linux2,v4l2 @ 0x877a380] Setting frame size to 720x480
18[video4linux2,v4l2 @ 0x877a380] The V4L2 driver using the interlaced modeThe V4L2 driver set input_id: 0, input: Composite1
19[video4linux2,v4l2 @ 0x877a380] All info found
20[video4linux2,v4l2 @ 0x877a380] Estimating duration from bitrate, this may be inaccurate
21Input #0, video4linux2,v4l2, from '/dev/video0':
22  Duration: N/A, start: 1346459555.191194, bitrate: 165722 kb/s
23    Stream #0:0, 1, 1/1000000: Video: rawvideo (YUY2 / 0x32595559), yuyv422, 720x480, 165722 kb/s, 29.97 tbr, 1000k tbn, 29.97 tbc
24[alsa @ 0x8780a80] All info found
25[alsa @ 0x8780a80] Estimating duration from bitrate, this may be inaccurate
26Guessed Channel Layout for  Input Stream #1.0 : stereo
27Input #1, alsa, from 'hw:1,0':
28  Duration: N/A, start: 1346459555.206173, bitrate: 1536 kb/s
29    Stream #1:0, 1, 1/1000000: Audio: pcm_s16le, 48000 Hz, stereo, s16, 1536 kb/s
30[buffer @ 0x8778e40] w:720 h:480 pixfmt:yuyv422 tb:1/1000000 sar:0/1 sws_param:flags=2
31[buffersink @ 0x8782100] No opaque field provided
32[format @ 0x8782780] auto-inserting filter 'auto-inserted scaler 0' between the filter 'src' and the filter 'format'
33[scale @ 0x87825e0] w:720 h:480 fmt:yuyv422 sar:0/1 -> w:720 h:480 fmt:yuv422p sar:0/1 flags:0x4
34[abuffer source @ 0x8783180] Setting entry with key 'time_base' to value '1/1000000'
35[abuffer source @ 0x8783180] Setting entry with key 'sample_rate' to value '48000'
36[abuffer source @ 0x8783180] Setting entry with key 'sample_fmt' to value 's16'
37[abuffer source @ 0x8783180] Setting entry with key 'channel_layout' to value '0x3'
38[abuffer @ 0x87830e0] tb:1/1000000 samplefmt:s16 samplerate: 48000 ch layout:0x3
39[aformat filter @ 0x8783800] Setting entry with key 'sample_fmts' to value 's16'
40[aformat filter @ 0x8783800] Setting entry with key 'sample_rates' to value '44100,48000,32000,22050,24000,16000'
41[mpeg2video @ 0x8777e40] detected 2 logical cores
42[mpeg2video @ 0x8777e40] intra_quant_bias = 96 inter_quant_bias = 0
43[mpegts @ 0x8778f20] muxrate VBR, pcr every 2 pkts, sdt every 200, pat/pmt every 40 pkts
44Output #0, mpegts, to 'badsync-va.mpg':
45  Metadata:
46    encoder         : Lavf54.6.100
47    Stream #0:0, 0, 1/90000: Video: mpeg2video, yuv422p, 720x480, q=2-31, 8000 kb/s, 90k tbn, 29.97 tbc
48    Stream #0:1, 0, 1/90000: Audio: mp2, 48000 Hz, stereo, s16, 384 kb/s
49Stream mapping:
50  Stream #0:0 -> #0:0 (rawvideo -> mpeg2video)
51  Stream #1:0 -> #0:1 (pcm_s16le -> mp2)
52Press [q] to stop, [?] for help
53frame=   16 fps=0.0 q=2.0 size=     657kB time=00:00:00.46 bitrate=11523.1kbits/s   
54frame=   31 fps= 31 q=3.4 size=    1247kB time=00:00:00.96 bitrate=10558.4kbits/s   
55frame=   46 fps= 31 q=4.5 size=    1815kB time=00:00:01.46 bitrate=10127.5kbits/s   
56frame=   61 fps= 30 q=5.0 size=    2349kB time=00:00:01.96 bitrate=9773.6kbits/s   
57frame=   77 fps= 31 q=3.9 size=    2874kB time=00:00:02.48 bitrate=9467.5kbits/s   
58frame=   92 fps= 30 q=2.7 size=    3390kB time=00:00:02.99 bitrate=9287.8kbits/s   
59frame=  107 fps= 30 q=3.4 size=    3940kB time=00:00:03.49 bitrate=9237.7kbits/s   
60frame=  122 fps= 30 q=1.9 size=    4522kB time=00:00:04.00 bitrate=9251.6kbits/s   
61frame=  137 fps= 30 q=3.2 size=    5100kB time=00:00:04.50 bitrate=9279.0kbits/s   
62frame=  152 fps= 30 q=3.5 size=    5650kB time=00:00:05.00 bitrate=9247.0kbits/s   
63frame=  167 fps= 30 q=2.7 size=    6159kB time=00:00:05.50 bitrate=9165.0kbits/s   
64frame=  182 fps= 30 q=2.7 size=    6761kB time=00:00:06.00 bitrate=9221.8kbits/s   
65frame=  198 fps= 30 q=2.7 size=    7326kB time=00:00:06.53 bitrate=9176.2kbits/s   
66frame=  213 fps= 30 q=3.5 size=    7866kB time=00:00:07.04 bitrate=9152.8kbits/s   
67frame=  228 fps= 30 q=3.6 size=    8401kB time=00:00:07.52 bitrate=9143.5kbits/s   
68frame=  243 fps= 30 q=4.4 size=    9016kB time=00:00:08.03 bitrate=9196.7kbits/s   
69frame=  258 fps= 30 q=2.8 size=    9579kB time=00:00:08.54 bitrate=9186.7kbits/s   
70frame=  273 fps= 30 q=4.1 size=   10081kB time=00:00:09.04 bitrate=9133.2kbits/s   
71frame=  288 fps= 30 q=2.9 size=   10660kB time=00:00:09.54 bitrate=9151.3kbits/s   
72frame=  304 fps= 30 q=2.6 size=   11226kB time=00:00:10.07 bitrate=9131.3kbits/s   
73frame=  319 fps= 30 q=3.3 size=   11797kB time=00:00:10.57 bitrate=9138.3kbits/s   
74frame=  334 fps= 30 q=4.5 size=   12412kB time=00:00:11.07 bitrate=9178.6kbits/s   
75frame=  349 fps= 30 q=2.8 size=   12908kB time=00:00:11.57 bitrate=9132.8kbits/s   
76frame=  352 fps= 30 q=2.4 Lsize=   13068kB time=00:00:11.71 bitrate=9140.7kbits/s   
77video:11508kB audio:550kB global headers:0kB muxing overhead 8.373939%