Ticket #6632: SessionN659929@18-22.log

File SessionN659929@18-22.log, 61.3 KB (added by Gnitry, 21 months ago)
Line 
12017.09.01 18R:22:51.816  ffmpeg version N-87130-g2b9fd15 Copyright (c) 2000-2017 the FFmpeg developers
22017.09.01 18R:22:51.816    built with gcc 7.1.0 (GCC)
32017.09.01 18R:22:51.816    configuration: --disable-static --enable-shared --enable-gpl --enable-version3 --enable-cuda --enable-cuvid --enable-d3d11va --enable-dxva2 --enable-libmfx --enable-nvenc --enable-avisynth --enable-bzlib --enable-fontconfig --enable-frei0r --enable-gnutls --enable-iconv --enable-libass --enable-libbluray --enable-libbs2b --enable-libcaca --enable-libfreetype --enable-libgme --enable-libgsm --enable-libilbc --enable-libmodplug --enable-libmp3lame --enable-libopencore-amrnb --enable-libopencore-amrwb --enable-libopenh264 --enable-libopenjpeg --enable-libopus --enable-librtmp --enable-libsnappy --enable-libsoxr --enable-libspeex --enable-libtheora --enable-libtwolame --enable-libvidstab --enable-libvo-amrwbenc --enable-libvorbis --enable-libvpx --enable-libwavpack --enable-libwebp --enable-libx264 --enable-libx265 --enable-libxavs --enable-libxvid --enable-libzimg --enable-lzma --enable-zlib
42017.09.01 18R:22:51.817    libavutil      55. 74.100 / 55. 74.100
52017.09.01 18R:22:51.817    libavcodec     57.104.100 / 57.104.100
62017.09.01 18R:22:51.817    libavformat    57. 79.100 / 57. 79.100
72017.09.01 18R:22:51.817    libavdevice    57.  8.100 / 57.  8.100
82017.09.01 18R:22:51.818    libavfilter     6.101.100 /  6.101.100
92017.09.01 18R:22:51.818    libswscale      4.  7.103 /  4.  7.103
102017.09.01 18R:22:51.818    libswresample   2.  8.100 /  2.  8.100
112017.09.01 18R:22:51.818    libpostproc    54.  6.100 / 54.  6.100
122017.09.01 18R:22:51.818  Splitting the commandline.
132017.09.01 18R:22:51.819  Reading option '-loglevel' ... matched as option 'loglevel' (set logging level) with argument 'debug'.
142017.09.01 18R:22:51.819  Reading option '-y' ... matched as option 'y' (overwrite output files) with argument '1'.
152017.09.01 18R:22:51.819  Reading option '-ss' ... matched as option 'ss' (set the start time offset) with argument '1'.
162017.09.01 18R:22:51.819  Reading option '-i' ... matched as input url with argument 'rtp://@225.1.1.1:1024'.
172017.09.01 18R:22:51.819  Reading option '-vcodec' ... matched as option 'vcodec' (force video codec ('copy' to copy stream)) with argument 'copy'.
182017.09.01 18R:22:51.82  Reading option '-y' ... matched as option 'y' (overwrite output files) with argument '1'.
192017.09.01 18R:22:51.82  Reading option '-an' ... matched as option 'an' (disable audio) with argument '1'.
202017.09.01 18R:22:51.82  Reading option 'C:\FlyStation\CapturedMedia\YEAR2017\September\1(Freitag)\55347TB-18-14\Novus\SessionN659929@18-22.ts' ... matched as output url.
212017.09.01 18R:22:51.82  Finished splitting the commandline.
222017.09.01 18R:22:51.821  Parsing a group of options: global .
232017.09.01 18R:22:51.821  Applying option loglevel (set logging level) with argument debug.
242017.09.01 18R:22:51.821  Applying option y (overwrite output files) with argument 1.
252017.09.01 18R:22:51.821      Last message repeated 1 times
262017.09.01 18R:22:51.821  Successfully parsed a group of options.
272017.09.01 18R:22:51.821  Parsing a group of options: input url rtp://@225.1.1.1:1024.
282017.09.01 18R:22:51.822  Applying option ss (set the start time offset) with argument 1.
292017.09.01 18R:22:51.822  Successfully parsed a group of options.
302017.09.01 18R:22:51.822  Opening an input file: rtp://@225.1.1.1:1024.
312017.09.01 18R:22:51.822  [rtp @ 00000000006c8740] No default whitelist set
322017.09.01 18R:22:51.822  [udp @ 00000000006c89a0] No default whitelist set
332017.09.01 18R:22:51.823  [udp @ 00000000006c89a0] 'circular_buffer_size' option was set but it is not supported on this build (pthread support is required)
342017.09.01 18R:22:51.823  [udp @ 00000000006c89a0] end receive buffer size reported is 65536
352017.09.01 18R:22:51.823  [udp @ 00000000006c8a60] No default whitelist set
362017.09.01 18R:22:51.823  [udp @ 00000000006c8a60] 'circular_buffer_size' option was set but it is not supported on this build (pthread support is required)
372017.09.01 18R:22:51.823  [udp @ 00000000006c8a60] end receive buffer size reported is 65536
382017.09.01 18R:22:51.824  [rtp @ 0000000000a3a9a0] SDP:
392017.09.01 18R:22:51.824  v=0
402017.09.01 18R:22:51.824 
412017.09.01 18R:22:51.824  c=IN IP4 225.1.1.1
422017.09.01 18R:22:51.824 
432017.09.01 18R:22:51.825  m=application 1024 RTP/AVP 33
442017.09.01 18R:22:51.825 
452017.09.01 18R:22:51.825 
462017.09.01 18R:22:51.825  [rtp @ 00000000006c8e40] No default whitelist set
472017.09.01 18R:22:51.825  [udp @ 0000000000a3bb60] No default whitelist set
482017.09.01 18R:22:51.826  [udp @ 0000000000a3bb60] 'circular_buffer_size' option was set but it is not supported on this build (pthread support is required)
492017.09.01 18R:22:51.826  [udp @ 0000000000a3bb60] end receive buffer size reported is 65536
502017.09.01 18R:22:51.826  [udp @ 0000000000a3bc40] No default whitelist set
512017.09.01 18R:22:51.826  [udp @ 0000000000a3bc40] 'circular_buffer_size' option was set but it is not supported on this build (pthread support is required)
522017.09.01 18R:22:51.826  [udp @ 0000000000a3bc40] end receive buffer size reported is 65536
532017.09.01 18R:22:51.826  [rtp @ 0000000000a3a9a0] setting jitter buffer size to 500
542017.09.01 18R:22:51.828  [rtp @ 0000000000a3a9a0] stream=0 stream_type=0 pid=110 prog_reg_desc=
552017.09.01 18R:22:51.83  [rtp @ 0000000000a3a9a0] probing stream 0 pp:2500
562017.09.01 18R:22:51.83  [rtp @ 0000000000a3a9a0] Probe with size=437, packets=1 detected flac with score=13
572017.09.01 18R:22:51.835  [rtp @ 0000000000a3a9a0] stream=1 stream_type=0 pid=100 prog_reg_desc=
582017.09.01 18R:22:51.846  [rtp @ 0000000000a3a9a0] probing stream 1 pp:2500
592017.09.01 18R:22:51.846  [rtp @ 0000000000a3a9a0] Probe with size=2518, packets=1 detected mp3 with score=1
602017.09.01 18R:22:51.847  [rtp @ 0000000000a3a9a0] probing stream 1 pp:2499
612017.09.01 18R:22:51.847  [rtp @ 0000000000a3a9a0] Probe with size=5059, packets=2 detected mp3 with score=1
622017.09.01 18R:22:51.852  [rtp @ 0000000000a3a9a0] probing stream 0 pp:2499
632017.09.01 18R:22:51.852  [rtp @ 0000000000a3a9a0] Probe with size=874, packets=2 detected flac with score=13
642017.09.01 18R:22:51.874  [rtp @ 0000000000a3a9a0] stream=1 stream_type=1b pid=100 prog_reg_desc=
652017.09.01 18R:22:51.874  [rtp @ 0000000000a3a9a0] stream=0 stream_type=f pid=110 prog_reg_desc=
662017.09.01 18R:22:51.874  [rtp @ 0000000000a3a9a0] All programs have pmt, headers found
672017.09.01 18R:22:51.88  [NULL @ 0000000000a89ee0] SPS unavailable in decode_picture_timing
682017.09.01 18R:22:51.88  [NULL @ 0000000000a89ee0] non-existing PPS 0 referenced
692017.09.01 18R:22:51.881  [AVBSFContext @ 00000000006cde00] nal_unit_type: 9, nal_ref_idc: 0
702017.09.01 18R:22:51.881  [AVBSFContext @ 00000000006cde00] nal_unit_type: 6, nal_ref_idc: 0
712017.09.01 18R:22:51.881  [AVBSFContext @ 00000000006cde00] nal_unit_type: 1, nal_ref_idc: 0
722017.09.01 18R:22:51.881  [h264 @ 0000000000a89ee0] nal_unit_type: 9, nal_ref_idc: 0
732017.09.01 18R:22:51.881  [h264 @ 0000000000a89ee0] nal_unit_type: 6, nal_ref_idc: 0
742017.09.01 18R:22:51.882  [h264 @ 0000000000a89ee0] nal_unit_type: 1, nal_ref_idc: 0
752017.09.01 18R:22:51.882  [h264 @ 0000000000a89ee0] SPS unavailable in decode_picture_timing
762017.09.01 18R:22:51.882  [h264 @ 0000000000a89ee0] non-existing PPS 0 referenced
772017.09.01 18R:22:51.882  [h264 @ 0000000000a89ee0] decode_slice_header error
782017.09.01 18R:22:51.882  [h264 @ 0000000000a89ee0] no frame!
792017.09.01 18R:22:51.883  [h264 @ 0000000000a89ee0] SPS unavailable in decode_picture_timing
802017.09.01 18R:22:51.883  [h264 @ 0000000000a89ee0] non-existing PPS 0 referenced
812017.09.01 18R:22:51.883  [AVBSFContext @ 00000000006cde00] nal_unit_type: 9, nal_ref_idc: 0
822017.09.01 18R:22:51.883  [AVBSFContext @ 00000000006cde00] nal_unit_type: 6, nal_ref_idc: 0
832017.09.01 18R:22:51.883  [AVBSFContext @ 00000000006cde00] nal_unit_type: 1, nal_ref_idc: 0
842017.09.01 18R:22:51.884  [h264 @ 0000000000a89ee0] nal_unit_type: 9, nal_ref_idc: 0
852017.09.01 18R:22:51.884  [h264 @ 0000000000a89ee0] nal_unit_type: 6, nal_ref_idc: 0
862017.09.01 18R:22:51.884  [h264 @ 0000000000a89ee0] nal_unit_type: 1, nal_ref_idc: 0
872017.09.01 18R:22:51.884  [h264 @ 0000000000a89ee0] SPS unavailable in decode_picture_timing
882017.09.01 18R:22:51.884  [h264 @ 0000000000a89ee0] non-existing PPS 0 referenced
892017.09.01 18R:22:51.885  [h264 @ 0000000000a89ee0] decode_slice_header error
902017.09.01 18R:22:51.885  [h264 @ 0000000000a89ee0] no frame!
912017.09.01 18R:22:51.885  [h264 @ 0000000000a89ee0] SPS unavailable in decode_picture_timing
922017.09.01 18R:22:51.885  [h264 @ 0000000000a89ee0] non-existing PPS 0 referenced
932017.09.01 18R:22:51.885  [AVBSFContext @ 00000000006cde00] nal_unit_type: 9, nal_ref_idc: 0
942017.09.01 18R:22:51.886  [AVBSFContext @ 00000000006cde00] nal_unit_type: 6, nal_ref_idc: 0
952017.09.01 18R:22:51.886  [AVBSFContext @ 00000000006cde00] nal_unit_type: 1, nal_ref_idc: 1
962017.09.01 18R:22:51.886  [h264 @ 0000000000a89ee0] nal_unit_type: 9, nal_ref_idc: 0
972017.09.01 18R:22:51.886  [h264 @ 0000000000a89ee0] nal_unit_type: 6, nal_ref_idc: 0
982017.09.01 18R:22:51.887  [h264 @ 0000000000a89ee0] nal_unit_type: 1, nal_ref_idc: 1
992017.09.01 18R:22:51.887  [h264 @ 0000000000a89ee0] SPS unavailable in decode_picture_timing
1002017.09.01 18R:22:51.887  [h264 @ 0000000000a89ee0] non-existing PPS 0 referenced
1012017.09.01 18R:22:51.887  [h264 @ 0000000000a89ee0] decode_slice_header error
1022017.09.01 18R:22:51.887  [h264 @ 0000000000a89ee0] no frame!
1032017.09.01 18R:22:51.888  [h264 @ 0000000000a89ee0] SPS unavailable in decode_picture_timing
1042017.09.01 18R:22:51.888  [h264 @ 0000000000a89ee0] non-existing PPS 0 referenced
1052017.09.01 18R:22:51.888  [AVBSFContext @ 00000000006cde00] nal_unit_type: 9, nal_ref_idc: 0
1062017.09.01 18R:22:51.888  [AVBSFContext @ 00000000006cde00] nal_unit_type: 6, nal_ref_idc: 0
1072017.09.01 18R:22:51.888  [AVBSFContext @ 00000000006cde00] nal_unit_type: 1, nal_ref_idc: 0
1082017.09.01 18R:22:51.889  [h264 @ 0000000000a89ee0] nal_unit_type: 9, nal_ref_idc: 0
1092017.09.01 18R:22:51.889  [h264 @ 0000000000a89ee0] nal_unit_type: 6, nal_ref_idc: 0
1102017.09.01 18R:22:51.889  [h264 @ 0000000000a89ee0] nal_unit_type: 1, nal_ref_idc: 0
1112017.09.01 18R:22:51.889  [h264 @ 0000000000a89ee0] SPS unavailable in decode_picture_timing
1122017.09.01 18R:22:51.889  [h264 @ 0000000000a89ee0] non-existing PPS 0 referenced
1132017.09.01 18R:22:51.89  [h264 @ 0000000000a89ee0] decode_slice_header error
1142017.09.01 18R:22:51.89  [h264 @ 0000000000a89ee0] no frame!
1152017.09.01 18R:22:51.913  [h264 @ 0000000000a89ee0] SPS unavailable in decode_picture_timing
1162017.09.01 18R:22:51.914  [h264 @ 0000000000a89ee0] non-existing PPS 0 referenced
1172017.09.01 18R:22:51.914  [AVBSFContext @ 00000000006cde00] nal_unit_type: 9, nal_ref_idc: 0
1182017.09.01 18R:22:51.914  [AVBSFContext @ 00000000006cde00] nal_unit_type: 6, nal_ref_idc: 0
1192017.09.01 18R:22:51.914  [AVBSFContext @ 00000000006cde00] nal_unit_type: 1, nal_ref_idc: 0
1202017.09.01 18R:22:51.915  [h264 @ 0000000000a89ee0] nal_unit_type: 9, nal_ref_idc: 0
1212017.09.01 18R:22:51.915  [h264 @ 0000000000a89ee0] nal_unit_type: 6, nal_ref_idc: 0
1222017.09.01 18R:22:51.915  [h264 @ 0000000000a89ee0] nal_unit_type: 1, nal_ref_idc: 0
1232017.09.01 18R:22:51.915  [h264 @ 0000000000a89ee0] SPS unavailable in decode_picture_timing
1242017.09.01 18R:22:51.915  [h264 @ 0000000000a89ee0] non-existing PPS 0 referenced
1252017.09.01 18R:22:51.916  [h264 @ 0000000000a89ee0] decode_slice_header error
1262017.09.01 18R:22:51.916  [h264 @ 0000000000a89ee0] no frame!
1272017.09.01 18R:22:51.916  [h264 @ 0000000000a89ee0] SPS unavailable in decode_picture_timing
1282017.09.01 18R:22:51.917  [h264 @ 0000000000a89ee0] non-existing PPS 0 referenced
1292017.09.01 18R:22:51.917  [AVBSFContext @ 00000000006cde00] nal_unit_type: 9, nal_ref_idc: 0
1302017.09.01 18R:22:51.917  [AVBSFContext @ 00000000006cde00] nal_unit_type: 6, nal_ref_idc: 0
1312017.09.01 18R:22:51.917  [AVBSFContext @ 00000000006cde00] nal_unit_type: 1, nal_ref_idc: 1
1322017.09.01 18R:22:51.917  [h264 @ 0000000000a89ee0] nal_unit_type: 9, nal_ref_idc: 0
1332017.09.01 18R:22:51.929  [h264 @ 0000000000a89ee0] nal_unit_type: 6, nal_ref_idc: 0
1342017.09.01 18R:22:51.929  [h264 @ 0000000000a89ee0] nal_unit_type: 1, nal_ref_idc: 1
1352017.09.01 18R:22:51.929  [h264 @ 0000000000a89ee0] SPS unavailable in decode_picture_timing
1362017.09.01 18R:22:51.929  [h264 @ 0000000000a89ee0] non-existing PPS 0 referenced
1372017.09.01 18R:22:51.929  [h264 @ 0000000000a89ee0] decode_slice_header error
1382017.09.01 18R:22:51.93  [h264 @ 0000000000a89ee0] no frame!
1392017.09.01 18R:22:51.93  [h264 @ 0000000000a89ee0] SPS unavailable in decode_picture_timing
1402017.09.01 18R:22:51.93  [h264 @ 0000000000a89ee0] non-existing PPS 0 referenced
1412017.09.01 18R:22:51.93  [AVBSFContext @ 00000000006cde00] nal_unit_type: 9, nal_ref_idc: 0
1422017.09.01 18R:22:51.931  [AVBSFContext @ 00000000006cde00] nal_unit_type: 6, nal_ref_idc: 0
1432017.09.01 18R:22:51.931  [AVBSFContext @ 00000000006cde00] nal_unit_type: 1, nal_ref_idc: 0
1442017.09.01 18R:22:51.931  [h264 @ 0000000000a89ee0] nal_unit_type: 9, nal_ref_idc: 0
1452017.09.01 18R:22:51.931  [h264 @ 0000000000a89ee0] nal_unit_type: 6, nal_ref_idc: 0
1462017.09.01 18R:22:51.931  [h264 @ 0000000000a89ee0] nal_unit_type: 1, nal_ref_idc: 0
1472017.09.01 18R:22:51.932  [h264 @ 0000000000a89ee0] SPS unavailable in decode_picture_timing
1482017.09.01 18R:22:51.932  [h264 @ 0000000000a89ee0] non-existing PPS 0 referenced
1492017.09.01 18R:22:51.932  [h264 @ 0000000000a89ee0] decode_slice_header error
1502017.09.01 18R:22:51.932  [h264 @ 0000000000a89ee0] no frame!
1512017.09.01 18R:22:51.951  [h264 @ 0000000000a89ee0] SPS unavailable in decode_picture_timing
1522017.09.01 18R:22:51.951  [h264 @ 0000000000a89ee0] non-existing PPS 0 referenced
1532017.09.01 18R:22:51.951  [AVBSFContext @ 00000000006cde00] nal_unit_type: 9, nal_ref_idc: 0
1542017.09.01 18R:22:51.951  [AVBSFContext @ 00000000006cde00] nal_unit_type: 6, nal_ref_idc: 0
1552017.09.01 18R:22:51.951  [AVBSFContext @ 00000000006cde00] nal_unit_type: 1, nal_ref_idc: 0
1562017.09.01 18R:22:51.952  [h264 @ 0000000000a89ee0] nal_unit_type: 9, nal_ref_idc: 0
1572017.09.01 18R:22:51.952  [h264 @ 0000000000a89ee0] nal_unit_type: 6, nal_ref_idc: 0
1582017.09.01 18R:22:51.952  [h264 @ 0000000000a89ee0] nal_unit_type: 1, nal_ref_idc: 0
1592017.09.01 18R:22:51.952  [h264 @ 0000000000a89ee0] SPS unavailable in decode_picture_timing
1602017.09.01 18R:22:51.952  [h264 @ 0000000000a89ee0] non-existing PPS 0 referenced
1612017.09.01 18R:22:51.953  [h264 @ 0000000000a89ee0] decode_slice_header error
1622017.09.01 18R:22:51.953  [h264 @ 0000000000a89ee0] no frame!
1632017.09.01 18R:22:51.954  [h264 @ 0000000000a89ee0] SPS unavailable in decode_picture_timing
1642017.09.01 18R:22:51.954  [h264 @ 0000000000a89ee0] non-existing PPS 0 referenced
1652017.09.01 18R:22:51.954  [AVBSFContext @ 00000000006cde00] nal_unit_type: 9, nal_ref_idc: 0
1662017.09.01 18R:22:51.954  [AVBSFContext @ 00000000006cde00] nal_unit_type: 6, nal_ref_idc: 0
1672017.09.01 18R:22:51.955  [AVBSFContext @ 00000000006cde00] nal_unit_type: 1, nal_ref_idc: 1
1682017.09.01 18R:22:51.955  [h264 @ 0000000000a89ee0] nal_unit_type: 9, nal_ref_idc: 0
1692017.09.01 18R:22:51.955  [h264 @ 0000000000a89ee0] nal_unit_type: 6, nal_ref_idc: 0
1702017.09.01 18R:22:51.955  [h264 @ 0000000000a89ee0] nal_unit_type: 1, nal_ref_idc: 1
1712017.09.01 18R:22:51.955  [h264 @ 0000000000a89ee0] SPS unavailable in decode_picture_timing
1722017.09.01 18R:22:51.955  [h264 @ 0000000000a89ee0] non-existing PPS 0 referenced
1732017.09.01 18R:22:51.956  [h264 @ 0000000000a89ee0] decode_slice_header error
1742017.09.01 18R:22:51.956  [h264 @ 0000000000a89ee0] no frame!
1752017.09.01 18R:22:51.957  [h264 @ 0000000000a89ee0] SPS unavailable in decode_picture_timing
1762017.09.01 18R:22:51.957  [h264 @ 0000000000a89ee0] non-existing PPS 0 referenced
1772017.09.01 18R:22:51.957  [AVBSFContext @ 00000000006cde00] nal_unit_type: 9, nal_ref_idc: 0
1782017.09.01 18R:22:51.957  [AVBSFContext @ 00000000006cde00] nal_unit_type: 6, nal_ref_idc: 0
1792017.09.01 18R:22:51.958  [AVBSFContext @ 00000000006cde00] nal_unit_type: 1, nal_ref_idc: 0
1802017.09.01 18R:22:51.958  [h264 @ 0000000000a89ee0] nal_unit_type: 9, nal_ref_idc: 0
1812017.09.01 18R:22:51.958  [h264 @ 0000000000a89ee0] nal_unit_type: 6, nal_ref_idc: 0
1822017.09.01 18R:22:51.958  [h264 @ 0000000000a89ee0] nal_unit_type: 1, nal_ref_idc: 0
1832017.09.01 18R:22:51.958  [h264 @ 0000000000a89ee0] SPS unavailable in decode_picture_timing
1842017.09.01 18R:22:51.959  [h264 @ 0000000000a89ee0] non-existing PPS 0 referenced
1852017.09.01 18R:22:51.959  [h264 @ 0000000000a89ee0] decode_slice_header error
1862017.09.01 18R:22:51.959  [h264 @ 0000000000a89ee0] no frame!
1872017.09.01 18R:22:51.989  [h264 @ 0000000000a89ee0] SPS unavailable in decode_picture_timing
1882017.09.01 18R:22:51.989  [h264 @ 0000000000a89ee0] non-existing PPS 0 referenced
1892017.09.01 18R:22:51.99  [AVBSFContext @ 00000000006cde00] nal_unit_type: 9, nal_ref_idc: 0
1902017.09.01 18R:22:51.99  [AVBSFContext @ 00000000006cde00] nal_unit_type: 6, nal_ref_idc: 0
1912017.09.01 18R:22:51.99  [AVBSFContext @ 00000000006cde00] nal_unit_type: 1, nal_ref_idc: 0
1922017.09.01 18R:22:51.99  [h264 @ 0000000000a89ee0] nal_unit_type: 9, nal_ref_idc: 0
1932017.09.01 18R:22:51.991  [h264 @ 0000000000a89ee0] nal_unit_type: 6, nal_ref_idc: 0
1942017.09.01 18R:22:51.991  [h264 @ 0000000000a89ee0] nal_unit_type: 1, nal_ref_idc: 0
1952017.09.01 18R:22:51.991  [h264 @ 0000000000a89ee0] SPS unavailable in decode_picture_timing
1962017.09.01 18R:22:51.991  [h264 @ 0000000000a89ee0] non-existing PPS 0 referenced
1972017.09.01 18R:22:51.991  [h264 @ 0000000000a89ee0] decode_slice_header error
1982017.09.01 18R:22:51.992  [h264 @ 0000000000a89ee0] no frame!
1992017.09.01 18R:22:51.992  [h264 @ 0000000000a89ee0] SPS unavailable in decode_picture_timing
2002017.09.01 18R:22:51.992  [h264 @ 0000000000a89ee0] non-existing PPS 0 referenced
2012017.09.01 18R:22:51.992  [AVBSFContext @ 00000000006cde00] nal_unit_type: 9, nal_ref_idc: 0
2022017.09.01 18R:22:51.993  [AVBSFContext @ 00000000006cde00] nal_unit_type: 6, nal_ref_idc: 0
2032017.09.01 18R:22:51.993  [AVBSFContext @ 00000000006cde00] nal_unit_type: 1, nal_ref_idc: 1
2042017.09.01 18R:22:51.993  [h264 @ 0000000000a89ee0] nal_unit_type: 9, nal_ref_idc: 0
2052017.09.01 18R:22:51.993  [h264 @ 0000000000a89ee0] nal_unit_type: 6, nal_ref_idc: 0
2062017.09.01 18R:22:51.993  [h264 @ 0000000000a89ee0] nal_unit_type: 1, nal_ref_idc: 1
2072017.09.01 18R:22:51.993  [h264 @ 0000000000a89ee0] SPS unavailable in decode_picture_timing
2082017.09.01 18R:22:51.994  [h264 @ 0000000000a89ee0] non-existing PPS 0 referenced
2092017.09.01 18R:22:51.994  [h264 @ 0000000000a89ee0] decode_slice_header error
2102017.09.01 18R:22:51.994  [h264 @ 0000000000a89ee0] no frame!
2112017.09.01 18R:22:51.994  [h264 @ 0000000000a89ee0] SPS unavailable in decode_picture_timing
2122017.09.01 18R:22:51.994  [h264 @ 0000000000a89ee0] non-existing PPS 0 referenced
2132017.09.01 18R:22:51.995  [AVBSFContext @ 00000000006cde00] nal_unit_type: 9, nal_ref_idc: 0
2142017.09.01 18R:22:51.995  [AVBSFContext @ 00000000006cde00] nal_unit_type: 6, nal_ref_idc: 0
2152017.09.01 18R:22:51.995  [AVBSFContext @ 00000000006cde00] nal_unit_type: 1, nal_ref_idc: 0
2162017.09.01 18R:22:51.995  [h264 @ 0000000000a89ee0] nal_unit_type: 9, nal_ref_idc: 0
2172017.09.01 18R:22:51.996  [h264 @ 0000000000a89ee0] nal_unit_type: 6, nal_ref_idc: 0
2182017.09.01 18R:22:51.996  [h264 @ 0000000000a89ee0] nal_unit_type: 1, nal_ref_idc: 0
2192017.09.01 18R:22:51.996  [h264 @ 0000000000a89ee0] SPS unavailable in decode_picture_timing
2202017.09.01 18R:22:51.996  [h264 @ 0000000000a89ee0] non-existing PPS 0 referenced
2212017.09.01 18R:22:51.996  [h264 @ 0000000000a89ee0] decode_slice_header error
2222017.09.01 18R:22:51.996  [h264 @ 0000000000a89ee0] no frame!
2232017.09.01 18R:22:52.024  [h264 @ 0000000000a89ee0] SPS unavailable in decode_picture_timing
2242017.09.01 18R:22:52.025  [h264 @ 0000000000a89ee0] non-existing PPS 0 referenced
2252017.09.01 18R:22:52.025  [AVBSFContext @ 00000000006cde00] nal_unit_type: 9, nal_ref_idc: 0
2262017.09.01 18R:22:52.025  [AVBSFContext @ 00000000006cde00] nal_unit_type: 6, nal_ref_idc: 0
2272017.09.01 18R:22:52.025  [AVBSFContext @ 00000000006cde00] nal_unit_type: 1, nal_ref_idc: 0
2282017.09.01 18R:22:52.026  [h264 @ 0000000000a89ee0] nal_unit_type: 9, nal_ref_idc: 0
2292017.09.01 18R:22:52.026  [h264 @ 0000000000a89ee0] nal_unit_type: 6, nal_ref_idc: 0
2302017.09.01 18R:22:52.026  [h264 @ 0000000000a89ee0] nal_unit_type: 1, nal_ref_idc: 0
2312017.09.01 18R:22:52.026  [h264 @ 0000000000a89ee0] SPS unavailable in decode_picture_timing
2322017.09.01 18R:22:52.026  [h264 @ 0000000000a89ee0] non-existing PPS 0 referenced
2332017.09.01 18R:22:52.027  [h264 @ 0000000000a89ee0] decode_slice_header error
2342017.09.01 18R:22:52.027  [h264 @ 0000000000a89ee0] no frame!
2352017.09.01 18R:22:52.027  [h264 @ 0000000000a89ee0] SPS unavailable in decode_picture_timing
2362017.09.01 18R:22:52.027  [h264 @ 0000000000a89ee0] non-existing PPS 0 referenced
2372017.09.01 18R:22:52.028  [AVBSFContext @ 00000000006cde00] nal_unit_type: 9, nal_ref_idc: 0
2382017.09.01 18R:22:52.028  [AVBSFContext @ 00000000006cde00] nal_unit_type: 6, nal_ref_idc: 0
2392017.09.01 18R:22:52.028  [AVBSFContext @ 00000000006cde00] nal_unit_type: 1, nal_ref_idc: 1
2402017.09.01 18R:22:52.028  [h264 @ 0000000000a89ee0] nal_unit_type: 9, nal_ref_idc: 0
2412017.09.01 18R:22:52.029  [h264 @ 0000000000a89ee0] nal_unit_type: 6, nal_ref_idc: 0
2422017.09.01 18R:22:52.029  [h264 @ 0000000000a89ee0] nal_unit_type: 1, nal_ref_idc: 1
2432017.09.01 18R:22:52.029  [h264 @ 0000000000a89ee0] SPS unavailable in decode_picture_timing
2442017.09.01 18R:22:52.029  [h264 @ 0000000000a89ee0] non-existing PPS 0 referenced
2452017.09.01 18R:22:52.029  [h264 @ 0000000000a89ee0] decode_slice_header error
2462017.09.01 18R:22:52.03  [h264 @ 0000000000a89ee0] no frame!
2472017.09.01 18R:22:52.031  [h264 @ 0000000000a89ee0] SPS unavailable in decode_picture_timing
2482017.09.01 18R:22:52.031  [h264 @ 0000000000a89ee0] non-existing PPS 0 referenced
2492017.09.01 18R:22:52.031  [AVBSFContext @ 00000000006cde00] nal_unit_type: 9, nal_ref_idc: 0
2502017.09.01 18R:22:52.031  [AVBSFContext @ 00000000006cde00] nal_unit_type: 6, nal_ref_idc: 0
2512017.09.01 18R:22:52.032  [AVBSFContext @ 00000000006cde00] nal_unit_type: 1, nal_ref_idc: 0
2522017.09.01 18R:22:52.032  [h264 @ 0000000000a89ee0] nal_unit_type: 9, nal_ref_idc: 0
2532017.09.01 18R:22:52.032  [h264 @ 0000000000a89ee0] nal_unit_type: 6, nal_ref_idc: 0
2542017.09.01 18R:22:52.032  [h264 @ 0000000000a89ee0] nal_unit_type: 1, nal_ref_idc: 0
2552017.09.01 18R:22:52.032  [h264 @ 0000000000a89ee0] SPS unavailable in decode_picture_timing
2562017.09.01 18R:22:52.033  [h264 @ 0000000000a89ee0] non-existing PPS 0 referenced
2572017.09.01 18R:22:52.033  [h264 @ 0000000000a89ee0] decode_slice_header error
2582017.09.01 18R:22:52.033  [h264 @ 0000000000a89ee0] no frame!
2592017.09.01 18R:22:52.062  [h264 @ 0000000000a89ee0] SPS unavailable in decode_picture_timing
2602017.09.01 18R:22:52.062  [h264 @ 0000000000a89ee0] non-existing PPS 0 referenced
2612017.09.01 18R:22:52.063  [AVBSFContext @ 00000000006cde00] nal_unit_type: 9, nal_ref_idc: 0
2622017.09.01 18R:22:52.063  [AVBSFContext @ 00000000006cde00] nal_unit_type: 6, nal_ref_idc: 0
2632017.09.01 18R:22:52.063  [AVBSFContext @ 00000000006cde00] nal_unit_type: 1, nal_ref_idc: 0
2642017.09.01 18R:22:52.063  [h264 @ 0000000000a89ee0] nal_unit_type: 9, nal_ref_idc: 0
2652017.09.01 18R:22:52.063  [h264 @ 0000000000a89ee0] nal_unit_type: 6, nal_ref_idc: 0
2662017.09.01 18R:22:52.064  [h264 @ 0000000000a89ee0] nal_unit_type: 1, nal_ref_idc: 0
2672017.09.01 18R:22:52.064  [h264 @ 0000000000a89ee0] SPS unavailable in decode_picture_timing
2682017.09.01 18R:22:52.064  [h264 @ 0000000000a89ee0] non-existing PPS 0 referenced
2692017.09.01 18R:22:52.064  [h264 @ 0000000000a89ee0] decode_slice_header error
2702017.09.01 18R:22:52.064  [h264 @ 0000000000a89ee0] no frame!
2712017.09.01 18R:22:52.065  [h264 @ 0000000000a89ee0] SPS unavailable in decode_picture_timing
2722017.09.01 18R:22:52.065  [h264 @ 0000000000a89ee0] non-existing PPS 0 referenced
2732017.09.01 18R:22:52.065  [AVBSFContext @ 00000000006cde00] nal_unit_type: 9, nal_ref_idc: 0
2742017.09.01 18R:22:52.066  [AVBSFContext @ 00000000006cde00] nal_unit_type: 6, nal_ref_idc: 0
2752017.09.01 18R:22:52.066  [AVBSFContext @ 00000000006cde00] nal_unit_type: 1, nal_ref_idc: 1
2762017.09.01 18R:22:52.066  [h264 @ 0000000000a89ee0] nal_unit_type: 9, nal_ref_idc: 0
2772017.09.01 18R:22:52.066  [h264 @ 0000000000a89ee0] nal_unit_type: 6, nal_ref_idc: 0
2782017.09.01 18R:22:52.067  [h264 @ 0000000000a89ee0] nal_unit_type: 1, nal_ref_idc: 1
2792017.09.01 18R:22:52.067  [h264 @ 0000000000a89ee0] SPS unavailable in decode_picture_timing
2802017.09.01 18R:22:52.067  [h264 @ 0000000000a89ee0] non-existing PPS 0 referenced
2812017.09.01 18R:22:52.067  [h264 @ 0000000000a89ee0] decode_slice_header error
2822017.09.01 18R:22:52.067  [h264 @ 0000000000a89ee0] no frame!
2832017.09.01 18R:22:52.068  [h264 @ 0000000000a89ee0] SPS unavailable in decode_picture_timing
2842017.09.01 18R:22:52.069  [h264 @ 0000000000a89ee0] non-existing PPS 0 referenced
2852017.09.01 18R:22:52.069  [AVBSFContext @ 00000000006cde00] nal_unit_type: 9, nal_ref_idc: 0
2862017.09.01 18R:22:52.069  [AVBSFContext @ 00000000006cde00] nal_unit_type: 6, nal_ref_idc: 0
2872017.09.01 18R:22:52.069  [AVBSFContext @ 00000000006cde00] nal_unit_type: 1, nal_ref_idc: 0
2882017.09.01 18R:22:52.069  [h264 @ 0000000000a89ee0] nal_unit_type: 9, nal_ref_idc: 0
2892017.09.01 18R:22:52.07  [h264 @ 0000000000a89ee0] nal_unit_type: 6, nal_ref_idc: 0
2902017.09.01 18R:22:52.07  [h264 @ 0000000000a89ee0] nal_unit_type: 1, nal_ref_idc: 0
2912017.09.01 18R:22:52.07  [h264 @ 0000000000a89ee0] SPS unavailable in decode_picture_timing
2922017.09.01 18R:22:52.07  [h264 @ 0000000000a89ee0] non-existing PPS 0 referenced
2932017.09.01 18R:22:52.07  [h264 @ 0000000000a89ee0] decode_slice_header error
2942017.09.01 18R:22:52.071  [h264 @ 0000000000a89ee0] no frame!
2952017.09.01 18R:22:52.282  [h264 @ 0000000000a89ee0] SPS unavailable in decode_picture_timing
2962017.09.01 18R:22:52.282  [h264 @ 0000000000a89ee0] non-existing PPS 0 referenced
2972017.09.01 18R:22:52.283  [AVBSFContext @ 00000000006cde00] nal_unit_type: 9, nal_ref_idc: 0
2982017.09.01 18R:22:52.283  [AVBSFContext @ 00000000006cde00] nal_unit_type: 6, nal_ref_idc: 0
2992017.09.01 18R:22:52.283  [AVBSFContext @ 00000000006cde00] nal_unit_type: 1, nal_ref_idc: 0
3002017.09.01 18R:22:52.283  [h264 @ 0000000000a89ee0] nal_unit_type: 9, nal_ref_idc: 0
3012017.09.01 18R:22:52.283  [h264 @ 0000000000a89ee0] nal_unit_type: 6, nal_ref_idc: 0
3022017.09.01 18R:22:52.284  [h264 @ 0000000000a89ee0] nal_unit_type: 1, nal_ref_idc: 0
3032017.09.01 18R:22:52.284  [h264 @ 0000000000a89ee0] SPS unavailable in decode_picture_timing
3042017.09.01 18R:22:52.284  [h264 @ 0000000000a89ee0] non-existing PPS 0 referenced
3052017.09.01 18R:22:52.284  [h264 @ 0000000000a89ee0] decode_slice_header error
3062017.09.01 18R:22:52.284  [h264 @ 0000000000a89ee0] no frame!
3072017.09.01 18R:22:52.287  [h264 @ 0000000000a89ee0] ct_type:0 pic_struct:0
3082017.09.01 18R:22:52.287  [AVBSFContext @ 00000000006cde00] nal_unit_type: 9, nal_ref_idc: 0
3092017.09.01 18R:22:52.288  [AVBSFContext @ 00000000006cde00] nal_unit_type: 7, nal_ref_idc: 1
3102017.09.01 18R:22:52.288  [AVBSFContext @ 00000000006cde00] nal_unit_type: 8, nal_ref_idc: 1
3112017.09.01 18R:22:52.288  [AVBSFContext @ 00000000006cde00] nal_unit_type: 6, nal_ref_idc: 0
3122017.09.01 18R:22:52.288  [AVBSFContext @ 00000000006cde00] nal_unit_type: 5, nal_ref_idc: 1
3132017.09.01 18R:22:52.288  [h264 @ 0000000000a89ee0] nal_unit_type: 9, nal_ref_idc: 0
3142017.09.01 18R:22:52.289  [h264 @ 0000000000a89ee0] nal_unit_type: 7, nal_ref_idc: 1
3152017.09.01 18R:22:52.289  [h264 @ 0000000000a89ee0] nal_unit_type: 8, nal_ref_idc: 1
3162017.09.01 18R:22:52.289  [h264 @ 0000000000a89ee0] nal_unit_type: 6, nal_ref_idc: 0
3172017.09.01 18R:22:52.29  [h264 @ 0000000000a89ee0] nal_unit_type: 5, nal_ref_idc: 1
3182017.09.01 18R:22:52.29  [h264 @ 0000000000a89ee0] ct_type:0 pic_struct:0
3192017.09.01 18R:22:52.29  [h264 @ 0000000000a89ee0] Reinit context to 1920x1088, pix_fmt: yuv420p
3202017.09.01 18R:22:52.294  [h264 @ 0000000000a89ee0] no picture
3212017.09.01 18R:22:52.348  [h264 @ 0000000000a89ee0] ct_type:0 pic_struct:0
3222017.09.01 18R:22:52.349  [h264 @ 0000000000a89ee0] nal_unit_type: 9, nal_ref_idc: 0
3232017.09.01 18R:22:52.349  [h264 @ 0000000000a89ee0] nal_unit_type: 6, nal_ref_idc: 0
3242017.09.01 18R:22:52.349  [h264 @ 0000000000a89ee0] nal_unit_type: 1, nal_ref_idc: 0
3252017.09.01 18R:22:52.349  [h264 @ 0000000000a89ee0] ct_type:0 pic_struct:0
3262017.09.01 18R:22:52.361  [rtp @ 0000000000a3a9a0] All info found
3272017.09.01 18R:22:52.363  rtp://@225.1.1.1:1024: could not seek to position 53646.295
3282017.09.01 18R:22:52.364  Input #0, rtp, from 'rtp://@225.1.1.1:1024':
3292017.09.01 18R:22:52.364    Duration: N/A, start: 53645.295311, bitrate: N/A
3302017.09.01 18R:22:52.364    Program 1
3312017.09.01 18R:22:52.365      Stream #0:1, 22, 1/90000: Video: h264 (High), 1 reference frame ([27][0][0][0] / 0x001B), yuv420p(progressive, left), 1920x1080 (1920x1088) [SAR 1:1 DAR 16:9], 0/1, 50 fps, 50 tbr, 90k tbn, 100 tbc
3322017.09.01 18R:22:52.365      Stream #0:0(eng), 22, 1/90000: Audio: aac (LC) ([15][0][0][0] / 0x000F), 48000 Hz, mono, fltp, 163 kb/s
3332017.09.01 18R:22:52.365  Successfully opened the file.
3342017.09.01 18R:22:52.365  Parsing a group of options: output url C:\FlyStation\CapturedMedia\YEAR2017\September\1(Freitag)\55347TB-18-14\Novus\SessionN659929@18-22.ts.
3352017.09.01 18R:22:52.366  Applying option vcodec (force video codec ('copy' to copy stream)) with argument copy.
3362017.09.01 18R:22:52.366  Applying option an (disable audio) with argument 1.
3372017.09.01 18R:22:52.366  Successfully parsed a group of options.
3382017.09.01 18R:22:52.366  Opening an output file: C:\FlyStation\CapturedMedia\YEAR2017\September\1(Freitag)\55347TB-18-14\Novus\SessionN659929@18-22.ts.
3392017.09.01 18R:22:52.366  [file @ 0000000001106d80] Setting default whitelist 'file,crypto'
3402017.09.01 18R:22:52.367  Successfully opened the file.
3412017.09.01 18R:22:52.367  [mpegts @ 0000000001a128c0] muxrate VBR, pcr every 9000 pkts, sdt every 200, pat/pmt every 40 pkts
3422017.09.01 18R:22:52.367  Output #0, mpegts, to 'C:\FlyStation\CapturedMedia\YEAR2017\September\1(Freitag)\55347TB-18-14\Novus\SessionN659929@18-22.ts':
3432017.09.01 18R:22:52.367    Metadata:
3442017.09.01 18R:22:52.367      encoder         : Lavf57.79.100
3452017.09.01 18R:22:52.368      Stream #0:0, 0, 1/90000: Video: h264 (High), 1 reference frame ([27][0][0][0] / 0x001B), yuv420p(progressive, left), 1920x1080 (0x0) [SAR 1:1 DAR 16:9], 0/1, q=2-31, 50 fps, 50 tbr, 90k tbn, 90k tbc
3462017.09.01 18R:22:52.368  Stream mapping:
3472017.09.01 18R:22:52.368    Stream #0:1 -> #0:0 (copy)
3482017.09.01 18R:22:52.368  Press [q] to stop, [?] for help
3492017.09.01 18R:22:52.368  cur_dts is invalid (this is harmless if it occurs once at the start per stream)
3502017.09.01 18R:22:52.368  [NULL @ 0000000000a89ee0] nal_unit_type: 7, nal_ref_idc: 1
3512017.09.01 18R:22:52.369  [NULL @ 0000000000a89ee0] nal_unit_type: 8, nal_ref_idc: 1
3522017.09.01 18R:22:52.369  [NULL @ 0000000000a89ee0] ct_type:0 pic_struct:0
3532017.09.01 18R:22:52.369  cur_dts is invalid (this is harmless if it occurs once at the start per stream)
3542017.09.01 18R:22:52.369  [NULL @ 0000000000a89ee0] ct_type:0 pic_struct:0
3552017.09.01 18R:22:52.369  cur_dts is invalid (this is harmless if it occurs once at the start per stream)
3562017.09.01 18R:22:52.37  [NULL @ 0000000000a89ee0] ct_type:0 pic_struct:0
3572017.09.01 18R:22:52.37  cur_dts is invalid (this is harmless if it occurs once at the start per stream)
3582017.09.01 18R:22:52.37  [NULL @ 0000000000a89ee0] ct_type:0 pic_struct:0
3592017.09.01 18R:22:52.37  cur_dts is invalid (this is harmless if it occurs once at the start per stream)
3602017.09.01 18R:22:52.37  [NULL @ 0000000000a89ee0] ct_type:0 pic_struct:0
3612017.09.01 18R:22:52.37  cur_dts is invalid (this is harmless if it occurs once at the start per stream)
3622017.09.01 18R:22:52.397  [NULL @ 0000000000a89ee0] ct_type:0 pic_struct:0
3632017.09.01 18R:22:52.398  cur_dts is invalid (this is harmless if it occurs once at the start per stream)
3642017.09.01 18R:22:52.399  [NULL @ 0000000000a89ee0] ct_type:0 pic_struct:0
3652017.09.01 18R:22:52.399  cur_dts is invalid (this is harmless if it occurs once at the start per stream)
3662017.09.01 18R:22:52.402  [NULL @ 0000000000a89ee0] ct_type:0 pic_struct:0
3672017.09.01 18R:22:52.403  cur_dts is invalid (this is harmless if it occurs once at the start per stream)
3682017.09.01 18R:22:52.434  [NULL @ 0000000000a89ee0] ct_type:0 pic_struct:0
3692017.09.01 18R:22:52.435  cur_dts is invalid (this is harmless if it occurs once at the start per stream)
3702017.09.01 18R:22:52.437  [NULL @ 0000000000a89ee0] ct_type:0 pic_struct:0
3712017.09.01 18R:22:52.438  cur_dts is invalid (this is harmless if it occurs once at the start per stream)
3722017.09.01 18R:22:52.441  [NULL @ 0000000000a89ee0] ct_type:0 pic_struct:0
3732017.09.01 18R:22:52.441  cur_dts is invalid (this is harmless if it occurs once at the start per stream)
3742017.09.01 18R:22:52.471  [NULL @ 0000000000a89ee0] ct_type:0 pic_struct:0
3752017.09.01 18R:22:52.472  cur_dts is invalid (this is harmless if it occurs once at the start per stream)
3762017.09.01 18R:22:52.474  [NULL @ 0000000000a89ee0] ct_type:0 pic_struct:0
3772017.09.01 18R:22:52.475  cur_dts is invalid (this is harmless if it occurs once at the start per stream)
3782017.09.01 18R:22:52.478  [NULL @ 0000000000a89ee0] ct_type:0 pic_struct:0
3792017.09.01 18R:22:52.478  cur_dts is invalid (this is harmless if it occurs once at the start per stream)
3802017.09.01 18R:22:52.51  [NULL @ 0000000000a89ee0] ct_type:0 pic_struct:0
3812017.09.01 18R:22:52.515  cur_dts is invalid (this is harmless if it occurs once at the start per stream)
3822017.09.01 18R:22:52.515  [NULL @ 0000000000a89ee0] ct_type:0 pic_struct:0
3832017.09.01 18R:22:52.515  cur_dts is invalid (this is harmless if it occurs once at the start per stream)
3842017.09.01 18R:22:52.516  [NULL @ 0000000000a89ee0] ct_type:0 pic_struct:0
3852017.09.01 18R:22:52.516  cur_dts is invalid (this is harmless if it occurs once at the start per stream)
3862017.09.01 18R:22:52.548  [NULL @ 0000000000a89ee0] ct_type:0 pic_struct:0
3872017.09.01 18R:22:52.573  cur_dts is invalid (this is harmless if it occurs once at the start per stream)
3882017.09.01 18R:22:52.573  [NULL @ 0000000000a89ee0] ct_type:0 pic_struct:0
3892017.09.01 18R:22:52.573  cur_dts is invalid (this is harmless if it occurs once at the start per stream)
3902017.09.01 18R:22:52.573  [NULL @ 0000000000a89ee0] ct_type:0 pic_struct:0
3912017.09.01 18R:22:52.573  cur_dts is invalid (this is harmless if it occurs once at the start per stream)
3922017.09.01 18R:22:52.768  [NULL @ 0000000000a89ee0] ct_type:0 pic_struct:0
3932017.09.01 18R:22:52.768  cur_dts is invalid (this is harmless if it occurs once at the start per stream)
3942017.09.01 18R:22:52.773  [NULL @ 0000000000a89ee0] ct_type:0 pic_struct:0
3952017.09.01 18R:22:52.883      Last message repeated 9 times
3962017.09.01 18R:22:52.883  frame=   10 fps=0.0 q=-1.0 size=     256kB time=00:00:00.21 bitrate=9708.5kbits/s speed=0.421x   
3972017.09.01 18R:22:52.885  [NULL @ 0000000000a89ee0] ct_type:0 pic_struct:0
3982017.09.01 18R:22:53.402      Last message repeated 26 times
3992017.09.01 18R:22:53.402  frame=   37 fps= 36 q=-1.0 size=     512kB time=00:00:00.75 bitrate=5547.9kbits/s speed=0.733x   
4002017.09.01 18R:22:53.405  [NULL @ 0000000000a89ee0] ct_type:0 pic_struct:0
4012017.09.01 18R:22:53.922      Last message repeated 26 times
4022017.09.01 18R:22:53.923  frame=   64 fps= 41 q=-1.0 size=    1024kB time=00:00:01.29 bitrate=6472.6kbits/s speed=0.835x   
4032017.09.01 18R:22:53.925  [NULL @ 0000000000a89ee0] ct_type:0 pic_struct:0
4042017.09.01 18R:22:54.437      Last message repeated 26 times
4052017.09.01 18R:22:54.437  frame=   91 fps= 44 q=-1.0 size=    1280kB time=00:00:01.83 bitrate=5711.2kbits/s speed=0.889x   
4062017.09.01 18R:22:54.44  [NULL @ 0000000000a89ee0] ct_type:0 pic_struct:0
4072017.09.01 18R:22:54.952      Last message repeated 26 times
4082017.09.01 18R:22:54.953  frame=  118 fps= 46 q=-1.0 size=    1792kB time=00:00:02.37 bitrate=6178.4kbits/s speed=0.92x   
4092017.09.01 18R:22:54.955  [NULL @ 0000000000a89ee0] ct_type:0 pic_struct:0
4102017.09.01 18R:22:55.654      Last message repeated 26 times
4112017.09.01 18R:22:55.662  frame=  145 fps= 44 q=-1.0 size=    2304kB time=00:00:02.91 bitrate=6472.7kbits/s speed=0.889x   
4122017.09.01 18R:22:55.662  [NULL @ 0000000000a89ee0] ct_type:0 pic_struct:0
4132017.09.01 18R:22:56.171      Last message repeated 26 times
4142017.09.01 18R:22:56.171  frame=  172 fps= 45 q=-1.0 size=    2816kB time=00:00:03.45 bitrate=6674.9kbits/s speed=0.909x   
4152017.09.01 18R:22:56.174  [NULL @ 0000000000a89ee0] ct_type:0 pic_struct:0
4162017.09.01 18R:22:56.686      Last message repeated 26 times
4172017.09.01 18R:22:56.687  frame=  199 fps= 46 q=-1.0 size=    3072kB time=00:00:03.99 bitrate=6297.7kbits/s speed=0.926x   
4182017.09.01 18R:23:04.554  [NULL @ 0000000000a89ee0] ct_type:0 pic_struct:0
4192017.09.01 18R:23:04.571      Last message repeated 26 times
4202017.09.01 18R:23:04.571  frame=  226 fps= 47 q=-1.0 size=    3584kB time=00:00:04.53 bitrate=6472.7kbits/s speed=0.939x   
4212017.09.01 18R:23:04.571  [NULL @ 0000000000a89ee0] ct_type:0 pic_struct:0
4222017.09.01 18R:23:04.572      Last message repeated 26 times
4232017.09.01 18R:23:04.572  frame=  253 fps= 47 q=-1.0 size=    4096kB time=00:00:05.07 bitrate=6610.4kbits/s speed=0.948x   
4242017.09.01 18R:23:04.572  [NULL @ 0000000000a89ee0] ct_type:0 pic_struct:0
4252017.09.01 18R:23:04.572  frame=  254 fps= 21 q=-1.0 size=    4096kB time=00:00:05.09 bitrate=6584.5kbits/s speed=0.418x   
4262017.09.01 18R:23:04.572  [NULL @ 0000000000a89ee0] ct_type:0 pic_struct:0
4272017.09.01 18R:23:04.655      Last message repeated 5 times
4282017.09.01 18R:23:04.684  [rtp @ 0000000000a3a9a0] max delay reached. need to consume packet
4292017.09.01 18R:23:04.684  [rtp @ 0000000000a3a9a0] RTP: missed 4147 packets
4302017.09.01 18R:23:04.685  [rtp @ 0000000000a3a9a0] RTP: PT=21: bad cseq a237 expected=9204
4312017.09.01 18R:23:04.685  [rtp @ 0000000000a3a9a0] max delay reached. need to consume packet
4322017.09.01 18R:23:04.685  [rtp @ 0000000000a3a9a0] RTP: missed 4148 packets
4332017.09.01 18R:23:04.685  [rtp @ 0000000000a3a9a0] Continuity check failed for pid 256 expected 8 got 15
4342017.09.01 18R:23:04.686  [rtp @ 0000000000a3a9a0] Continuity check failed for pid 272 expected 10 got 15
4352017.09.01 18R:23:04.686  [rtp @ 0000000000a3a9a0] Continuity check failed for pid 32 expected 13 got 4
4362017.09.01 18R:23:04.686  [rtp @ 0000000000a3a9a0] Continuity check failed for pid 0 expected 14 got 6
4372017.09.01 18R:23:04.767  [NULL @ 0000000000a89ee0] ct_type:0 pic_struct:0
4382017.09.01 18R:23:05.255      Last message repeated 25 times
4392017.09.01 18R:23:05.256  frame=  286 fps= 22 q=-1.0 size=    4608kB time=00:00:12.51 bitrate=3016.0kbits/s speed=0.971x   
4402017.09.01 18R:23:05.257  [NULL @ 0000000000a89ee0] ct_type:0 pic_struct:0
4412017.09.01 18R:23:05.77      Last message repeated 26 times
4422017.09.01 18R:23:05.77  frame=  313 fps= 23 q=-1.0 size=    5120kB time=00:00:13.05 bitrate=3212.5kbits/s speed=0.974x   
4432017.09.01 18R:23:05.773  [NULL @ 0000000000a89ee0] ct_type:0 pic_struct:0
4442017.09.01 18R:23:06.287      Last message repeated 26 times
4452017.09.01 18R:23:06.288  frame=  340 fps= 24 q=-1.0 size=    5376kB time=00:00:13.59 bitrate=3239.2kbits/s speed=0.977x   
4462017.09.01 18R:23:06.29  [NULL @ 0000000000a89ee0] ct_type:0 pic_struct:0
4472017.09.01 18R:23:06.803      Last message repeated 26 times
4482017.09.01 18R:23:06.804  frame=  367 fps= 25 q=-1.0 size=    5888kB time=00:00:14.13 bitrate=3412.2kbits/s speed=0.979x   
4492017.09.01 18R:23:06.808  [NULL @ 0000000000a89ee0] ct_type:0 pic_struct:0
4502017.09.01 18R:23:07.324      Last message repeated 26 times
4512017.09.01 18R:23:07.324  frame=  394 fps= 26 q=-1.0 size=    6144kB time=00:00:14.67 bitrate=3429.5kbits/s speed=0.981x   
4522017.09.01 18R:23:07.325  [NULL @ 0000000000a89ee0] ct_type:0 pic_struct:0
4532017.09.01 18R:23:07.841      Last message repeated 26 times
4542017.09.01 18R:23:07.842  frame=  421 fps= 27 q=-1.0 size=    6656kB time=00:00:15.21 bitrate=3583.5kbits/s speed=0.983x   
4552017.09.01 18R:23:07.844  [NULL @ 0000000000a89ee0] ct_type:0 pic_struct:0
4562017.09.01 18R:23:08.364      Last message repeated 26 times
4572017.09.01 18R:23:08.364  frame=  448 fps= 28 q=-1.0 size=    7168kB time=00:00:15.75 bitrate=3726.8kbits/s speed=0.985x   
4582017.09.01 18R:23:08.368  [NULL @ 0000000000a89ee0] ct_type:0 pic_struct:0
4592017.09.01 18R:23:08.879      Last message repeated 26 times
4602017.09.01 18R:23:08.879  frame=  475 fps= 29 q=-1.0 size=    7424kB time=00:00:16.29 bitrate=3732.0kbits/s speed=0.987x   
4612017.09.01 18R:23:08.88  [NULL @ 0000000000a89ee0] ct_type:0 pic_struct:0
4622017.09.01 18R:23:09.577      Last message repeated 26 times
4632017.09.01 18R:23:09.578  frame=  502 fps= 29 q=-1.0 size=    7936kB time=00:00:16.83 bitrate=3861.5kbits/s speed=0.978x   
4642017.09.01 18R:23:09.581  [NULL @ 0000000000a89ee0] ct_type:0 pic_struct:0
4652017.09.01 18R:23:10.093      Last message repeated 26 times
4662017.09.01 18R:23:10.139  frame=  529 fps= 30 q=-1.0 size=    8448kB time=00:00:17.37 bitrate=3982.8kbits/s speed=0.98x   
4672017.09.01 18R:23:10.139  [NULL @ 0000000000a89ee0] ct_type:0 pic_struct:0
4682017.09.01 18R:23:10.61      Last message repeated 26 times
4692017.09.01 18R:23:10.61  frame=  556 fps= 30 q=-1.0 size=    8960kB time=00:00:17.91 bitrate=4096.9kbits/s speed=0.982x   
4702017.09.01 18R:23:10.613  [NULL @ 0000000000a89ee0] ct_type:0 pic_struct:0
4712017.09.01 18R:23:11.137      Last message repeated 26 times
4722017.09.01 18R:23:11.137  frame=  583 fps= 31 q=-1.0 size=    9216kB time=00:00:18.45 bitrate=4090.7kbits/s speed=0.984x   
4732017.09.01 18R:23:11.141  [NULL @ 0000000000a89ee0] ct_type:0 pic_struct:0
4742017.09.01 18R:23:11.651      Last message repeated 26 times
4752017.09.01 18R:23:11.651  frame=  610 fps= 32 q=-1.0 size=    9728kB time=00:00:18.99 bitrate=4195.2kbits/s speed=0.985x   
4762017.09.01 18R:23:11.655  [NULL @ 0000000000a89ee0] ct_type:0 pic_struct:0
4772017.09.01 18R:23:12.166      Last message repeated 26 times
4782017.09.01 18R:23:12.167  frame=  637 fps= 32 q=-1.0 size=    9984kB time=00:00:19.53 bitrate=4186.6kbits/s speed=0.987x   
4792017.09.01 18R:23:12.171  [NULL @ 0000000000a89ee0] ct_type:0 pic_struct:0
4802017.09.01 18R:23:12.691      Last message repeated 26 times
4812017.09.01 18R:23:12.691  frame=  664 fps= 33 q=-1.0 size=   10496kB time=00:00:20.07 bitrate=4282.9kbits/s speed=0.988x   
4822017.09.01 18R:23:12.695  [NULL @ 0000000000a89ee0] ct_type:0 pic_struct:0
4832017.09.01 18R:23:13.21      Last message repeated 26 times
4842017.09.01 18R:23:13.21  frame=  691 fps= 33 q=-1.0 size=   11008kB time=00:00:20.61 bitrate=4374.2kbits/s speed=0.989x   
4852017.09.01 18R:23:13.215  [NULL @ 0000000000a89ee0] ct_type:0 pic_struct:0
4862017.09.01 18R:23:13.841      Last message repeated 25 times
4872017.09.01 18R:23:13.842  frame=  717 fps= 34 q=-1.0 size=   11264kB time=00:00:21.13 bitrate=4365.8kbits/s speed=0.99x   
4882017.09.01 18R:23:13.851  [NULL @ 0000000000a89ee0] ct_type:0 pic_struct:0
4892017.09.01 18R:23:14.315      Last message repeated 24 times
4902017.09.01 18R:23:14.315  frame=  742 fps= 34 q=-1.0 size=   11776kB time=00:00:21.63 bitrate=4458.7kbits/s speed=0.986x   
4912017.09.01 18R:23:14.322  [NULL @ 0000000000a89ee0] ct_type:0 pic_struct:0
4922017.09.01 18R:23:14.842      Last message repeated 26 times
4932017.09.01 18R:23:14.843  frame=  769 fps= 34 q=-1.0 size=   12288kB time=00:00:22.17 bitrate=4539.3kbits/s speed=0.987x   
4942017.09.01 18R:23:14.849  [NULL @ 0000000000a89ee0] ct_type:0 pic_struct:0
4952017.09.01 18R:23:15.348      Last message repeated 26 times
4962017.09.01 18R:23:15.348  frame=  796 fps= 35 q=-1.0 size=   12544kB time=00:00:22.71 bitrate=4523.7kbits/s speed=0.989x   
4972017.09.01 18R:23:15.355  [NULL @ 0000000000a89ee0] ct_type:0 pic_struct:0
4982017.09.01 18R:23:15.881      Last message repeated 26 times
4992017.09.01 18R:23:15.882  frame=  823 fps= 35 q=-1.0 size=   13056kB time=00:00:23.25 bitrate=4599.0kbits/s speed=0.989x   
5002017.09.01 18R:23:15.888  [NULL @ 0000000000a89ee0] ct_type:0 pic_struct:0
5012017.09.01 18R:23:16.402      Last message repeated 26 times
5022017.09.01 18R:23:16.403  frame=  850 fps= 35 q=-1.0 size=   13568kB time=00:00:23.79 bitrate=4670.9kbits/s speed=0.99x   
5032017.09.01 18R:23:16.41  [NULL @ 0000000000a89ee0] ct_type:0 pic_struct:0
5042017.09.01 18R:23:16.935      Last message repeated 26 times
5052017.09.01 18R:23:16.936  frame=  877 fps= 36 q=-1.0 size=   13824kB time=00:00:24.33 bitrate=4653.4kbits/s speed=0.991x   
5062017.09.01 18R:23:16.942  [NULL @ 0000000000a89ee0] ct_type:0 pic_struct:0
5072017.09.01 18R:23:17.44      Last message repeated 24 times
5082017.09.01 18R:23:17.44  frame=  902 fps= 36 q=-1.0 size=   14336kB time=00:00:24.83 bitrate=4728.6kbits/s speed=0.991x   
5092017.09.01 18R:23:17.472  [NULL @ 0000000000a89ee0] ct_type:0 pic_struct:0
5102017.09.01 18R:23:17.947      Last message repeated 26 times
5112017.09.01 18R:23:17.948  frame=  929 fps= 36 q=-1.0 size=   14592kB time=00:00:25.37 bitrate=4710.7kbits/s speed=0.992x   
5122017.09.01 18R:23:17.98  [NULL @ 0000000000a89ee0] ct_type:0 pic_struct:0
5132017.09.01 18R:23:18.472      Last message repeated 25 times
5142017.09.01 18R:23:18.473  frame=  955 fps= 37 q=-1.0 size=   15104kB time=00:00:25.89 bitrate=4778.0kbits/s speed=0.992x   
5152017.09.01 18R:23:18.478  [NULL @ 0000000000a89ee0] ct_type:0 pic_struct:0
5162017.09.01 18R:23:19.125      Last message repeated 26 times
5172017.09.01 18R:23:19.125  frame=  982 fps= 37 q=-1.0 size=   15616kB time=00:00:26.43 bitrate=4839.1kbits/s speed=0.988x   
5182017.09.01 18R:23:19.131  [NULL @ 0000000000a89ee0] ct_type:0 pic_struct:0
5192017.09.01 18R:23:19.653      Last message repeated 26 times
5202017.09.01 18R:23:19.654  frame= 1009 fps= 37 q=-1.0 size=   16128kB time=00:00:26.97 bitrate=4897.7kbits/s speed=0.989x   
5212017.09.01 18R:23:19.658  [NULL @ 0000000000a89ee0] ct_type:0 pic_struct:0
5222017.09.01 18R:23:20.181      Last message repeated 26 times
5232017.09.01 18R:23:20.181  frame= 1036 fps= 37 q=-1.0 size=   16384kB time=00:00:27.51 bitrate=4877.8kbits/s speed=0.989x   
5242017.09.01 18R:23:20.187  [NULL @ 0000000000a89ee0] ct_type:0 pic_struct:0
5252017.09.01 18R:23:20.707      Last message repeated 26 times
5262017.09.01 18R:23:20.708  frame= 1063 fps= 38 q=-1.0 size=   16896kB time=00:00:28.05 bitrate=4933.4kbits/s speed=0.99x   
5272017.09.01 18R:23:20.714  [NULL @ 0000000000a89ee0] ct_type:0 pic_struct:0
5282017.09.01 18R:23:21.219      Last message repeated 26 times
5292017.09.01 18R:23:21.22  frame= 1090 fps= 38 q=-1.0 size=   17408kB time=00:00:28.59 bitrate=4986.9kbits/s speed=0.991x   
5302017.09.01 18R:23:21.224  [NULL @ 0000000000a89ee0] ct_type:0 pic_struct:0
5312017.09.01 18R:23:21.748      Last message repeated 26 times
5322017.09.01 18R:23:21.749  frame= 1117 fps= 38 q=-1.0 size=   17664kB time=00:00:29.13 bitrate=4966.5kbits/s speed=0.992x   
5332017.09.01 18R:23:21.753  [NULL @ 0000000000a89ee0] ct_type:0 pic_struct:0
5342017.09.01 18R:23:22.28      Last message repeated 25 times
5352017.09.01 18R:23:22.28  frame= 1143 fps= 38 q=-1.0 size=   18176kB time=00:00:29.65 bitrate=5020.8kbits/s speed=0.993x   
5362017.09.01 18R:23:22.286  [NULL @ 0000000000a89ee0] ct_type:0 pic_struct:0
5372017.09.01 18R:23:22.766      Last message repeated 24 times
5382017.09.01 18R:23:22.766  frame= 1168 fps= 38 q=-1.0 size=   18432kB time=00:00:30.15 bitrate=5007.1kbits/s speed=0.992x   
5392017.09.01 18R:23:22.772  [NULL @ 0000000000a89ee0] ct_type:0 pic_struct:0
5402017.09.01 18R:23:23.284      Last message repeated 26 times
5412017.09.01 18R:23:23.284  frame= 1195 fps= 39 q=-1.0 size=   18944kB time=00:00:30.69 bitrate=5055.7kbits/s speed=0.993x   
5422017.09.01 18R:23:23.291  [NULL @ 0000000000a89ee0] ct_type:0 pic_struct:0
5432017.09.01 18R:23:23.917      Last message repeated 26 times
5442017.09.01 18R:23:23.917  frame= 1222 fps= 39 q=-1.0 size=   19456kB time=00:00:31.23 bitrate=5102.6kbits/s speed=0.99x   
5452017.09.01 18R:23:23.921  [NULL @ 0000000000a89ee0] ct_type:0 pic_struct:0
5462017.09.01 18R:23:24.445      Last message repeated 25 times
5472017.09.01 18R:23:24.445  frame= 1248 fps= 39 q=-1.0 size=   19968kB time=00:00:31.75 bitrate=5151.1kbits/s speed=0.991x   
5482017.09.01 18R:23:24.45  [NULL @ 0000000000a89ee0] ct_type:0 pic_struct:0
5492017.09.01 18R:23:24.935      Last message repeated 24 times
5502017.09.01 18R:23:24.935  frame= 1273 fps= 39 q=-1.0 size=   20224kB time=00:00:32.25 bitrate=5136.3kbits/s speed=0.991x   
5512017.09.01 18R:23:24.94  [NULL @ 0000000000a89ee0] ct_type:0 pic_struct:0
5522017.09.01 18R:23:25.463      Last message repeated 26 times
5532017.09.01 18R:23:25.463  frame= 1300 fps= 39 q=-1.0 size=   20736kB time=00:00:32.79 bitrate=5179.6kbits/s speed=0.991x   
5542017.09.01 18R:23:25.469  [NULL @ 0000000000a89ee0] ct_type:0 pic_struct:0
5552017.09.01 18R:23:25.983      Last message repeated 26 times
5562017.09.01 18R:23:25.983  frame= 1327 fps= 39 q=-1.0 size=   20992kB time=00:00:33.33 bitrate=5158.6kbits/s speed=0.992x   
5572017.09.01 18R:23:25.989  [NULL @ 0000000000a89ee0] ct_type:0 pic_struct:0
5582017.09.01 18R:23:26.496      Last message repeated 26 times
5592017.09.01 18R:23:26.496  frame= 1354 fps= 40 q=-1.0 size=   21504kB time=00:00:33.87 bitrate=5200.2kbits/s speed=0.993x   
5602017.09.01 18R:23:26.502  [NULL @ 0000000000a89ee0] ct_type:0 pic_struct:0
5612017.09.01 18R:23:27.006      Last message repeated 26 times
5622017.09.01 18R:23:27.006  frame= 1381 fps= 40 q=-1.0 size=   22016kB time=00:00:34.41 bitrate=5240.4kbits/s speed=0.994x   
5632017.09.01 18R:23:27.011  [NULL @ 0000000000a89ee0] ct_type:0 pic_struct:0
5642017.09.01 18R:23:27.514      Last message repeated 23 times
5652017.09.01 18R:23:27.514  frame= 1405 fps= 40 q=-1.0 size=   22272kB time=00:00:34.89 bitrate=5228.5kbits/s speed=0.993x   
5662017.09.01 18R:23:27.519  [NULL @ 0000000000a89ee0] ct_type:0 pic_struct:0
5672017.09.01 18R:23:28.029      Last message repeated 26 times
5682017.09.01 18R:23:28.029  frame= 1432 fps= 40 q=-1.0 size=   22784kB time=00:00:35.43 bitrate=5267.1kbits/s speed=0.994x   
5692017.09.01 18R:23:28.033  [NULL @ 0000000000a89ee0] ct_type:0 pic_struct:0
5702017.09.01 18R:23:28.538      Last message repeated 26 times
5712017.09.01 18R:23:28.538  frame= 1459 fps= 40 q=-1.0 size=   23040kB time=00:00:35.97 bitrate=5246.4kbits/s speed=0.995x   
5722017.09.01 18R:23:28.541  [NULL @ 0000000000a89ee0] ct_type:0 pic_struct:0
5732017.09.01 18R:23:29.225      Last message repeated 26 times
5742017.09.01 18R:23:29.225  frame= 1486 fps= 40 q=-1.0 size=   23552kB time=00:00:36.51 bitrate=5283.7kbits/s speed=0.991x   
5752017.09.01 18R:23:29.231  [NULL @ 0000000000a89ee0] ct_type:0 pic_struct:0
5762017.09.01 18R:23:29.745      Last message repeated 26 times
5772017.09.01 18R:23:29.746  frame= 1513 fps= 40 q=-1.0 size=   24064kB time=00:00:37.05 bitrate=5319.8kbits/s speed=0.991x   
5782017.09.01 18R:23:29.75  [NULL @ 0000000000a89ee0] ct_type:0 pic_struct:0
5792017.09.01 18R:23:30.272      Last message repeated 26 times
5802017.09.01 18R:23:30.272  frame= 1540 fps= 41 q=-1.0 size=   24576kB time=00:00:37.59 bitrate=5355.0kbits/s speed=0.992x   
5812017.09.01 18R:23:30.278  [NULL @ 0000000000a89ee0] ct_type:0 pic_struct:0
5822017.09.01 18R:23:30.79      Last message repeated 26 times
5832017.09.01 18R:23:30.79  frame= 1567 fps= 41 q=-1.0 size=   24832kB time=00:00:38.13 bitrate=5334.2kbits/s speed=0.993x   
5842017.09.01 18R:23:30.795  [NULL @ 0000000000a89ee0] ct_type:0 pic_struct:0
5852017.09.01 18R:23:31.308      Last message repeated 26 times
5862017.09.01 18R:23:31.308  frame= 1594 fps= 41 q=-1.0 size=   25344kB time=00:00:38.67 bitrate=5368.1kbits/s speed=0.993x   
5872017.09.01 18R:23:31.314  [NULL @ 0000000000a89ee0] ct_type:0 pic_struct:0
5882017.09.01 18R:23:31.828      Last message repeated 26 times
5892017.09.01 18R:23:31.828  frame= 1621 fps= 41 q=-1.0 size=   25856kB time=00:00:39.21 bitrate=5401.2kbits/s speed=0.994x   
5902017.09.01 18R:23:31.834  [NULL @ 0000000000a89ee0] ct_type:0 pic_struct:0
5912017.09.01 18R:23:32.341      Last message repeated 26 times
5922017.09.01 18R:23:32.341  frame= 1648 fps= 41 q=-1.0 size=   26112kB time=00:00:39.75 bitrate=5380.6kbits/s speed=0.995x   
5932017.09.01 18R:23:32.347  [NULL @ 0000000000a89ee0] ct_type:0 pic_struct:0
5942017.09.01 18R:23:32.842      Last message repeated 24 times
5952017.09.01 18R:23:32.842  frame= 1673 fps= 41 q=-1.0 size=   26624kB time=00:00:40.25 bitrate=5417.9kbits/s speed=0.995x   
5962017.09.01 18R:23:32.877  [NULL @ 0000000000a89ee0] ct_type:0 pic_struct:0
5972017.09.01 18R:23:33.366      Last message repeated 25 times
5982017.09.01 18R:23:33.366  frame= 1699 fps= 41 q=-1.0 size=   26880kB time=00:00:40.77 bitrate=5400.3kbits/s speed=0.995x   
5992017.09.01 18R:23:33.372  [NULL @ 0000000000a89ee0] ct_type:0 pic_struct:0
6002017.09.01 18R:23:34.007      Last message repeated 26 times
6012017.09.01 18R:23:34.007  frame= 1726 fps= 41 q=-1.0 size=   27392kB time=00:00:41.31 bitrate=5431.2kbits/s speed=0.992x   
6022017.09.01 18R:23:34.013  [NULL @ 0000000000a89ee0] ct_type:0 pic_struct:0
6032017.09.01 18R:23:34.537      Last message repeated 26 times
6042017.09.01 18R:23:34.537  frame= 1753 fps= 42 q=-1.0 size=   27904kB time=00:00:41.85 bitrate=5461.3kbits/s speed=0.993x   
6052017.09.01 18R:23:34.541  [NULL @ 0000000000a89ee0] ct_type:0 pic_struct:0
6062017.09.01 18R:23:35.064      Last message repeated 25 times
6072017.09.01 18R:23:35.064  frame= 1779 fps= 42 q=-1.0 size=   28416kB time=00:00:42.37 bitrate=5493.3kbits/s speed=0.993x   
6082017.09.01 18R:23:35.068  [NULL @ 0000000000a89ee0] ct_type:0 pic_struct:0
6092017.09.01 18R:23:35.541      Last message repeated 24 times
6102017.09.01 18R:23:35.542  frame= 1804 fps= 42 q=-1.0 size=   28672kB time=00:00:42.87 bitrate=5478.1kbits/s speed=0.993x   
6112017.09.01 18R:23:35.547  [NULL @ 0000000000a89ee0] ct_type:0 pic_struct:0
6122017.09.01 18R:23:36.071      Last message repeated 26 times
6132017.09.01 18R:23:36.071  frame= 1831 fps= 42 q=-1.0 size=   29184kB time=00:00:43.41 bitrate=5506.6kbits/s speed=0.994x   
6142017.09.01 18R:23:36.08  [NULL @ 0000000000a89ee0] ct_type:0 pic_struct:0
6152017.09.01 18R:23:36.572      Last message repeated 24 times
6162017.09.01 18R:23:36.572  frame= 1856 fps= 42 q=-1.0 size=   29440kB time=00:00:43.91 bitrate=5491.7kbits/s speed=0.994x   
6172017.09.01 18R:23:36.6  [NULL @ 0000000000a89ee0] ct_type:0 pic_struct:0
6182017.09.01 18R:23:37.105      Last message repeated 28 times
6192017.09.01 18R:23:37.105  frame= 1885 fps= 42 q=-1.0 size=   29952kB time=00:00:44.49 bitrate=5514.4kbits/s speed=0.995x   
6202017.09.01 18R:23:37.111  [NULL @ 0000000000a89ee0] ct_type:0 pic_struct:0
6212017.09.01 18R:23:37.628      Last message repeated 25 times
6222017.09.01 18R:23:37.644  frame= 1911 fps= 42 q=-1.0 size=   30464kB time=00:00:45.01 bitrate=5543.8kbits/s speed=0.995x   
6232017.09.01 18R:23:37.645  [NULL @ 0000000000a89ee0] ct_type:0 pic_struct:0
6242017.09.01 18R:23:38.134      Last message repeated 23 times
6252017.09.01 18R:23:38.134  frame= 1935 fps= 42 q=-1.0 size=   30720kB time=00:00:45.49 bitrate=5531.4kbits/s speed=0.995x   
6262017.09.01 18R:23:38.141  [NULL @ 0000000000a89ee0] ct_type:0 pic_struct:0
6272017.09.01 18R:23:38.631      Last message repeated 27 times
6282017.09.01 18R:23:38.631  frame= 1963 fps= 42 q=-1.0 size=   31232kB time=00:00:46.05 bitrate=5555.2kbits/s speed=0.996x   
6292017.09.01 18R:23:38.639  [NULL @ 0000000000a89ee0] ct_type:0 pic_struct:0
6302017.09.01 18R:23:39.288      Last message repeated 26 times
6312017.09.01 18R:23:39.288  frame= 1990 fps= 42 q=-1.0 size=   31744kB time=00:00:46.59 bitrate=5580.9kbits/s speed=0.993x   
6322017.09.01 18R:23:39.292  [NULL @ 0000000000a89ee0] ct_type:0 pic_struct:0
6332017.09.01 18R:23:39.789      Last message repeated 24 times
6342017.09.01 18R:23:39.789  frame= 2015 fps= 42 q=-1.0 size=   32000kB time=00:00:47.09 bitrate=5566.2kbits/s speed=0.993x   
6352017.09.01 18R:23:39.82  [NULL @ 0000000000a89ee0] ct_type:0 pic_struct:0
6362017.09.01 18R:23:40.305      Last message repeated 25 times
6372017.09.01 18R:23:40.352  frame= 2041 fps= 43 q=-1.0 size=   32512kB time=00:00:47.61 bitrate=5593.5kbits/s speed=0.993x   
6382017.09.01 18R:23:40.352  [NULL @ 0000000000a89ee0] ct_type:0 pic_struct:0
6392017.09.01 18R:23:40.83      Last message repeated 29 times
6402017.09.01 18R:23:40.83  frame= 2071 fps= 43 q=-1.0 size=   33024kB time=00:00:48.21 bitrate=5610.8kbits/s speed=0.995x   
6412017.09.01 18R:23:40.835  [NULL @ 0000000000a89ee0] ct_type:0 pic_struct:0
6422017.09.01 18R:23:41.359      Last message repeated 26 times
6432017.09.01 18R:23:41.359  frame= 2098 fps= 43 q=-1.0 size=   33280kB time=00:00:48.75 bitrate=5591.7kbits/s speed=0.995x   
6442017.09.01 18R:23:41.364  [NULL @ 0000000000a89ee0] ct_type:0 pic_struct:0
6452017.09.01 18R:23:41.863      Last message repeated 24 times
6462017.09.01 18R:23:41.863  frame= 2123 fps= 43 q=-1.0 size=   33792kB time=00:00:49.25 bitrate=5620.1kbits/s speed=0.995x   
6472017.09.01 18R:23:41.897  [NULL @ 0000000000a89ee0] ct_type:0 pic_struct:0
6482017.09.01 18R:23:42.397      Last message repeated 25 times
6492017.09.01 18R:23:42.397  frame= 2149 fps= 43 q=-1.0 size=   34048kB time=00:00:49.77 bitrate=5603.5kbits/s speed=0.995x   
6502017.09.01 18R:23:42.404  [NULL @ 0000000000a89ee0] ct_type:0 pic_struct:0
6512017.09.01 18R:23:42.907      Last message repeated 26 times
6522017.09.01 18R:23:42.907  frame= 2176 fps= 43 q=-1.0 size=   34560kB time=00:00:50.31 bitrate=5626.7kbits/s speed=0.996x   
6532017.09.01 18R:23:42.914  [NULL @ 0000000000a89ee0] ct_type:0 pic_struct:0
6542017.09.01 18R:23:43.439      Last message repeated 25 times
6552017.09.01 18R:23:43.439  frame= 2202 fps= 43 q=-1.0 size=   35072kB time=00:00:50.83 bitrate=5651.7kbits/s speed=0.996x   
6562017.09.01 18R:23:43.445  [NULL @ 0000000000a89ee0] ct_type:0 pic_struct:0
6572017.09.01 18R:23:43.914      Last message repeated 25 times
6582017.09.01 18R:23:43.914  frame= 2228 fps= 43 q=-1.0 size=   35328kB time=00:00:51.35 bitrate=5635.3kbits/s speed=0.996x   
6592017.09.01 18R:23:44.058  [NULL @ 0000000000a89ee0] ct_type:0 pic_struct:0
6602017.09.01 18R:23:44.556      Last message repeated 25 times
6612017.09.01 18R:23:44.556  frame= 2254 fps= 43 q=-1.0 size=   35840kB time=00:00:51.87 bitrate=5659.7kbits/s speed=0.994x   
6622017.09.01 18R:23:44.562  [NULL @ 0000000000a89ee0] ct_type:0 pic_struct:0
6632017.09.01 18R:23:45.054      Last message repeated 24 times
6642017.09.01 18R:23:45.054  frame= 2279 fps= 43 q=-1.0 size=   36352kB time=00:00:52.37 bitrate=5685.7kbits/s speed=0.994x   
6652017.09.01 18R:23:45.087  [NULL @ 0000000000a89ee0] ct_type:0 pic_struct:0
6662017.09.01 18R:23:45.57      Last message repeated 25 times
6672017.09.01 18R:23:45.57  frame= 2305 fps= 43 q=-1.0 size=   36608kB time=00:00:52.89 bitrate=5669.5kbits/s speed=0.994x   
6682017.09.01 18R:23:45.576  [NULL @ 0000000000a89ee0] ct_type:0 pic_struct:0
6692017.09.01 18R:23:46.092      Last message repeated 26 times
6702017.09.01 18R:23:46.092  frame= 2332 fps= 43 q=-1.0 size=   37120kB time=00:00:53.43 bitrate=5690.7kbits/s speed=0.995x   
6712017.09.01 18R:23:46.097  [NULL @ 0000000000a89ee0] ct_type:0 pic_struct:0
6722017.09.01 18R:23:46.619      Last message repeated 26 times
6732017.09.01 18R:23:46.62  frame= 2359 fps= 43 q=-1.0 size=   37376kB time=00:00:53.97 bitrate=5672.6kbits/s speed=0.995x   
6742017.09.01 18R:23:46.626  [NULL @ 0000000000a89ee0] ct_type:0 pic_struct:0
6752017.09.01 18R:23:47.138      Last message repeated 26 times
6762017.09.01 18R:23:47.151  frame= 2386 fps= 44 q=-1.0 size=   37888kB time=00:00:54.51 bitrate=5693.3kbits/s speed=0.995x   
6772017.09.01 18R:23:47.151  [NULL @ 0000000000a89ee0] ct_type:0 pic_struct:0
6782017.09.01 18R:23:47.666      Last message repeated 25 times
6792017.09.01 18R:23:47.666  frame= 2412 fps= 44 q=-1.0 size=   38400kB time=00:00:55.03 bitrate=5715.8kbits/s speed=0.996x   
6802017.09.01 18R:23:47.672  [NULL @ 0000000000a89ee0] ct_type:0 pic_struct:0
6812017.09.01 18R:23:48.174      Last message repeated 27 times
6822017.09.01 18R:23:48.174  frame= 2440 fps= 44 q=-1.0 size=   38656kB time=00:00:55.59 bitrate=5695.9kbits/s speed=0.996x   
6832017.09.01 18R:23:48.181  [NULL @ 0000000000a89ee0] ct_type:0 pic_struct:0
6842017.09.01 18R:23:48.692      Last message repeated 26 times
6852017.09.01 18R:23:48.692  frame= 2467 fps= 44 q=-1.0 size=   39168kB time=00:00:56.13 bitrate=5715.8kbits/s speed=0.997x   
6862017.09.01 18R:23:48.7  [NULL @ 0000000000a89ee0] ct_type:0 pic_struct:0
6872017.09.01 18R:23:49.306      Last message repeated 26 times
6882017.09.01 18R:23:49.306  frame= 2494 fps= 44 q=-1.0 size=   39680kB time=00:00:56.67 bitrate=5735.4kbits/s speed=0.996x   
6892017.09.01 18R:23:49.314  [NULL @ 0000000000a89ee0] ct_type:0 pic_struct:0
6902017.09.01 18R:23:49.808      Last message repeated 23 times
6912017.09.01 18R:23:49.809  frame= 2518 fps= 44 q=-1.0 size=   39936kB time=00:00:57.15 bitrate=5723.9kbits/s speed=0.995x   
6922017.09.01 18R:23:49.814  [NULL @ 0000000000a89ee0] ct_type:0 pic_struct:0
6932017.09.01 18R:23:50.317      Last message repeated 23 times
6942017.09.01 18R:23:50.317  frame= 2542 fps= 44 q=-1.0 size=   40448kB time=00:00:57.63 bitrate=5749.0kbits/s speed=0.995x   
6952017.09.01 18R:23:50.322  [NULL @ 0000000000a89ee0] ct_type:0 pic_struct:0
6962017.09.01 18R:23:50.822      Last message repeated 23 times
6972017.09.01 18R:23:50.822  frame= 2566 fps= 44 q=-1.0 size=   40960kB time=00:00:58.11 bitrate=5773.7kbits/s speed=0.994x   
6982017.09.01 18R:23:50.826  [NULL @ 0000000000a89ee0] ct_type:0 pic_struct:0
6992017.09.01 18R:23:51.316      Last message repeated 24 times
7002017.09.01 18R:23:51.37  frame= 2591 fps= 44 q=-1.0 size=   41216kB time=00:00:58.61 bitrate=5760.2kbits/s speed=0.994x   
7012017.09.01 18R:23:51.37  [NULL @ 0000000000a89ee0] ct_type:0 pic_struct:0
7022017.09.01 18R:23:51.774      Last message repeated 21 times
7032017.09.01 18R:23:51.774  frame= 2613 fps= 44 q=-1.0 Lsize=   41617kB time=00:00:59.05 bitrate=5773.0kbits/s speed=0.994x   
7042017.09.01 18R:23:51.774  video:38316kB audio:0kB subtitle:0kB other streams:0kB global headers:0kB muxing overhead: 8.615030%
7052017.09.01 18R:23:51.774  Input file #0 (rtp://@225.1.1.1:1024):
7062017.09.01 18R:23:51.775    Input stream #0:0 (audio): 0 packets read (0 bytes);
7072017.09.01 18R:23:51.775    Input stream #0:1 (video): 2634 packets read (39433893 bytes);
7082017.09.01 18R:23:51.775    Total: 2634 packets (39433893 bytes) demuxed
7092017.09.01 18R:23:51.775  Output file #0 (C:\FlyStation\CapturedMedia\YEAR2017\September\1(Freitag)\55347TB-18-14\Novus\SessionN659929@18-22.ts):
7102017.09.01 18R:23:51.775    Output stream #0:0 (video): 2613 packets muxed (39236021 bytes);
7112017.09.01 18R:23:51.775    Total: 2613 packets (39236021 bytes) muxed
7122017.09.01 18R:23:51.775  0 frames successfully decoded, 0 decoding errors
7132017.09.01 18:23:51.775 
7142017.09.01 18R:23:51.775