Ticket #6418: IDR.No.Inband.SPPS.Patch.not.applied.log

File IDR.No.Inband.SPPS.Patch.not.applied.log, 32.5 KB (added by mkver, 7 months ago)
Line 
1ffmpeg started on 2018-01-08 at 14:38:53
2Report written to "ffmpeg-20180108-143853.log"
3Command line:
4ffmpeg -report -c:v h264_qsv -i IDR.No.Inband.SPPS.mkv -f null -
5ffmpeg version N-89746-g03c08d59fb Copyright (c) 2000-2018 the FFmpeg developers
6  built with gcc 7.2.0 (Rev1, Built by MSYS2 project)
7  configuration: --disable-static --enable-shared --disable-amf --enable-avisynth --disable-cuda --disable-cuvid --disable-nvenc --enable-sdl2 --enable-libopus --enable-libbluray --enable-libmfx --enable-libsoxr --enable-libwavpack --enable-gpl --enable-openssl --enable-libfdk-aac --enable-libzvbi --disable-encoder=dca --disable-encoder=nellymoser --disable-encoder=real_144 --disable-encoder=truehd --disable-encoder=vorbis --disable-encoder=sonic --disable-encoder=sonicls --disable-encoder=amv --disable-encoder=asv1 --disable-encoder=asv2 --disable-encoder=flashsv --disable-encoder=flashsv2 --disable-encoder=roqvideo --disable-encoder=svq1 --disable-encoder=zmbv --disable-encoder=zlib --disable-encoder=snow --disable-encoder=cinepak --disable-encoder=a64multi --disable-encoder=a64multi5 --disable-encoder=h261 --disable-encoder=h263 --disable-encoder=h263p --disable-encoder=wmv7 --disable-encoder=wmav1 --disable-encoder=wmav2 --disable-encoder=wmv8 --enable-nonfree --disable-debug --shlibdir=/local64/bin-vide  libavutil      56.  7.100 / 56.  7.100
8  libavcodec     58.  9.100 / 58.  9.100
9  libavformat    58.  3.100 / 58.  3.100
10  libavdevice    58.  0.100 / 58.  0.100
11  libavfilter     7. 11.101 /  7. 11.101
12  libswscale      5.  0.101 /  5.  0.101
13  libswresample   3.  0.101 /  3.  0.101
14  libpostproc    55.  0.100 / 55.  0.100
15Splitting the commandline.
16Reading option '-report' ... matched as option 'report' (generate a report) with argument '1'.
17Reading option '-c:v' ... matched as option 'c' (codec name) with argument 'h264_qsv'.
18Reading option '-i' ... matched as input url with argument 'IDR.No.Inband.SPPS.mkv'.
19Reading option '-f' ... matched as option 'f' (force format) with argument 'null'.
20Reading option '-' ... matched as output url.
21Finished splitting the commandline.
22Parsing a group of options: global .
23Applying option report (generate a report) with argument 1.
24Successfully parsed a group of options.
25Parsing a group of options: input url IDR.No.Inband.SPPS.mkv.
26Applying option c:v (codec name) with argument h264_qsv.
27Successfully parsed a group of options.
28Opening an input file: IDR.No.Inband.SPPS.mkv.
29[NULL @ 00000000003a6200] Opening 'IDR.No.Inband.SPPS.mkv' for reading
30[file @ 00000000003a6900] Setting default whitelist 'file,crypto'
31[matroska,webm @ 00000000003a6200] Format matroska,webm probed with size=2048 and score=100
32st:0 removing common factor 1000000 from timebase
33[matroska,webm @ 00000000003a6200] Before avformat_find_stream_info() pos: 5492 bytes read:33186 seeks:2 nb_streams:1
34[h264 @ 00000000003a6b40] nal_unit_type: 7, nal_ref_idc: 3
35[h264 @ 00000000003a6b40] nal_unit_type: 8, nal_ref_idc: 3
36[h264 @ 00000000003a6b40] nal_unit_type: 8, nal_ref_idc: 3
37[h264 @ 00000000003a6b40] nal_unit_type: 7, nal_ref_idc: 3
38[h264 @ 00000000003a6b40] nal_unit_type: 8, nal_ref_idc: 3
39[h264 @ 00000000003a6b40] nal_unit_type: 8, nal_ref_idc: 3
40[h264 @ 00000000003a6b40] nal_unit_type: 6, nal_ref_idc: 0
41[h264 @ 00000000003a6b40] nal_unit_type: 1, nal_ref_idc: 3
42[h264 @ 00000000003a6b40] Format yuv420p chosen by get_format().
43[h264 @ 00000000003a6b40] Reinit context to 1280x720, pix_fmt: yuv420p
44[h264 @ 00000000003a6b40] Frame num gap 3 -1
45[h264 @ 00000000003a6b40] Frame num gap 3 0
46[h264 @ 00000000003a6b40] Frame num gap 3 1
47[h264 @ 00000000003a6b40] no picture
48[matroska,webm @ 00000000003a6200] All info found
49[matroska,webm @ 00000000003a6200] After avformat_find_stream_info() pos: 151017 bytes read:200394 seeks:2 frames:4
50Input #0, matroska,webm, from 'IDR.No.Inband.SPPS.mkv':
51  Metadata:
52    encoder         : libebml v1.3.5 + libmatroska v1.4.8
53    creation_time   : 2018-01-08T12:29:52.000000Z
54  Duration: 00:00:01.38, start: 0.060000, bitrate: 12553 kb/s
55    Stream #0:0(ger), 4, 1/1000: Video: h264 (High), yuv420p(tv, bt709, top first), 1280x720 [SAR 1:1 DAR 16:9], 50 fps, 50 tbr, 1k tbn, 100 tbc (default)
56    Metadata:
57      BPS             : 12515814
58      BPS-eng         : 12515814
59      DURATION        : 00:00:01.380000000
60      DURATION-eng    : 00:00:01.380000000
61      NUMBER_OF_FRAMES: 69
62      NUMBER_OF_FRAMES-eng: 69
63      NUMBER_OF_BYTES : 2158978
64      NUMBER_OF_BYTES-eng: 2158978
65      _STATISTICS_WRITING_APP: mkvmerge v19.0.0 ('Brave Captain') 64-bit
66      _STATISTICS_WRITING_APP-eng: mkvmerge v19.0.0 ('Brave Captain') 64-bit
67      _STATISTICS_WRITING_DATE_UTC: 2018-01-08 12:29:52
68      _STATISTICS_WRITING_DATE_UTC-eng: 2018-01-08 12:29:52
69      _STATISTICS_TAGS: BPS DURATION NUMBER_OF_FRAMES NUMBER_OF_BYTES
70      _STATISTICS_TAGS-eng: BPS DURATION NUMBER_OF_FRAMES NUMBER_OF_BYTES
71Successfully opened the file.
72Parsing a group of options: output url -.
73Applying option f (force format) with argument null.
74Successfully parsed a group of options.
75Opening an output file: -.
76Successfully opened the file.
77Stream mapping:
78  Stream #0:0 -> #0:0 (h264 (h264_qsv) -> wrapped_avframe (native))
79Press [q] to stop, [?] for help
80cur_dts is invalid (this is harmless if it occurs once at the start per stream)
81[NULL @ 00000000003ab600] non-existing PPS 1 referenced
82[h264_qsv @ 000000000243eb80] Decoding pixel format '(null)' is not supported
83Error while decoding stream #0:0: Function not implemented
84cur_dts is invalid (this is harmless if it occurs once at the start per stream)
85[NULL @ 00000000003ab600] non-existing PPS 1 referenced
86[h264_qsv @ 000000000243eb80] Decoding pixel format '(null)' is not supported
87Error while decoding stream #0:0: Function not implemented
88cur_dts is invalid (this is harmless if it occurs once at the start per stream)
89[NULL @ 00000000003ab600] non-existing PPS 1 referenced
90[h264_qsv @ 000000000243eb80] Decoding pixel format '(null)' is not supported
91Error while decoding stream #0:0: Function not implemented
92cur_dts is invalid (this is harmless if it occurs once at the start per stream)
93[NULL @ 00000000003ab600] non-existing PPS 1 referenced
94[h264_qsv @ 000000000243eb80] Decoding pixel format '(null)' is not supported
95Error while decoding stream #0:0: Function not implemented
96cur_dts is invalid (this is harmless if it occurs once at the start per stream)
97[NULL @ 00000000003ab600] non-existing PPS 1 referenced
98[h264_qsv @ 000000000243eb80] Decoding pixel format '(null)' is not supported
99Error while decoding stream #0:0: Function not implemented
100cur_dts is invalid (this is harmless if it occurs once at the start per stream)
101[NULL @ 00000000003ab600] non-existing PPS 1 referenced
102[h264_qsv @ 000000000243eb80] Decoding pixel format '(null)' is not supported
103Error while decoding stream #0:0: Function not implemented
104cur_dts is invalid (this is harmless if it occurs once at the start per stream)
105[NULL @ 00000000003ab600] non-existing PPS 1 referenced
106[h264_qsv @ 000000000243eb80] Decoding pixel format '(null)' is not supported
107Error while decoding stream #0:0: Function not implemented
108cur_dts is invalid (this is harmless if it occurs once at the start per stream)
109[NULL @ 00000000003ab600] non-existing PPS 1 referenced
110[h264_qsv @ 000000000243eb80] Decoding pixel format '(null)' is not supported
111Error while decoding stream #0:0: Function not implemented
112cur_dts is invalid (this is harmless if it occurs once at the start per stream)
113[NULL @ 00000000003ab600] non-existing PPS 1 referenced
114[h264_qsv @ 000000000243eb80] Decoding pixel format '(null)' is not supported
115Error while decoding stream #0:0: Function not implemented
116cur_dts is invalid (this is harmless if it occurs once at the start per stream)
117[NULL @ 00000000003ab600] non-existing PPS 1 referenced
118[h264_qsv @ 000000000243eb80] Decoding pixel format '(null)' is not supported
119Error while decoding stream #0:0: Function not implemented
120cur_dts is invalid (this is harmless if it occurs once at the start per stream)
121[NULL @ 00000000003ab600] non-existing PPS 1 referenced
122[h264_qsv @ 000000000243eb80] Decoding pixel format '(null)' is not supported
123Error while decoding stream #0:0: Function not implemented
124cur_dts is invalid (this is harmless if it occurs once at the start per stream)
125[NULL @ 00000000003ab600] non-existing PPS 1 referenced
126[h264_qsv @ 000000000243eb80] Decoding pixel format '(null)' is not supported
127Error while decoding stream #0:0: Function not implemented
128cur_dts is invalid (this is harmless if it occurs once at the start per stream)
129[NULL @ 00000000003ab600] non-existing PPS 1 referenced
130[h264_qsv @ 000000000243eb80] Decoding pixel format '(null)' is not supported
131Error while decoding stream #0:0: Function not implemented
132cur_dts is invalid (this is harmless if it occurs once at the start per stream)
133[NULL @ 00000000003ab600] non-existing PPS 1 referenced
134[h264_qsv @ 000000000243eb80] Decoding pixel format '(null)' is not supported
135Error while decoding stream #0:0: Function not implemented
136cur_dts is invalid (this is harmless if it occurs once at the start per stream)
137[NULL @ 00000000003ab600] non-existing PPS 1 referenced
138[h264_qsv @ 000000000243eb80] Decoding pixel format '(null)' is not supported
139Error while decoding stream #0:0: Function not implemented
140cur_dts is invalid (this is harmless if it occurs once at the start per stream)
141[NULL @ 00000000003ab600] non-existing PPS 1 referenced
142[h264_qsv @ 000000000243eb80] Decoding pixel format '(null)' is not supported
143Error while decoding stream #0:0: Function not implemented
144cur_dts is invalid (this is harmless if it occurs once at the start per stream)
145[NULL @ 00000000003ab600] non-existing PPS 1 referenced
146[h264_qsv @ 000000000243eb80] Decoding pixel format '(null)' is not supported
147Error while decoding stream #0:0: Function not implemented
148cur_dts is invalid (this is harmless if it occurs once at the start per stream)
149[NULL @ 00000000003ab600] non-existing PPS 1 referenced
150[h264_qsv @ 000000000243eb80] Decoding pixel format '(null)' is not supported
151Error while decoding stream #0:0: Function not implemented
152cur_dts is invalid (this is harmless if it occurs once at the start per stream)
153[NULL @ 00000000003ab600] non-existing PPS 1 referenced
154[h264_qsv @ 000000000243eb80] Decoding pixel format '(null)' is not supported
155Error while decoding stream #0:0: Function not implemented
156cur_dts is invalid (this is harmless if it occurs once at the start per stream)
157[NULL @ 00000000003ab600] non-existing PPS 1 referenced
158[h264_qsv @ 000000000243eb80] Decoding pixel format '(null)' is not supported
159Error while decoding stream #0:0: Function not implemented
160cur_dts is invalid (this is harmless if it occurs once at the start per stream)
161[NULL @ 00000000003ab600] non-existing PPS 1 referenced
162[h264_qsv @ 000000000243eb80] Decoding pixel format '(null)' is not supported
163Error while decoding stream #0:0: Function not implemented
164cur_dts is invalid (this is harmless if it occurs once at the start per stream)
165[NULL @ 00000000003ab600] non-existing PPS 1 referenced
166[h264_qsv @ 000000000243eb80] Decoding pixel format '(null)' is not supported
167Error while decoding stream #0:0: Function not implemented
168cur_dts is invalid (this is harmless if it occurs once at the start per stream)
169[NULL @ 00000000003ab600] non-existing PPS 1 referenced
170[h264_qsv @ 000000000243eb80] Decoding pixel format '(null)' is not supported
171Error while decoding stream #0:0: Function not implemented
172cur_dts is invalid (this is harmless if it occurs once at the start per stream)
173[NULL @ 00000000003ab600] non-existing PPS 1 referenced
174[h264_qsv @ 000000000243eb80] Decoding pixel format '(null)' is not supported
175Error while decoding stream #0:0: Function not implemented
176cur_dts is invalid (this is harmless if it occurs once at the start per stream)
177[NULL @ 00000000003ab600] non-existing PPS 1 referenced
178[h264_qsv @ 000000000243eb80] Decoding pixel format '(null)' is not supported
179Error while decoding stream #0:0: Function not implemented
180cur_dts is invalid (this is harmless if it occurs once at the start per stream)
181[NULL @ 00000000003ab600] non-existing PPS 1 referenced
182[h264_qsv @ 000000000243eb80] Decoding pixel format '(null)' is not supported
183Error while decoding stream #0:0: Function not implemented
184cur_dts is invalid (this is harmless if it occurs once at the start per stream)
185[NULL @ 00000000003ab600] non-existing PPS 1 referenced
186[h264_qsv @ 000000000243eb80] Decoding pixel format '(null)' is not supported
187Error while decoding stream #0:0: Function not implemented
188cur_dts is invalid (this is harmless if it occurs once at the start per stream)
189[NULL @ 00000000003ab600] non-existing PPS 1 referenced
190[h264_qsv @ 000000000243eb80] Decoding pixel format '(null)' is not supported
191Error while decoding stream #0:0: Function not implemented
192cur_dts is invalid (this is harmless if it occurs once at the start per stream)
193[NULL @ 00000000003ab600] non-existing PPS 1 referenced
194[h264_qsv @ 000000000243eb80] Decoding pixel format '(null)' is not supported
195Error while decoding stream #0:0: Function not implemented
196cur_dts is invalid (this is harmless if it occurs once at the start per stream)
197[NULL @ 00000000003ab600] non-existing PPS 1 referenced
198[h264_qsv @ 000000000243eb80] Decoding pixel format '(null)' is not supported
199Error while decoding stream #0:0: Function not implemented
200cur_dts is invalid (this is harmless if it occurs once at the start per stream)
201[NULL @ 00000000003ab600] non-existing PPS 1 referenced
202[h264_qsv @ 000000000243eb80] Decoding pixel format '(null)' is not supported
203Error while decoding stream #0:0: Function not implemented
204cur_dts is invalid (this is harmless if it occurs once at the start per stream)
205[NULL @ 00000000003ab600] non-existing PPS 1 referenced
206[h264_qsv @ 000000000243eb80] Decoding pixel format '(null)' is not supported
207Error while decoding stream #0:0: Function not implemented
208cur_dts is invalid (this is harmless if it occurs once at the start per stream)
209[NULL @ 00000000003ab600] non-existing PPS 1 referenced
210[h264_qsv @ 000000000243eb80] Decoding pixel format '(null)' is not supported
211Error while decoding stream #0:0: Function not implemented
212cur_dts is invalid (this is harmless if it occurs once at the start per stream)
213[NULL @ 00000000003ab600] non-existing PPS 1 referenced
214[h264_qsv @ 000000000243eb80] Decoding pixel format '(null)' is not supported
215Error while decoding stream #0:0: Function not implemented
216cur_dts is invalid (this is harmless if it occurs once at the start per stream)
217[NULL @ 00000000003ab600] non-existing PPS 1 referenced
218[h264_qsv @ 000000000243eb80] Decoding pixel format '(null)' is not supported
219Error while decoding stream #0:0: Function not implemented
220cur_dts is invalid (this is harmless if it occurs once at the start per stream)
221[NULL @ 00000000003ab600] non-existing PPS 1 referenced
222[h264_qsv @ 000000000243eb80] Decoding pixel format '(null)' is not supported
223Error while decoding stream #0:0: Function not implemented
224cur_dts is invalid (this is harmless if it occurs once at the start per stream)
225[NULL @ 00000000003ab600] non-existing PPS 1 referenced
226[h264_qsv @ 000000000243eb80] Decoding pixel format '(null)' is not supported
227Error while decoding stream #0:0: Function not implemented
228cur_dts is invalid (this is harmless if it occurs once at the start per stream)
229[NULL @ 00000000003ab600] non-existing PPS 1 referenced
230[h264_qsv @ 000000000243eb80] Decoding pixel format '(null)' is not supported
231Error while decoding stream #0:0: Function not implemented
232cur_dts is invalid (this is harmless if it occurs once at the start per stream)
233[NULL @ 00000000003ab600] non-existing PPS 1 referenced
234[h264_qsv @ 000000000243eb80] Decoding pixel format '(null)' is not supported
235Error while decoding stream #0:0: Function not implemented
236cur_dts is invalid (this is harmless if it occurs once at the start per stream)
237[NULL @ 00000000003ab600] non-existing PPS 1 referenced
238[h264_qsv @ 000000000243eb80] Decoding pixel format '(null)' is not supported
239Error while decoding stream #0:0: Function not implemented
240cur_dts is invalid (this is harmless if it occurs once at the start per stream)
241[NULL @ 00000000003ab600] non-existing PPS 1 referenced
242[h264_qsv @ 000000000243eb80] Decoding pixel format '(null)' is not supported
243Error while decoding stream #0:0: Function not implemented
244cur_dts is invalid (this is harmless if it occurs once at the start per stream)
245[NULL @ 00000000003ab600] non-existing PPS 1 referenced
246[h264_qsv @ 000000000243eb80] Decoding pixel format '(null)' is not supported
247Error while decoding stream #0:0: Function not implemented
248cur_dts is invalid (this is harmless if it occurs once at the start per stream)
249[NULL @ 00000000003ab600] non-existing PPS 1 referenced
250[h264_qsv @ 000000000243eb80] Decoding pixel format '(null)' is not supported
251Error while decoding stream #0:0: Function not implemented
252cur_dts is invalid (this is harmless if it occurs once at the start per stream)
253[NULL @ 00000000003ab600] non-existing PPS 1 referenced
254[h264_qsv @ 000000000243eb80] Decoding pixel format '(null)' is not supported
255Error while decoding stream #0:0: Function not implemented
256cur_dts is invalid (this is harmless if it occurs once at the start per stream)
257[NULL @ 00000000003ab600] non-existing PPS 1 referenced
258[h264_qsv @ 000000000243eb80] Decoding pixel format '(null)' is not supported
259Error while decoding stream #0:0: Function not implemented
260cur_dts is invalid (this is harmless if it occurs once at the start per stream)
261[NULL @ 00000000003ab600] non-existing PPS 1 referenced
262[h264_qsv @ 000000000243eb80] Decoding pixel format '(null)' is not supported
263Error while decoding stream #0:0: Function not implemented
264cur_dts is invalid (this is harmless if it occurs once at the start per stream)
265[NULL @ 00000000003ab600] non-existing PPS 1 referenced
266[h264_qsv @ 000000000243eb80] Decoding pixel format '(null)' is not supported
267Error while decoding stream #0:0: Function not implemented
268cur_dts is invalid (this is harmless if it occurs once at the start per stream)
269[NULL @ 00000000003ab600] non-existing PPS 1 referenced
270[h264_qsv @ 000000000243eb80] Decoding pixel format '(null)' is not supported
271Error while decoding stream #0:0: Function not implemented
272cur_dts is invalid (this is harmless if it occurs once at the start per stream)
273[NULL @ 00000000003ab600] non-existing PPS 1 referenced
274[h264_qsv @ 000000000243eb80] Decoding pixel format '(null)' is not supported
275Error while decoding stream #0:0: Function not implemented
276cur_dts is invalid (this is harmless if it occurs once at the start per stream)
277[NULL @ 00000000003ab600] non-existing PPS 1 referenced
278[h264_qsv @ 000000000243eb80] Decoding pixel format '(null)' is not supported
279Error while decoding stream #0:0: Function not implemented
280cur_dts is invalid (this is harmless if it occurs once at the start per stream)
281[NULL @ 00000000003ab600] non-existing PPS 1 referenced
282[h264_qsv @ 000000000243eb80] Decoding pixel format '(null)' is not supported
283Error while decoding stream #0:0: Function not implemented
284cur_dts is invalid (this is harmless if it occurs once at the start per stream)
285[NULL @ 00000000003ab600] non-existing PPS 1 referenced
286[h264_qsv @ 000000000243eb80] Decoding pixel format '(null)' is not supported
287Error while decoding stream #0:0: Function not implemented
288cur_dts is invalid (this is harmless if it occurs once at the start per stream)
289[NULL @ 00000000003ab600] non-existing PPS 1 referenced
290[h264_qsv @ 000000000243eb80] Decoding pixel format '(null)' is not supported
291Error while decoding stream #0:0: Function not implemented
292cur_dts is invalid (this is harmless if it occurs once at the start per stream)
293[NULL @ 00000000003ab600] non-existing PPS 1 referenced
294[h264_qsv @ 000000000243eb80] Decoding pixel format '(null)' is not supported
295Error while decoding stream #0:0: Function not implemented
296cur_dts is invalid (this is harmless if it occurs once at the start per stream)
297[NULL @ 00000000003ab600] non-existing PPS 1 referenced
298[h264_qsv @ 000000000243eb80] Decoding pixel format '(null)' is not supported
299Error while decoding stream #0:0: Function not implemented
300cur_dts is invalid (this is harmless if it occurs once at the start per stream)
301[NULL @ 00000000003ab600] non-existing PPS 1 referenced
302[h264_qsv @ 000000000243eb80] Decoding pixel format '(null)' is not supported
303Error while decoding stream #0:0: Function not implemented
304cur_dts is invalid (this is harmless if it occurs once at the start per stream)
305[NULL @ 00000000003ab600] non-existing PPS 1 referenced
306[h264_qsv @ 000000000243eb80] Decoding pixel format '(null)' is not supported
307Error while decoding stream #0:0: Function not implemented
308cur_dts is invalid (this is harmless if it occurs once at the start per stream)
309[NULL @ 00000000003ab600] non-existing PPS 1 referenced
310[h264_qsv @ 000000000243eb80] Decoding pixel format '(null)' is not supported
311Error while decoding stream #0:0: Function not implemented
312cur_dts is invalid (this is harmless if it occurs once at the start per stream)
313[NULL @ 00000000003ab600] non-existing PPS 1 referenced
314[h264_qsv @ 000000000243eb80] Decoding pixel format '(null)' is not supported
315Error while decoding stream #0:0: Function not implemented
316cur_dts is invalid (this is harmless if it occurs once at the start per stream)
317[NULL @ 00000000003ab600] non-existing PPS 1 referenced
318[h264_qsv @ 000000000243eb80] Decoding pixel format '(null)' is not supported
319Error while decoding stream #0:0: Function not implemented
320cur_dts is invalid (this is harmless if it occurs once at the start per stream)
321[NULL @ 00000000003ab600] non-existing PPS 1 referenced
322[h264_qsv @ 000000000243eb80] Decoding pixel format '(null)' is not supported
323Error while decoding stream #0:0: Function not implemented
324cur_dts is invalid (this is harmless if it occurs once at the start per stream)
325[NULL @ 00000000003ab600] non-existing PPS 1 referenced
326[h264_qsv @ 000000000243eb80] Decoding pixel format '(null)' is not supported
327Error while decoding stream #0:0: Function not implemented
328cur_dts is invalid (this is harmless if it occurs once at the start per stream)
329[NULL @ 00000000003ab600] non-existing PPS 1 referenced
330[h264_qsv @ 000000000243eb80] Decoding pixel format '(null)' is not supported
331Error while decoding stream #0:0: Function not implemented
332cur_dts is invalid (this is harmless if it occurs once at the start per stream)
333[NULL @ 00000000003ab600] non-existing PPS 1 referenced
334[h264_qsv @ 000000000243eb80] Decoding pixel format '(null)' is not supported
335Error while decoding stream #0:0: Function not implemented
336cur_dts is invalid (this is harmless if it occurs once at the start per stream)
337[NULL @ 00000000003ab600] non-existing PPS 1 referenced
338[h264_qsv @ 000000000243eb80] Decoding pixel format '(null)' is not supported
339Error while decoding stream #0:0: Function not implemented
340cur_dts is invalid (this is harmless if it occurs once at the start per stream)
341[NULL @ 00000000003ab600] non-existing PPS 1 referenced
342[h264_qsv @ 000000000243eb80] Decoding pixel format '(null)' is not supported
343Error while decoding stream #0:0: Function not implemented
344cur_dts is invalid (this is harmless if it occurs once at the start per stream)
345[NULL @ 00000000003ab600] non-existing PPS 1 referenced
346[h264_qsv @ 000000000243eb80] Decoding pixel format '(null)' is not supported
347Error while decoding stream #0:0: Function not implemented
348cur_dts is invalid (this is harmless if it occurs once at the start per stream)
349[NULL @ 00000000003ab600] non-existing PPS 1 referenced
350[h264_qsv @ 000000000243eb80] Decoding pixel format '(null)' is not supported
351Error while decoding stream #0:0: Function not implemented
352cur_dts is invalid (this is harmless if it occurs once at the start per stream)
353[NULL @ 00000000003ab600] non-existing PPS 1 referenced
354[h264_qsv @ 000000000243eb80] Decoding pixel format '(null)' is not supported
355Error while decoding stream #0:0: Function not implemented
356cur_dts is invalid (this is harmless if it occurs once at the start per stream)
357[NULL @ 00000000003ab600] non-existing PPS 1 referenced
358[h264_qsv @ 000000000243eb80] Decoding pixel format '(null)' is not supported
359Error while decoding stream #0:0: Function not implemented
360cur_dts is invalid (this is harmless if it occurs once at the start per stream)
361[NULL @ 00000000003ab600] non-existing PPS 1 referenced
362[h264_qsv @ 000000000243eb80] Decoding pixel format '(null)' is not supported
363Error while decoding stream #0:0: Function not implemented
364cur_dts is invalid (this is harmless if it occurs once at the start per stream)
365[NULL @ 00000000003ab600] non-existing PPS 1 referenced
366[h264_qsv @ 000000000243eb80] Decoding pixel format '(null)' is not supported
367Error while decoding stream #0:0: Function not implemented
368cur_dts is invalid (this is harmless if it occurs once at the start per stream)
369[NULL @ 00000000003ab600] non-existing PPS 1 referenced
370[h264_qsv @ 000000000243eb80] Decoding pixel format '(null)' is not supported
371Error while decoding stream #0:0: Function not implemented
372cur_dts is invalid (this is harmless if it occurs once at the start per stream)
373[NULL @ 00000000003ab600] non-existing PPS 1 referenced
374[h264_qsv @ 000000000243eb80] Decoding pixel format '(null)' is not supported
375Error while decoding stream #0:0: Function not implemented
376cur_dts is invalid (this is harmless if it occurs once at the start per stream)
377[NULL @ 00000000003ab600] non-existing PPS 1 referenced
378[h264_qsv @ 000000000243eb80] Decoding pixel format '(null)' is not supported
379Error while decoding stream #0:0: Function not implemented
380cur_dts is invalid (this is harmless if it occurs once at the start per stream)
381[NULL @ 00000000003ab600] non-existing PPS 1 referenced
382[h264_qsv @ 000000000243eb80] Decoding pixel format '(null)' is not supported
383Error while decoding stream #0:0: Function not implemented
384cur_dts is invalid (this is harmless if it occurs once at the start per stream)
385[NULL @ 00000000003ab600] non-existing PPS 1 referenced
386[h264_qsv @ 000000000243eb80] Decoding pixel format '(null)' is not supported
387Error while decoding stream #0:0: Function not implemented
388cur_dts is invalid (this is harmless if it occurs once at the start per stream)
389[NULL @ 00000000003ab600] non-existing PPS 1 referenced
390[h264_qsv @ 000000000243eb80] Decoding pixel format '(null)' is not supported
391Error while decoding stream #0:0: Function not implemented
392cur_dts is invalid (this is harmless if it occurs once at the start per stream)
393[NULL @ 00000000003ab600] non-existing PPS 1 referenced
394[h264_qsv @ 000000000243eb80] Decoding pixel format '(null)' is not supported
395Error while decoding stream #0:0: Function not implemented
396cur_dts is invalid (this is harmless if it occurs once at the start per stream)
397[NULL @ 00000000003ab600] non-existing PPS 1 referenced
398[h264_qsv @ 000000000243eb80] Decoding pixel format '(null)' is not supported
399Error while decoding stream #0:0: Function not implemented
400cur_dts is invalid (this is harmless if it occurs once at the start per stream)
401[NULL @ 00000000003ab600] non-existing PPS 1 referenced
402[h264_qsv @ 000000000243eb80] Decoding pixel format '(null)' is not supported
403Error while decoding stream #0:0: Function not implemented
404cur_dts is invalid (this is harmless if it occurs once at the start per stream)
405[NULL @ 00000000003ab600] non-existing PPS 1 referenced
406[h264_qsv @ 000000000243eb80] Decoding pixel format '(null)' is not supported
407Error while decoding stream #0:0: Function not implemented
408cur_dts is invalid (this is harmless if it occurs once at the start per stream)
409[NULL @ 00000000003ab600] non-existing PPS 1 referenced
410[h264_qsv @ 000000000243eb80] Decoding pixel format '(null)' is not supported
411Error while decoding stream #0:0: Function not implemented
412cur_dts is invalid (this is harmless if it occurs once at the start per stream)
413[NULL @ 00000000003ab600] non-existing PPS 1 referenced
414[h264_qsv @ 000000000243eb80] Decoding pixel format '(null)' is not supported
415Error while decoding stream #0:0: Function not implemented
416cur_dts is invalid (this is harmless if it occurs once at the start per stream)
417[NULL @ 00000000003ab600] non-existing PPS 1 referenced
418[h264_qsv @ 000000000243eb80] Decoding pixel format '(null)' is not supported
419Error while decoding stream #0:0: Function not implemented
420cur_dts is invalid (this is harmless if it occurs once at the start per stream)
421[NULL @ 00000000003ab600] non-existing PPS 1 referenced
422[h264_qsv @ 000000000243eb80] Decoding pixel format '(null)' is not supported
423Error while decoding stream #0:0: Function not implemented
424cur_dts is invalid (this is harmless if it occurs once at the start per stream)
425[NULL @ 00000000003ab600] non-existing PPS 1 referenced
426[h264_qsv @ 000000000243eb80] Decoding pixel format '(null)' is not supported
427Error while decoding stream #0:0: Function not implemented
428cur_dts is invalid (this is harmless if it occurs once at the start per stream)
429[NULL @ 00000000003ab600] non-existing PPS 1 referenced
430[h264_qsv @ 000000000243eb80] Decoding pixel format '(null)' is not supported
431Error while decoding stream #0:0: Function not implemented
432cur_dts is invalid (this is harmless if it occurs once at the start per stream)
433[NULL @ 00000000003ab600] non-existing PPS 1 referenced
434[h264_qsv @ 000000000243eb80] Decoding pixel format '(null)' is not supported
435Error while decoding stream #0:0: Function not implemented
436cur_dts is invalid (this is harmless if it occurs once at the start per stream)
437[NULL @ 00000000003ab600] non-existing PPS 1 referenced
438[h264_qsv @ 000000000243eb80] Decoding pixel format '(null)' is not supported
439Error while decoding stream #0:0: Function not implemented
440cur_dts is invalid (this is harmless if it occurs once at the start per stream)
441[NULL @ 00000000003ab600] non-existing PPS 1 referenced
442[h264_qsv @ 000000000243eb80] Decoding pixel format '(null)' is not supported
443[h264_qsv @ 000000000243eb80] Too many errors when draining, this is a bug. Stop draining and force EOF.
444Error while decoding stream #0:0: Internal bug, should not have happened
445cur_dts is invalid (this is harmless if it occurs once at the start per stream)
446No more output streams to write to, finishing.
447Finishing stream 0:0 without any data written to it.
448detected 4 logical cores
449[graph 0 input from stream 0:0 @ 0000000002282540] Setting 'video_size' to value '1280x720'
450[graph 0 input from stream 0:0 @ 0000000002282540] Setting 'pix_fmt' to value '0'
451[graph 0 input from stream 0:0 @ 0000000002282540] Setting 'time_base' to value '1/1000'
452[graph 0 input from stream 0:0 @ 0000000002282540] Setting 'pixel_aspect' to value '1/1'
453[graph 0 input from stream 0:0 @ 0000000002282540] Setting 'sws_param' to value 'flags=2'
454[graph 0 input from stream 0:0 @ 0000000002282540] Setting 'frame_rate' to value '50/1'
455[graph 0 input from stream 0:0 @ 0000000002282540] w:1280 h:720 pixfmt:yuv420p tb:1/1000 fr:50/1 sar:1/1 sws_param:flags=2
456[AVFilterGraph @ 00000000006afac0] query_formats: 3 queried, 2 merged, 0 already done, 0 delayed
457Output #0, null, to 'pipe:':
458  Metadata:
459    encoder         : Lavf58.3.100
460    Stream #0:0(ger), 0, 1/50: Video: wrapped_avframe, yuv420p, 1280x720 [SAR 1:1 DAR 16:9], q=2-31, 200 kb/s, 50 fps, 50 tbn, 50 tbc (default)
461    Metadata:
462      BPS             : 12515814
463      BPS-eng         : 12515814
464      DURATION        : 00:00:01.380000000
465      DURATION-eng    : 00:00:01.380000000
466      NUMBER_OF_FRAMES: 69
467      NUMBER_OF_FRAMES-eng: 69
468      NUMBER_OF_BYTES : 2158978
469      NUMBER_OF_BYTES-eng: 2158978
470      _STATISTICS_WRITING_APP: mkvmerge v19.0.0 ('Brave Captain') 64-bit
471      _STATISTICS_WRITING_APP-eng: mkvmerge v19.0.0 ('Brave Captain') 64-bit
472      _STATISTICS_WRITING_DATE_UTC: 2018-01-08 12:29:52
473      _STATISTICS_WRITING_DATE_UTC-eng: 2018-01-08 12:29:52
474      _STATISTICS_TAGS: BPS DURATION NUMBER_OF_FRAMES NUMBER_OF_BYTES
475      _STATISTICS_TAGS-eng: BPS DURATION NUMBER_OF_FRAMES NUMBER_OF_BYTES
476      encoder         : Lavc58.9.100 wrapped_avframe
477frame=    0 fps=0.0 q=0.0 Lsize=N/A time=00:00:00.00 bitrate=N/A speed=   0x   
478video:0kB audio:0kB subtitle:0kB other streams:0kB global headers:0kB muxing overhead: unknown
479Input file #0 (IDR.No.Inband.SPPS.mkv):
480  Input stream #0:0 (video): 69 packets read (2158978 bytes); 0 frames decoded;
481  Total: 69 packets (2158978 bytes) demuxed
482Output file #0 (pipe:):
483  Output stream #0:0 (video): 0 frames encoded; 0 packets muxed (0 bytes);
484  Total: 0 packets (0 bytes) muxed
485Output file is empty, nothing was encoded (check -ss / -t / -frames parameters if used)
4860 frames successfully decoded, 91 decoding errors
487[AVIOContext @ 00000000003aeb80] Statistics: 2193159 bytes read, 2 seeks
488Conversion failed!