Ticket #481: ffmpeg-output.txt

File ffmpeg-output.txt, 5.2 KB (added by gyohng, 5 years ago)

FFmpeg output dump

Line 
1# ffmpeg -i video-2011-09-07-12-02-58.mp4 -b 18000k -an a.avi 2>ffmpeg-output.txt
2
3
4ffmpeg version N-32611-gd55b06b, Copyright (c) 2000-2011 the FFmpeg developers
5  built on Sep 15 2011 00:26:45 with gcc 4.6.1
6  configuration: --enable-gpl --enable-version3 --enable-runtime-cpudetect --enable-avisynth --enable-bzlib --enable-frei0r --enable-libopencore-amrnb --enable-libopencore-amrwb --enable-libfreetype --enable-libgsm --enable-libmp3lame --enable-libopenjpeg --enable-librtmp --enable-libschroedinger --enable-libspeex --enable-libtheora --enable-libvo-aacenc --enable-libvo-amrwbenc --enable-libvorbis --enable-libvpx --enable-libx264 --enable-libxavs --enable-libxvid --enable-zlib
7  libavutil    51. 16. 0 / 51. 16. 0
8  libavcodec   53. 14. 0 / 53. 14. 0
9  libavformat  53. 12. 0 / 53. 12. 0
10  libavdevice  53.  3. 0 / 53.  3. 0
11  libavfilter   2. 40. 0 /  2. 40. 0
12  libswscale    2.  1. 0 /  2.  1. 0
13  libpostproc  51.  2. 0 / 51.  2. 0
14
15Seems stream 1 codec frame rate differs from container frame rate: 60000.00 (60000/1) -> 30000.00 (60000/2)
16Input #0, mov,mp4,m4a,3gp,3g2,mj2, from 'video-2011-09-07-12-02-58.mp4':
17  Metadata:
18    major_brand     : 3gp4
19    minor_version   : 768
20    compatible_brands: 3gp43gp6
21  Duration: 00:00:35.25, start: 0.000000, bitrate: 16162 kb/s
22    Stream #0.0(eng): Audio: aac (mp4a / 0x6134706D), 44100 Hz, mono, s16, 186 kb/s
23    Stream #0.1(eng): Video: h264 (Baseline) (avc1 / 0x31637661), yuv420p, 1280x720, 15967 kb/s, 29.93 fps, 30k tbr, 30k tbn, 60k tbc
24[buffer @ 000000000467AF10] w:1280 h:720 pixfmt:yuv420p tb:1/1000000 sar:0/1 sws_param:
25[mpeg4 @ 0000000004660080] removing common factors from framerate
26Output #0, avi, to 'a.avi':
27  Metadata:
28    major_brand     : 3gp4
29    minor_version   : 768
30    compatible_brands: 3gp43gp6
31    ISFT            : Lavf53.12.0
32    Stream #0.0(eng): Video: mpeg4 (FMP4 / 0x34504D46), yuv420p, 1280x720, q=2-31, 18000 kb/s, 30k tbn, 30k tbc
33Stream mapping:
34  Stream #0.1 -> #0.0 (h264 -> mpeg4)
35Press [q] to stop, [?] for help
36frame=   32 fps=  0 q=31.0 size=     471kB time=00:00:01.03 bitrate=3719.3kbits/s   
37frame=   63 fps= 61 q=31.0 size=     855kB time=00:00:02.07 bitrate=3380.8kbits/s   
38frame=   94 fps= 61 q=31.0 size=    1206kB time=00:00:03.10 bitrate=3177.6kbits/s   
39frame=  125 fps= 61 q=31.0 size=    1585kB time=00:00:04.14 bitrate=3132.8kbits/s   
40frame=  155 fps= 61 q=31.0 size=    1956kB time=00:00:05.14 bitrate=3114.3kbits/s   
41frame=  185 fps= 60 q=31.0 size=    2335kB time=00:00:06.14 bitrate=3110.8kbits/s   
42frame=  216 fps= 60 q=31.0 size=    2718kB time=00:00:07.18 bitrate=3098.6kbits/s   
43frame=  247 fps= 60 q=31.0 size=    3101kB time=00:00:08.22 bitrate=3090.2kbits/s   
44frame=  278 fps= 60 q=31.0 size=    3490kB time=00:00:09.25 bitrate=3089.2kbits/s   
45frame=  309 fps= 60 q=31.0 size=    3867kB time=00:00:10.29 bitrate=3078.0kbits/s   
46frame=  339 fps= 60 q=28.9 size=    4243kB time=00:00:11.29 bitrate=3077.9kbits/s   
47frame=  369 fps= 60 q=29.9 size=    4625kB time=00:00:12.29 bitrate=3080.8kbits/s   
48frame=  399 fps= 60 q=26.8 size=    5023kB time=00:00:13.30 bitrate=3094.0kbits/s   
49frame=  429 fps= 60 q=27.1 size=    5440kB time=00:00:14.30 bitrate=3115.9kbits/s   
50frame=  459 fps= 60 q=21.1 size=    5852kB time=00:00:15.30 bitrate=3132.3kbits/s   
51frame=  485 fps= 59 q=16.3 size=    6197kB time=00:00:16.17 bitrate=3138.3kbits/s   
52frame=  514 fps= 59 q=17.7 size=    6581kB time=00:00:17.14 bitrate=3145.1kbits/s   
53frame=  544 fps= 59 q=16.8 size=    6998kB time=00:00:18.14 bitrate=3159.3kbits/s   
54frame=  573 fps= 59 q=14.6 size=    7420kB time=00:00:19.11 bitrate=3180.2kbits/s   
55frame=  603 fps= 59 q=12.3 size=    7872kB time=00:00:20.11 bitrate=3205.9kbits/s   
56frame=  632 fps= 59 q=13.5 size=    8318kB time=00:00:21.08 bitrate=3231.9kbits/s   
57frame=  660 fps= 59 q=16.0 size=    8783kB time=00:00:22.02 bitrate=3267.4kbits/s   
58frame=  688 fps= 59 q=14.5 size=    9302kB time=00:00:22.95 bitrate=3319.5kbits/s   
59frame=  715 fps= 59 q=13.5 size=    9754kB time=00:00:23.85 bitrate=3349.1kbits/s   
60frame=  744 fps= 58 q=13.5 size=   10266kB time=00:00:24.82 bitrate=3387.3kbits/s   
61frame=  773 fps= 58 q=13.5 size=   10832kB time=00:00:25.79 bitrate=3439.9kbits/s   
62frame=  801 fps= 58 q=12.5 size=   11370kB time=00:00:26.73 bitrate=3484.3kbits/s   
63frame=  830 fps= 58 q=12.4 size=   11956kB time=00:00:27.70 bitrate=3535.8kbits/s   
64frame=  858 fps= 58 q=9.0 size=   12464kB time=00:00:28.63 bitrate=3565.4kbits/s   
65frame=  887 fps= 58 q=9.6 size=   12984kB time=00:00:29.60 bitrate=3592.7kbits/s   
66frame=  915 fps= 58 q=7.2 size=   13479kB time=00:00:30.54 bitrate=3615.4kbits/s   
67frame=  942 fps= 58 q=7.8 size=   13944kB time=00:00:31.44 bitrate=3632.8kbits/s   
68frame=  969 fps= 58 q=8.9 size=   14455kB time=00:00:32.34 bitrate=3661.0kbits/s   
69frame=  997 fps= 58 q=6.5 size=   15015kB time=00:00:33.28 bitrate=3695.8kbits/s   
70frame= 1025 fps= 58 q=15.1 size=   15640kB time=00:00:34.21 bitrate=3744.3kbits/s   
71frame= 1050 fps= 57 q=16.1 size=   16484kB time=00:00:35.05 bitrate=3852.4kbits/s   
72frame= 1055 fps= 57 q=14.9 Lsize=   33119kB time=00:00:35.22 bitrate=7703.4kbits/s   
73video:8349kB audio:0kB global headers:0kB muxing overhead 296.681980%