Ticket #429: v9loglevel99

File v9loglevel99, 5.0 KB (added by mus, 5 years ago)

output of "ffmpeg -v 9 -loglevel 99 -i input.mkv"

Line 
1ffmpeg version 0.7.1, Copyright (c) 2000-2011 the FFmpeg developers
2  built on Jul 24 2011 08:54:22 with gcc 4.6.1
3  configuration: --prefix=/usr --enable-libmp3lame --enable-libvorbis --enable-libxvid --enable-libx264 --enable-libvpx --enable-libtheora --enable-postproc --enable-shared --enable-x11grab --enable-libopencore_amrnb --enable-libopencore_amrwb --enable-libschroedinger --enable-libopenjpeg --enable-librtmp --enable-gpl --enable-version3 --enable-runtime-cpudetect --disable-debug
4  libavutil    50. 43. 0 / 50. 43. 0
5  libavcodec   52.122. 0 / 52.122. 0
6  libavformat  52.110. 0 / 52.110. 0
7  libavdevice  52.  5. 0 / 52.  5. 0
8  libavfilter   1. 80. 0 /  1. 80. 0
9  libswscale    0. 14. 1 /  0. 14. 1
10  libpostproc  51.  2. 0 / 51.  2. 0
11[matroska,webm @ 0x25ab0a0] Format matroska,webm probed with size=2048 and score=100
12st:0 removing common factor 1000000 from timebase
13st:1 removing common factor 1000000 from timebase
14st:2 removing common factor 1000000 from timebase
15st:3 removing common factor 1000000 from timebase
16st:4 removing common factor 1000000 from timebase
17st:5 removing common factor 1000000 from timebase
18[h264 @ 0x25ffe60] Unsupported bit depth: 0
19[h264 @ 0x25ffe60] no picture
20[dca @ 0x2601ec0] Stream with high frequencies VQ coding
21[dca @ 0x2603f20] Stream with high frequencies VQ coding
22[h264 @ 0x25ffe60] no picture
23    Last message repeated 2 times
24[matroska,webm @ 0x25ab0a0] Probe buffer size limit 5000000 reached
25[matroska,webm @ 0x25ab0a0] Estimating duration from bitrate, this may be inaccurate
26Input #0, matroska,webm, from 'input.mkv':
27  Duration: 01:57:07.10, start: 0.000000, bitrate: 2304 kb/s
28    Chapter #0.0: start 0.000000, end 292.083444
29    Metadata:
30      title           : Chapter 00
31    Chapter #0.1: start 292.083444, end 425.424978
32    Metadata:
33      title           : Chapter 01
34    Chapter #0.2: start 425.424978, end 671.629267
35    Metadata:
36      title           : Chapter 02
37    Chapter #0.3: start 671.629267, end 825.032511
38    Metadata:
39      title           : Chapter 03
40    Chapter #0.4: start 825.032511, end 1114.863711
41    Metadata:
42      title           : Chapter 04
43    Chapter #0.5: start 1114.863711, end 1258.131844
44    Metadata:
45      title           : Chapter 05
46    Chapter #0.6: start 1258.131844, end 1462.627778
47    Metadata:
48      title           : Chapter 06
49    Chapter #0.7: start 1462.627778, end 1978.976956
50    Metadata:
51      title           : Chapter 07
52    Chapter #0.8: start 1978.976956, end 2280.986978
53    Metadata:
54      title           : Chapter 08
55    Chapter #0.9: start 2280.986978, end 2465.963444
56    Metadata:
57      title           : Chapter 09
58    Chapter #0.10: start 2465.963444, end 2746.493689
59    Metadata:
60      title           : Chapter 10
61    Chapter #0.11: start 2746.493689, end 3138.969111
62    Metadata:
63      title           : Chapter 11
64    Chapter #0.12: start 3138.969111, end 3374.329244
65    Metadata:
66      title           : Chapter 12
67    Chapter #0.13: start 3374.329244, end 3555.551956
68    Metadata:
69      title           : Chapter 13
70    Chapter #0.14: start 3555.551956, end 3747.785644
71    Metadata:
72      title           : Chapter 14
73    Chapter #0.15: start 3747.785644, end 4010.423000
74    Metadata:
75      title           : Chapter 15
76    Chapter #0.16: start 4010.423000, end 4409.279733
77    Metadata:
78      title           : Chapter 16
79    Chapter #0.17: start 4409.279733, end 4665.702578
80    Metadata:
81      title           : Chapter 17
82    Chapter #0.18: start 4665.702578, end 5011.381222
83    Metadata:
84      title           : Chapter 18
85    Chapter #0.19: start 5011.381222, end 5151.396111
86    Metadata:
87      title           : Chapter 19
88    Chapter #0.20: start 5151.396111, end 5408.277733
89    Metadata:
90      title           : Chapter 20
91    Chapter #0.21: start 5408.277733, end 5674.418600
92    Metadata:
93      title           : Chapter 21
94    Chapter #0.22: start 5674.418600, end 5870.030689
95    Metadata:
96      title           : Chapter 22
97    Chapter #0.23: start 5870.030689, end 6154.982022
98    Metadata:
99      title           : Chapter 23
100    Chapter #0.24: start 6154.982022, end 6325.735933
101    Metadata:
102      title           : Chapter 24
103    Chapter #0.25: start 6325.735933, end 6494.529556
104    Metadata:
105      title           : Chapter 25
106    Chapter #0.26: start 6494.529556, end 6711.204333
107    Metadata:
108      title           : Chapter 26
109    Chapter #0.27: start 6711.204333, end 7027.103000
110    Metadata:
111      title           : Chapter 27
112    Stream #0.0(eng), 74, 1/1000: Video: h264 (High), yuv420p, 1920x1080 [PAR 1:1 DAR 16:9], 1001/48000, 23.98 fps, 23.98 tbr, 1k tbn, 47.95 tbc (default)
113    Stream #0.1(eng), 288, 1/1000: Audio: dca (DTS), 48000 Hz, 5.1, s16, 1536 kb/s (default)
114    Metadata:
115      title           : 3/2+1
116    Stream #0.2(deu), 288, 1/1000: Audio: dca (DTS), 48000 Hz, 5.1, s16, 768 kb/s
117    Metadata:
118      title           : 3/2+1
119    Stream #0.3(eng), 0, 1/1000: Subtitle: pgssub (default)
120    Stream #0.4(deu), 0, 1/1000: Subtitle: pgssub
121    Stream #0.5(deu), 0, 1/1000: Subtitle: pgssub
122At least one output file must be specified