Ticket #4284: ignore-output.log

File ignore-output.log, 3.6 KB (added by kvssoft, 4 years ago)
Line 
1E:\Programs\FFmpeg\bin>ffmpeg.exe -r 24 -i "E:\Work\Development\Videos\Sintel\Trailer\Source\1080-png\sintel_trailer_2k_
2%04d.png" -c:v libx265 -x265-params "profile=main:level=3.0:crf=28:keyint=48:min-keyint=48:no-scenecut" -r 24 -pix_fmt y
3uv420p -filter:v "scale='trunc(oh*a/2)*2:360'" "E:\Work\Development\Videos\Sintel\Trailer\Source\GOP\360p-hevc.mp4" -rep
4ort
5ffmpeg started on 2015-01-25 at 14:20:47
6Report written to "ffmpeg-20150125-142047.log"
7ffmpeg version N-69233-g1f13348 Copyright (c) 2000-2015 the FFmpeg developers
8  built on Jan 23 2015 22:13:30 with gcc 4.9.2 (GCC)
9  configuration: --enable-gpl --enable-version3 --disable-w32threads --enable-avisynth --enable-bzlib --enable-fontconfi
10g --enable-frei0r --enable-gnutls --enable-iconv --enable-libass --enable-libbluray --enable-libbs2b --enable-libcaca --
11enable-libfreetype --enable-libgme --enable-libgsm --enable-libilbc --enable-libmodplug --enable-libmp3lame --enable-lib
12opencore-amrnb --enable-libopencore-amrwb --enable-libopenjpeg --enable-libopus --enable-librtmp --enable-libschroedinge
13r --enable-libsoxr --enable-libspeex --enable-libtheora --enable-libtwolame --enable-libvidstab --enable-libvo-aacenc --
14enable-libvo-amrwbenc --enable-libvorbis --enable-libvpx --enable-libwavpack --enable-libwebp --enable-libx264 --enable-
15libx265 --enable-libxavs --enable-libxvid --enable-lzma --enable-decklink --enable-zlib
16  libavutil      54. 17.100 / 54. 17.100
17  libavcodec     56. 20.100 / 56. 20.100
18  libavformat    56. 19.100 / 56. 19.100
19  libavdevice    56.  4.100 / 56.  4.100
20  libavfilter     5.  8.101 /  5.  8.101
21  libswscale      3.  1.101 /  3.  1.101
22  libswresample   1.  1.100 /  1.  1.100
23  libpostproc    53.  3.100 / 53.  3.100
24Input #0, image2, from 'E:\Work\Development\Videos\Sintel\Trailer\Source\1080-png\sintel_trailer_2k_%04d.png':
25  Duration: 00:00:50.12, start: 0.000000, bitrate: N/A
26    Stream #0:0: Video: png, rgb24, 1920x1080 [SAR 72:72 DAR 16:9], 25 fps, 25 tbr, 25 tbn, 25 tbc
27x265 [info]: HEVC encoder version 1.4
28x265 [info]: build info [Windows][GCC 4.9.2][64 bit] 8bpp
29x265 [info]: using cpu capabilities: MMX2 SSE2Fast SSSE3 SSE4.1 Cache64
30x265 [info]: Main profile, Level-2.1 (Main tier)
31x265 [info]: WPP streams / frame threads / pool  : 6 / 1 / 2
32x265 [info]: CTU size / RQT depth inter / intra  : 64 / 1 / 1
33x265 [info]: ME / range / subpel / merge         : hex / 57 / 2 / 2
34x265 [info]: Keyframe min / max / scenecut       : 24 / 250 / 40
35x265 [info]: Lookahead / bframes / badapt        : 20 / 4 / 2
36x265 [info]: b-pyramid / weightp / weightb / refs: 1 / 1 / 0 / 3
37x265 [info]: Rate Control / AQ-Strength / CUTree : CRF-28.0 / 1.0 / 1
38x265 [info]: tools: rd=3 lft sao signhide tmvp
39Output #0, mp4, to 'E:\Work\Development\Videos\Sintel\Trailer\Source\GOP\360p-hevc.mp4':
40  Metadata:
41    encoder         : Lavf56.19.100
42    Stream #0:0: Video: hevc (libx265) ([35][0][0][0] / 0x0023), yuv420p, 640x360 [SAR 1:1 DAR 16:9], q=2-31, 24 fps, 12
43288 tbn, 24 tbc
44    Metadata:
45      encoder         : Lavc56.20.100 libx265
46Stream mapping:
47  Stream #0:0 -> #0:0 (png (native) -> hevc (libx265))
48Press [q] to stop, [?] for help
49frame= 1253 fps= 14 q=0.0 Lsize=     824kB time=00:00:52.12 bitrate= 129.5kbits/s
50video:808kB audio:0kB subtitle:0kB other streams:0kB global headers:1kB muxing overhead: 1.948801%
51x265 [info]: frame I:     13, Avg QP:25.12  kb/s: 576.52
52x265 [info]: frame P:    360, Avg QP:27.91  kb/s: 279.45
53x265 [info]: frame B:    880, Avg QP:31.93  kb/s: 56.59
54x265 [info]: global :   1253, Avg QP:30.71  kb/s: 126.01
55x265 [info]: Weighted P-Frames: Y:32.8% UV:17.5%
56x265 [info]: consecutive B-frames: 16.9% 8.3% 11.0% 49.6% 14.2%