Ticket #418: pipe_fails.log

File pipe_fails.log, 13.4 KB (added by martinblech, 5 years ago)
Line 
1$ cat file_ok_pipe_fails_nonmonotonically.ts | ffmpeg -f mpegts -i - -acodec copy -f mp2 -map 0.25 /tmp/test0.25.mp2 -acodec copy -f mp2 -map 0.26 /tmp/test0.26.mp2 -acodec copy -f mp2 -map 0.16 /tmp/test0.16.mp2 -acodec copy -f mp2 -map 0.18 /tmp/test0.18.mp2 -acodec copy -f mp2 -map 0.24 /tmp/test0.24.mp2 -acodec copy -f mp2 -map 0.22 /tmp/test0.22.mp2 -acodec copy -f mp2 -map 0.19 /tmp/test0.19.mp2 -acodec copy -f mp2 -map 0.4 /tmp/test0.4.mp2 -acodec copy -f mp2 -map 0.1 /tmp/test0.1.mp2 -acodec copy -f mp2 -map 0.11 /tmp/test0.11.mp2 -acodec copy -f mp2 -map 0.36 /tmp/test0.36.mp2 -acodec copy -f mp2 -map 0.9 /tmp/test0.9.mp2 -acodec copy -f mp2 -map 0.21 /tmp/test0.21.mp2 -acodec copy -f mp2 -map 0.38 /tmp/test0.38.mp2
2ffmpeg version 0.8, Copyright (c) 2000-2011 the FFmpeg developers
3  built on Aug  2 2011 13:29:26 with gcc 4.2.1 (Apple Inc. build 5666) (dot 3)
4  configuration: --prefix=/usr/local/Cellar/ffmpeg/0.8 --enable-gpl --enable-version3 --enable-nonfree --enable-hardcoded-tables --enable-libx264 --enable-libfaac --enable-libmp3lame --enable-libtheora --enable-libvorbis --enable-libvpx --enable-libxvid
5  libavutil    51.  9. 1 / 51.  9. 1
6  libavcodec   53.  7. 0 / 53.  7. 0
7  libavformat  53.  4. 0 / 53.  4. 0
8  libavdevice  53.  1. 1 / 53.  1. 1
9  libavfilter   2. 23. 0 /  2. 23. 0
10  libswscale    2.  0. 0 /  2.  0. 0
11  libpostproc  51.  2. 0 / 51.  2. 0
12[mp2 @ 0x101856e00] Header missing
13[mpeg2video @ 0x101860600] mpeg_decode_postinit() failure
14[mpeg2video @ 0x10184ea00] mpeg_decode_postinit() failure
15[mpeg2video @ 0x10185e800] mpeg_decode_postinit() failure
16[mpeg2video @ 0x101850800] mpeg_decode_postinit() failure
17[mpeg2video @ 0x10184ea00] mpeg_decode_postinit() failure
18[mpeg2video @ 0x101826400] mpeg_decode_postinit() failure
19[mpeg2video @ 0x10182dc00] mpeg_decode_postinit() failure
20[mpeg2video @ 0x101858c00] mpeg_decode_postinit() failure
21[mpeg2video @ 0x101860600] mpeg_decode_postinit() failure
22[mpeg2video @ 0x10184ea00] mpeg_decode_postinit() failure
23[mpeg2video @ 0x101860600] mpeg_decode_postinit() failure
24[mpeg2video @ 0x101850800] mpeg_decode_postinit() failure
25[mpeg2video @ 0x10182dc00] mpeg_decode_postinit() failure
26[mpeg2video @ 0x101826400] mpeg_decode_postinit() failure
27[mpeg2video @ 0x10184ea00] mpeg_decode_postinit() failure
28[mpeg2video @ 0x101860600] mpeg_decode_postinit() failure
29[mpeg2video @ 0x101858c00] mpeg_decode_postinit() failure
30[mpeg2video @ 0x10184ea00] mpeg_decode_postinit() failure
31[mpeg2video @ 0x101850800] mpeg_decode_postinit() failure
32[mpeg2video @ 0x101826400] mpeg_decode_postinit() failure
33[mpeg2video @ 0x101889c00] mpeg_decode_postinit() failure
34[mpeg2video @ 0x10184ea00] mpeg_decode_postinit() failure
35[mpeg2video @ 0x10182dc00] mpeg_decode_postinit() failure
36[mpeg2video @ 0x101858c00] mpeg_decode_postinit() failure
37[mpeg2video @ 0x101826400] mpeg_decode_postinit() failure
38[mpeg2video @ 0x101850800] mpeg_decode_postinit() failure
39[mpeg2video @ 0x101860600] mpeg_decode_postinit() failure
40[mpeg2video @ 0x10185e800] mpeg_decode_postinit() failure
41[mpeg2video @ 0x10182dc00] mpeg_decode_postinit() failure
42[mpeg2video @ 0x101889c00] mpeg_decode_postinit() failure
43[mpeg2video @ 0x101858c00] mpeg_decode_postinit() failure
44[mpeg2video @ 0x101860600] mpeg_decode_postinit() failure
45[mpeg2video @ 0x101826400] mpeg_decode_postinit() failure
46[mpeg2video @ 0x10182dc00] mpeg_decode_postinit() failure
47[mpeg2video @ 0x101889c00] mpeg_decode_postinit() failure
48[mpeg2video @ 0x101850800] mpeg_decode_postinit() failure
49[mpeg2video @ 0x101860600] mpeg_decode_postinit() failure
50[mp2 @ 0x101895000] Header missing
51[mpeg2video @ 0x101826400] mpeg_decode_postinit() failure
52[mpeg2video @ 0x101858c00] mpeg_decode_postinit() failure
53[mpeg2video @ 0x101889c00] mpeg_decode_postinit() failure
54[mpeg2video @ 0x101826400] mpeg_decode_postinit() failure
55[mpeg2video @ 0x101850800] mpeg_decode_postinit() failure
56[mpeg2video @ 0x101860600] mpeg_decode_postinit() failure
57[mpeg2video @ 0x10182dc00] mpeg_decode_postinit() failure
58[mpeg2video @ 0x101858c00] mpeg_decode_postinit() failure
59[mpeg2video @ 0x101860600] mpeg_decode_postinit() failure
60    Last message repeated 1 times
61[mpeg2video @ 0x10182dc00] mpeg_decode_postinit() failure
62[mp2 @ 0x101878e00] Header missing
63[mpeg2video @ 0x101850800] mpeg_decode_postinit() failure
64[mpeg2video @ 0x101858c00] mpeg_decode_postinit() failure
65[mpeg2video @ 0x101889c00] mpeg_decode_postinit() failure
66[mpeg2video @ 0x10182dc00] mpeg_decode_postinit() failure
67[mpeg2video @ 0x101889c00] mpeg_decode_postinit() failure
68[mpeg2video @ 0x101858c00] mpeg_decode_postinit() failure
69[mp2 @ 0x101898c00] Header missing
70[mpeg2video @ 0x101889c00] mpeg_decode_postinit() failure
71[mp2 @ 0x10187ac00] Header missing
72[mpeg2video @ 0x10182dc00] mpeg_decode_postinit() failure
73[mpeg2video @ 0x101858c00] mpeg_decode_postinit() failure
74[mpeg2video @ 0x10182dc00] mpeg_decode_postinit() failure
75[mpeg2video @ 0x10184ea00] mpeg_decode_postinit() failure
76[mpeg2video @ 0x101858c00] mpeg_decode_postinit() failure
77[mpeg2video @ 0x10182dc00] mpeg_decode_postinit() failure
78[mpeg2video @ 0x101850800] mpeg_decode_postinit() failure
79[mpeg2video @ 0x101826400] mpeg_decode_postinit() failure
80[mpeg2video @ 0x101889c00] mpeg_decode_postinit() failure
81    Last message repeated 2 times
82[mpeg2video @ 0x101858c00] mpeg_decode_postinit() failure
83[mpeg2video @ 0x101860600] mpeg_decode_postinit() failure
84[mpeg2video @ 0x10182dc00] mpeg_decode_postinit() failure
85[mpeg2video @ 0x101889c00] mpeg_decode_postinit() failure
86[mpegts @ 0x101807c00] Could not find codec parameters (Data: [192][0][0][0] / 0x00C0)
87[mpegts @ 0x101807c00] Could not find codec parameters (Data: [193][0][0][0] / 0x00C1)
88[mpegts @ 0x101807c00] Could not find codec parameters (Data: [192][0][0][0] / 0x00C0)
89[mpegts @ 0x101807c00] Could not find codec parameters (Data: [201][0][0][0] / 0x00C9)
90[mpegts @ 0x101807c00] Could not find codec parameters (Data: [193][0][0][0] / 0x00C1)
91[mpegts @ 0x101807c00] Could not find codec parameters (Data: [202][0][0][0] / 0x00CA)
92    Last message repeated 1 times
93[mpegts @ 0x101807c00] Could not find codec parameters (Data: [193][0][0][0] / 0x00C1)
94[mpegts @ 0x101807c00] Estimating duration from bitrate, this may be inaccurate
95Input #0, mpegts, from 'pipe:':
96  Duration: N/A, start: 10560.007333, bitrate: 130500 kb/s
97  Program 10068
98    Metadata:
99      service_name    : EXTREMADURA TV
100      service_provider: Telefonica Spain
101    Stream #0.12[0x579]: Video: mpeg2video (Main), yuv420p, 720x576 [PAR 16:15 DAR 4:3], 15000 kb/s, 43.75 fps, 25 tbr, 90k tbn, 50 tbc
102    Stream #0.25[0x57a]: Audio: mp2, 48000 Hz, stereo, s16, 128 kb/s
103  Program 10030
104    Metadata:
105      service_name    : CNBC Europe
106      service_provider: CNBC
107    Stream #0.10[0x2b](eng): Subtitle: [6][0][0][0] / 0x0006
108    Stream #0.7[0x133]: Video: mpeg2video (Main), yuv420p, 480x576 [PAR 8:5 DAR 4:3], 2900 kb/s, 34.62 fps, 25 tbr, 90k tbn, 50 tbc
109    Stream #0.26[0x134](eng): Audio: mp2, 48000 Hz, stereo, s16, 192 kb/s
110    Stream #0.27[0xc88]: Data: [192][0][0][0] / 0x00C0
111    Stream #0.28[0xc8d]: Data: [193][0][0][0] / 0x00C1
112    Stream #0.29[0xc96]: Data: [192][0][0][0] / 0x00C0
113  Program 10050
114    Metadata:
115      service_name    : BBC World
116      service_provider: BBC
117    Stream #0.13[0x29](eng): Subtitle: [6][0][0][0] / 0x0006
118    Stream #0.16[0x5c](eng): Audio: mp2, 48000 Hz, stereo, s16, 256 kb/s
119    Stream #0.30[0xa3]: Video: mpeg2video (Main), yuv420p, 720x576 [PAR 64:45 DAR 16:9], 15000 kb/s, 50 fps, 25 tbr, 90k tbn, 50 tbc
120  Program 10099
121    Metadata:
122      service_name    : Data System
123      service_provider: SES ASTRA
124    Stream #0.31[0x4d8]: Data: [201][0][0][0] / 0x00C9
125    Stream #0.32[0x4da]: Data: [193][0][0][0] / 0x00C1
126    Stream #0.33[0x4ed]: Data: [202][0][0][0] / 0x00CA
127    Stream #0.34[0x4db]: Data: [202][0][0][0] / 0x00CA
128    Stream #0.35[0x4d9]: Data: [193][0][0][0] / 0x00C1
129  Program 10062
130    Metadata:
131      service_name    : Best of shopping
132      service_provider: Groupe M6
133    Stream #0.18[0x26](fre): Audio: mp2, 48000 Hz, stereo, s16, 192 kb/s
134    Stream #0.14[0xe1]: Video: mpeg2video (Main), yuv420p, 704x576 [PAR 16:11 DAR 16:9], 2600 kb/s, 25 fps, 25 tbr, 90k tbn, 50 tbc
135  Program 10063
136    Metadata:
137      service_name    : M6 BOUTIQUE LA CHAINE
138      service_provider: Groupe M6
139    Stream #0.15[0x460]: Video: mpeg2video (Main), yuv420p, 704x576 [PAR 16:11 DAR 16:9], 2600 kb/s, 42.31 fps, 25 tbr, 90k tbn, 50 tbc
140    Stream #0.24[0x46a](fre): Audio: mp2, 48000 Hz, stereo, s16, 192 kb/s
141  Program 10067
142    Metadata:
143      service_name    : Bloomberg Europe TV
144      service_provider: Arqiva
145    Stream #0.6[0x25](eng): Subtitle: [6][0][0][0] / 0x0006
146    Stream #0.22[0x528](eng): Audio: mp2, 48000 Hz, stereo, s16, 192 kb/s (clean effects)
147    Stream #0.23[0x550]: Video: mpeg2video (Main), yuv420p, 544x576 [PAR 24:17 DAR 4:3], 15000 kb/s, 25 fps, 25 tbr, 90k tbn, 50 tbc
148  Program 10069
149    Metadata:
150      service_name    : TELEMADRID SAT
151      service_provider: Telefonica Spain
152    Stream #0.8[0x5dd]: Video: mpeg2video (Main), yuv420p, 720x576 [PAR 64:45 DAR 16:9], 15000 kb/s, 36.54 fps, 25 tbr, 90k tbn, 50 tbc
153    Stream #0.19[0x5de](spa): Audio: mp2, 48000 Hz, stereo, s16, 128 kb/s
154    Stream #0.17[0x5df](spa): Subtitle: [6][0][0][0] / 0x0006
155  Program 10070
156    Metadata:
157      service_name    : ANDALUCIA TV
158      service_provider: Telefonica Spain
159    Stream #0.3[0x641]: Video: mpeg2video (Main), yuv420p, 720x576 [PAR 16:15 DAR 4:3], 15000 kb/s, 50 fps, 25 tbr, 90k tbn, 50 tbc
160    Stream #0.4[0x642]: Audio: mp2, 48000 Hz, stereo, s16, 128 kb/s
161    Stream #0.5[0x643](spa): Subtitle: [6][0][0][0] / 0x0006
162  Program 10071
163    Metadata:
164      service_name    : TV3 CAT
165      service_provider: Telefonica Spain
166    Stream #0.0[0x6a5]: Video: mpeg2video (Main), yuv420p, 480x576 [PAR 32:15 DAR 16:9], 15000 kb/s, 34.38 fps, 25 tbr, 90k tbn, 50 tbc
167    Stream #0.1[0x6a6]: Audio: mp2, 48000 Hz, stereo, s16, 128 kb/s
168    Stream #0.2[0x6a7](cat): Subtitle: [6][0][0][0] / 0x0006
169  Program 10072
170    Metadata:
171      service_name    : CATALUNYA RADIO
172      service_provider: Telefonica Spain
173    Stream #0.11[0x709]: Audio: mp2, 48000 Hz, stereo, s16, 160 kb/s
174  Program 10073
175    Metadata:
176      service_name    : CATALUNYA INFORMACIO
177      service_provider: Telefonica Spain
178    Stream #0.36[0x76d]: Audio: mp2, 48000 Hz, stereo, s16, 160 kb/s
179  Program 10074
180    Metadata:
181      service_name    : CANAL SUR RADIO
182      service_provider: Telefonica Spain
183    Stream #0.9[0x7d1]: Audio: mp2, 48000 Hz, stereo, s16, 160 kb/s
184  Program 10075
185    Metadata:
186      service_name    : Elette
187      service_provider: Telefonica Spain
188    Stream #0.20[0x899]: Video: mpeg2video (Main), yuv420p, 720x576 [PAR 16:15 DAR 4:3], 15000 kb/s, 25 fps, 25 tbr, 90k tbn, 50 tbc
189    Stream #0.21[0x89a]: Audio: mp2, 48000 Hz, stereo, s16, 128 kb/s
190  Program 10077
191    Metadata:
192      service_name    : Russia Today Espa?ol
193      service_provider: OVERON
194    Stream #0.37[0x835]: Video: mpeg2video (Main), yuv420p, 720x576 [PAR 16:15 DAR 4:3], 15000 kb/s, 25 fps, 25 tbr, 90k tbn, 50 tbc
195    Stream #0.38[0x836](eng): Audio: mp2, 48000 Hz, stereo, s16, 256 kb/s
196Output #0, mp2, to '/tmp/test0.25.mp2':
197  Metadata:
198    encoder         : Lavf53.4.0
199    Stream #0.0: Audio: mp2, 48000 Hz, stereo, 128 kb/s
200Output #1, mp2, to '/tmp/test0.26.mp2':
201  Metadata:
202    encoder         : Lavf53.4.0
203    Stream #1.0(eng): Audio: mp2, 48000 Hz, stereo, 192 kb/s
204Output #2, mp2, to '/tmp/test0.16.mp2':
205  Metadata:
206    encoder         : Lavf53.4.0
207    Stream #2.0(eng): Audio: mp2, 48000 Hz, stereo, 256 kb/s
208Output #3, mp2, to '/tmp/test0.18.mp2':
209  Metadata:
210    encoder         : Lavf53.4.0
211    Stream #3.0(fre): Audio: mp2, 48000 Hz, stereo, 192 kb/s
212Output #4, mp2, to '/tmp/test0.24.mp2':
213  Metadata:
214    encoder         : Lavf53.4.0
215    Stream #4.0(fre): Audio: mp2, 48000 Hz, stereo, 192 kb/s
216Output #5, mp2, to '/tmp/test0.22.mp2':
217  Metadata:
218    encoder         : Lavf53.4.0
219    Stream #5.0(eng): Audio: mp2, 48000 Hz, stereo, 192 kb/s (clean effects)
220Output #6, mp2, to '/tmp/test0.19.mp2':
221  Metadata:
222    encoder         : Lavf53.4.0
223    Stream #6.0(spa): Audio: mp2, 48000 Hz, stereo, 128 kb/s
224Output #7, mp2, to '/tmp/test0.4.mp2':
225  Metadata:
226    encoder         : Lavf53.4.0
227    Stream #7.0: Audio: mp2, 48000 Hz, stereo, 128 kb/s
228Output #8, mp2, to '/tmp/test0.1.mp2':
229  Metadata:
230    encoder         : Lavf53.4.0
231    Stream #8.0: Audio: mp2, 48000 Hz, stereo, 128 kb/s
232Output #9, mp2, to '/tmp/test0.11.mp2':
233  Metadata:
234    encoder         : Lavf53.4.0
235    Stream #9.0: Audio: mp2, 48000 Hz, stereo, 160 kb/s
236Output #10, mp2, to '/tmp/test0.36.mp2':
237  Metadata:
238    encoder         : Lavf53.4.0
239    Stream #10.0: Audio: mp2, 48000 Hz, stereo, 160 kb/s
240Output #11, mp2, to '/tmp/test0.9.mp2':
241  Metadata:
242    encoder         : Lavf53.4.0
243    Stream #11.0: Audio: mp2, 48000 Hz, stereo, 160 kb/s
244Output #12, mp2, to '/tmp/test0.21.mp2':
245  Metadata:
246    encoder         : Lavf53.4.0
247    Stream #12.0: Audio: mp2, 48000 Hz, stereo, 128 kb/s
248Output #13, mp2, to '/tmp/test0.38.mp2':
249  Metadata:
250    encoder         : Lavf53.4.0
251    Stream #13.0(eng): Audio: mp2, 48000 Hz, stereo, 256 kb/s
252Stream mapping:
253  Stream #0.25 -> #0.0
254  Stream #0.26 -> #1.0
255  Stream #0.16 -> #2.0
256  Stream #0.18 -> #3.0
257  Stream #0.24 -> #4.0
258  Stream #0.22 -> #5.0
259  Stream #0.19 -> #6.0
260  Stream #0.4 -> #7.0
261  Stream #0.1 -> #8.0
262  Stream #0.11 -> #9.0
263  Stream #0.36 -> #10.0
264  Stream #0.9 -> #11.0
265  Stream #0.21 -> #12.0
266  Stream #0.38 -> #13.0
267[mp2 @ 0x10187f400] Application provided invalid, non monotonically increasing dts to muxer in stream 0: 4106889285 >= 4106889285
268av_interleaved_write_frame(): Invalid argument