Ticket #408: valg.out

File valg.out, 7.9 KB (added by daw, 5 years ago)

output from valgrind

Line 
1==9808== Memcheck, a memory error detector
2==9808== Copyright (C) 2002-2009, and GNU GPL'd, by Julian Seward et al.
3==9808== Using Valgrind-3.5.0 and LibVEX; rerun with -h for copyright info
4==9808== Command: ./ffmpeg -v 9 -loglevel 99 -i bug1/bad.roq -y -target pal-vcd out
5==9808==
6ffmpeg version N-32008-g13e9a0f, Copyright (c) 2000-2011 the FFmpeg developers
7  built on Aug 19 2011 23:34:14 with gcc 4.5.1 20100924 (Red Hat 4.5.1-4)
8  configuration: --disable-stripping
9  libavutil    51. 12. 0 / 51. 12. 0
10  libavcodec   53. 11. 0 / 53. 11. 0
11  libavformat  53.  9. 0 / 53.  9. 0
12  libavdevice  53.  3. 0 / 53.  3. 0
13  libavfilter   2. 32. 0 /  2. 32. 0
14  libswscale    2.  0. 0 /  2.  0. 0
15[RoQ @ 0x4c43820] Format RoQ probed with size=2048 and score=100
16[RoQ @ 0x4c43820] All info found
17[RoQ @ 0x4c43820] Estimating duration from bitrate, this may be inaccurate
18Input #0, RoQ, from 'bug1/bad.roq':
19  Duration: N/A, start: 0.000000, bitrate: N/A
20    Stream #0.0, 1, 1/30: Video: roqvideo, yuv444p, 352x288, 1/30, 30 tbr, 30 tbn, 30 tbc
21Incompatible pixel format 'yuv444p' for codec 'mpeg1video', auto-selecting format 'yuv420p'
22[buffer @ 0x4c7f6c0] w:352 h:288 pixfmt:yuv444p tb:1/1000000 sar:0/1 sws_param:
23[buffersink @ 0x4c7fbe0] auto-inserting filter 'auto-inserted scaler 0' between the filter 'src' and the filter 'out'
24[scale @ 0x4c807e0] w:352 h:288 fmt:yuv444p -> w:352 h:288 fmt:yuv420p flags:0x4
25[mpeg1video @ 0x4c6af00] Unsupported bit depth: 0
26Output #0, vcd, to 'out':
27  Metadata:
28    encoder         : Lavf53.9.0
29    Stream #0.0, 0, 1/90000: Video: mpeg1video, yuv420p, 352x288, 1/25, q=2-31, 1150 kb/s, 90k tbn, 25 tbc
30Stream mapping:
31  Stream #0.0 -> #0.0
32Press [q] to stop, [?] for help
33[mpeg1video @ 0x4c6af00] rc buffer underflow
34==9808== Invalid read of size 1
35==9808==    at 0x7406EE: roq_decode_frame (roqvideodec.c:78)
36==9808==    by 0x7AAAB6: avcodec_decode_video2 (utils.c:769)
37==9808==    by 0x435134: output_packet (ffmpeg.c:1627)
38==9808==    by 0x4384AC: transcode.clone.11 (ffmpeg.c:2812)
39==9808==    by 0x43CB4C: main (ffmpeg.c:4569)
40==9808==  Address 0x4eec326 is 0 bytes after a block of size 18,982 alloc'd
41==9808==    at 0x4A0473F: memalign (vg_replace_malloc.c:532)
42==9808==    by 0x4A04798: posix_memalign (vg_replace_malloc.c:660)
43==9808==    by 0x9574A4: av_malloc (mem.c:90)
44==9808==    by 0x51793B: av_new_packet (avpacket.c:64)
45==9808==    by 0x4E9474: av_get_packet (utils.c:270)
46==9808==    by 0x4803AD: roq_read_packet (idroqdec.c:157)
47==9808==    by 0x4EA183: av_read_packet (utils.c:732)
48==9808==    by 0x4EA6C6: read_frame_internal (utils.c:1199)
49==9808==    by 0x43820A: transcode.clone.11 (ffmpeg.c:2753)
50==9808==    by 0x43CB4C: main (ffmpeg.c:4569)
51==9808==
52==9808== Invalid read of size 1
53==9808==    at 0x7406FB: roq_decode_frame (roqvideodec.c:78)
54==9808==    by 0x7AAAB6: avcodec_decode_video2 (utils.c:769)
55==9808==    by 0x435134: output_packet (ffmpeg.c:1627)
56==9808==    by 0x4384AC: transcode.clone.11 (ffmpeg.c:2812)
57==9808==    by 0x43CB4C: main (ffmpeg.c:4569)
58==9808==  Address 0x4eec327 is 1 bytes after a block of size 18,982 alloc'd
59==9808==    at 0x4A0473F: memalign (vg_replace_malloc.c:532)
60==9808==    by 0x4A04798: posix_memalign (vg_replace_malloc.c:660)
61==9808==    by 0x9574A4: av_malloc (mem.c:90)
62==9808==    by 0x51793B: av_new_packet (avpacket.c:64)
63==9808==    by 0x4E9474: av_get_packet (utils.c:270)
64==9808==    by 0x4803AD: roq_read_packet (idroqdec.c:157)
65==9808==    by 0x4EA183: av_read_packet (utils.c:732)
66==9808==    by 0x4EA6C6: read_frame_internal (utils.c:1199)
67==9808==    by 0x43820A: transcode.clone.11 (ffmpeg.c:2753)
68==9808==    by 0x43CB4C: main (ffmpeg.c:4569)
69==9808==
70==9808== Invalid read of size 1
71==9808==    at 0x740591: roq_decode_frame (roqvideodec.c:89)
72==9808==    by 0x7AAAB6: avcodec_decode_video2 (utils.c:769)
73==9808==    by 0x435134: output_packet (ffmpeg.c:1627)
74==9808==    by 0x4384AC: transcode.clone.11 (ffmpeg.c:2812)
75==9808==    by 0x43CB4C: main (ffmpeg.c:4569)
76==9808==  Address 0x4eec35a is not stack'd, malloc'd or (recently) free'd
77==9808==
78==9808== Invalid read of size 1
79==9808==    at 0x740608: roq_decode_frame (roqvideodec.c:94)
80==9808==    by 0x7AAAB6: avcodec_decode_video2 (utils.c:769)
81==9808==    by 0x435134: output_packet (ffmpeg.c:1627)
82==9808==    by 0x4384AC: transcode.clone.11 (ffmpeg.c:2812)
83==9808==    by 0x43CB4C: main (ffmpeg.c:4569)
84==9808==  Address 0x4eec35b is not stack'd, malloc'd or (recently) free'd
85==9808==
86==9808== Invalid read of size 1
87==9808==    at 0x7409AD: roq_decode_frame (roqvideodec.c:107)
88==9808==    by 0x7AAAB6: avcodec_decode_video2 (utils.c:769)
89==9808==    by 0x435134: output_packet (ffmpeg.c:1627)
90==9808==    by 0x4384AC: transcode.clone.11 (ffmpeg.c:2812)
91==9808==    by 0x43CB4C: main (ffmpeg.c:4569)
92==9808==  Address 0x4eec394 is not stack'd, malloc'd or (recently) free'd
93==9808==
94==9808== Invalid read of size 1
95==9808==    at 0x7409C0: roq_decode_frame (roqvideodec.c:108)
96==9808==    by 0x7AAAB6: avcodec_decode_video2 (utils.c:769)
97==9808==    by 0x435134: output_packet (ffmpeg.c:1627)
98==9808==    by 0x4384AC: transcode.clone.11 (ffmpeg.c:2812)
99==9808==    by 0x43CB4C: main (ffmpeg.c:4569)
100==9808==  Address 0x4eec395 is not stack'd, malloc'd or (recently) free'd
101==9808==
102==9808== Invalid read of size 1
103==9808==    at 0x740AEE: roq_decode_frame (roqvideodec.c:123)
104==9808==    by 0x7AAAB6: avcodec_decode_video2 (utils.c:769)
105==9808==    by 0x435134: output_packet (ffmpeg.c:1627)
106==9808==    by 0x4384AC: transcode.clone.11 (ffmpeg.c:2812)
107==9808==    by 0x43CB4C: main (ffmpeg.c:4569)
108==9808==  Address 0x4eec3a2 is not stack'd, malloc'd or (recently) free'd
109==9808==
110==9808== Invalid read of size 1
111==9808==    at 0x7408C3: roq_decode_frame (roqvideodec.c:118)
112==9808==    by 0x7AAAB6: avcodec_decode_video2 (utils.c:769)
113==9808==    by 0x435134: output_packet (ffmpeg.c:1627)
114==9808==    by 0x4384AC: transcode.clone.11 (ffmpeg.c:2812)
115==9808==    by 0x43CB4C: main (ffmpeg.c:4569)
116==9808==  Address 0x4eec3a3 is not stack'd, malloc'd or (recently) free'd
117==9808==
118==9808== Invalid read of size 1
119==9808==    at 0x740CDA: roq_decode_frame (roqvideodec.c:107)
120==9808==    by 0x7AAAB6: avcodec_decode_video2 (utils.c:769)
121==9808==    by 0x435134: output_packet (ffmpeg.c:1627)
122==9808==    by 0x4384AC: transcode.clone.11 (ffmpeg.c:2812)
123==9808==    by 0x43CB4C: main (ffmpeg.c:4569)
124==9808==  Address 0x4eec3a4 is not stack'd, malloc'd or (recently) free'd
125==9808==
126==9808== Invalid read of size 1
127==9808==    at 0x740CE9: roq_decode_frame (roqvideodec.c:108)
128==9808==    by 0x7AAAB6: avcodec_decode_video2 (utils.c:769)
129==9808==    by 0x435134: output_packet (ffmpeg.c:1627)
130==9808==    by 0x4384AC: transcode.clone.11 (ffmpeg.c:2812)
131==9808==    by 0x43CB4C: main (ffmpeg.c:4569)
132==9808==  Address 0x4eec3a5 is not stack'd, malloc'd or (recently) free'd
133==9808==
134frame=    2 fps=  1 q=25.4 size=      30kB time=00:00:00.04 bitrate=6042.4kbits/s   
135frame=    3 fps=  1 q=31.0 size=      36kB time=00:00:00.08 bitrate=3718.4kbits/s   
136frame=    4 fps=  0 q=24.0 size=      39kB time=00:00:00.12 bitrate=2633.9kbits/s   
137frame=    5 fps=  0 q=19.0 size=      45kB time=00:00:00.16 bitrate=2324.0kbits/s   
138frame=    5 fps=  0 q=19.0 Lsize=      48kB time=00:00:00.16 bitrate=2440.2kbits/s   
139video:18kB audio:0kB global headers:0kB muxing overhead 168.360277%
140==9808==
141==9808== HEAP SUMMARY:
142==9808==     in use at exit: 528 bytes in 2 blocks
143==9808==   total heap usage: 622 allocs, 620 frees, 3,603,209 bytes allocated
144==9808==
145==9808== LEAK SUMMARY:
146==9808==    definitely lost: 528 bytes in 2 blocks
147==9808==    indirectly lost: 0 bytes in 0 blocks
148==9808==      possibly lost: 0 bytes in 0 blocks
149==9808==    still reachable: 0 bytes in 0 blocks
150==9808==         suppressed: 0 bytes in 0 blocks
151==9808== Rerun with --leak-check=full to see details of leaked memory
152==9808==
153==9808== For counts of detected and suppressed errors, rerun with: -v
154==9808== ERROR SUMMARY: 154 errors from 10 contexts (suppressed: 6 from 6)