Ticket #386: mediainfo_full.txt

File mediainfo_full.txt, 31.8 KB (added by Aztek, 5 years ago)

Output of mediainfo --Full FULLVIDEO.VOB

Line 
1General
2Count                            : 278
3Count of stream of this kind     : 1
4Kind of stream                   : General
5Kind of stream                   : General
6Stream identifier                : 0
7Count of video streams           : 1
8Count of audio streams           : 5
9Count of text streams            : 5
10Count of menu streams            : 1
11Video_Format_List                : MPEG Video
12Video_Format_WithHint_List       : MPEG Video
13Codecs Video                     : MPEG-2 Video
14Audio_Format_List                : AC-3 / AC-3 / AC-3 / AC-3 / AC-3
15Audio_Format_WithHint_List       : AC-3 / AC-3 / AC-3 / AC-3 / AC-3
16Audio codecs                     : AC3 / AC3 / AC3 / AC3 / AC3
17Text_Format_List                 : RLE / RLE / RLE / RLE / EIA-608
18Text_Format_WithHint_List        : RLE / RLE / RLE / RLE / EIA-608
19Text codecs                      : RLE / RLE / RLE / RLE /
20Menu_Format_List                 : DVD-Video
21Menu_Format_WithHint_List        : DVD-Video
22Menu codecs                      : DVD-Video
23Complete name                    : FULLVOB.vob
24File name                        : FULLVOB.vob
25File extension                   : vob
26Format                           : MPEG-PS
27Format                           : MPEG-PS
28Format/Extensions usually used   : mpeg mpg m2p vob pss
29Commercial name                  : MPEG-PS
30Internet media type              : video/MP2P
31Codec                            : MPEG-PS
32Codec                            : MPEG-PS
33Codec/Extensions usually used    : mpeg mpg m2p vob pss
34File size                        : 5118261248
35File size                        : 4.77 GiB
36File size                        : 5 GiB
37File size                        : 4.8 GiB
38File size                        : 4.77 GiB
39File size                        : 4.767 GiB
40Duration                         : 4386536
41Duration                         : 1h 13mn
42Duration                         : 1h 13mn 6s 536ms
43Duration                         : 1h 13mn
44Duration                         : 01:13:06.536
45Overall bit rate                 : 9334493
46Overall bit rate                 : 9 334 Kbps
47Stream size                      : 731943592
48Stream size                      : 698 MiB (14%)
49Stream size                      : 698 MiB
50Stream size                      : 698 MiB
51Stream size                      : 698 MiB
52Stream size                      : 698.0 MiB
53Stream size                      : 698 MiB (14%)
54Proportion of this stream        : 0.14301
55File last modification date      : UTC 2011-08-07 19:18:34
56File last modification date (loc : 2011-08-07 21:18:34
57
58Video
59Count                            : 201
60Count of stream of this kind     : 1
61Kind of stream                   : Video
62Kind of stream                   : Video
63Stream identifier                : 0
64ID                               : 224
65ID                               : 224 (0xE0)
66Format                           : MPEG Video
67Commercial name                  : MPEG-2 Video
68Format version                   : Version 2
69Format profile                   : Main@Main
70Format settings                  : BVOP
71Format settings, BVOP            : Yes
72Format settings, BVOP            : Yes
73Format settings, Matrix          : Default
74Format settings, Matrix          : Default
75Format settings, GOP             : M=3, N=15
76Internet media type              : video/MPV
77Codec                            : MPEG-2V
78Codec                            : MPEG-2 Video
79Codec/Family                     : MPEG-V
80Codec profile                    : Main@Main
81Codec settings, Matrix           : Default
82Duration                         : 4386536
83Duration                         : 1h 13mn
84Duration                         : 1h 13mn 6s 536ms
85Duration                         : 1h 13mn
86Duration                         : 01:13:06.536
87Bit rate                         : 7996737
88Bit rate                         : 7 997 Kbps
89Maximum bit rate                 : 5500000
90Maximum bit rate                 : 5 500 Kbps
91Width                            : 720
92Width                            : 720 pixels
93Height                           : 480
94Height                           : 480 pixels
95Pixel aspect ratio               : 1.185
96Display aspect ratio             : 1.778
97Display aspect ratio             : 16:9
98Frame rate                       : 29.970
99Frame rate                       : 29.970 fps
100Frame count                      : 131464
101Standard                         : NTSC
102Resolution                       : 8
103Resolution                       : 8 bits
104Colorimetry                      : 4:2:0
105Color space                      : YUV
106Chroma subsampling               : 4:2:0
107Bit depth                        : 8
108Bit depth                        : 8 bits
109Scan type                        : Interlaced
110Scan type                        : Interlaced
111Scan order                       : TFF
112Scan order                       : Top Field First
113Interlacement                    : TFF
114Interlacement                    : Top Field First
115Compression mode                 : Lossy
116Compression mode                 : Lossy
117Bits/(Pixel*Frame)               : 0.772
118Delay                            : 162.622
119Delay                            : 163ms
120Delay                            : 163ms
121Delay                            : 163ms
122Delay                            : 00:00:00.163
123Delay, origin                    : Container
124Delay, origin                    : Container
125Delay_Original                   : 3602067
126Delay_Original                   : 1h 0mn
127Delay_Original                   : 1h 0mn 2s 67ms
128Delay_Original                   : 1h 0mn
129Delay_Original                   : 01:00:02.067
130Delay_Original_Settings          : drop_frame_flag=0 / closed_gop=1 / broken_link=0
131Delay_Original_Source            : Stream
132Stream size                      : 4384746616
133Stream size                      : 4.08 GiB (86%)
134Stream size                      : 4 GiB
135Stream size                      : 4.1 GiB
136Stream size                      : 4.08 GiB
137Stream size                      : 4.084 GiB
138Stream size                      : 4.08 GiB (86%)
139Proportion of this stream        : 0.85669
140Buffer size                      : 229376
141intra_dc_precision               : 8
142
143Audio #1
144Count                            : 197
145Count of stream of this kind     : 5
146Kind of stream                   : Audio
147Kind of stream                   : Audio
148Stream identifier                : 0
149Stream identifier                : 1
150ID                               : 189-128
151ID                               : 189 (0xBD)-128 (0x80)
152Format                           : AC-3
153Format/Info                      : Audio Coding 3
154Commercial name                  : AC-3
155Mode extension                   : CM (complete main)
156Muxing mode                      : DVD-Video
157Codec                            : AC3
158Codec                            : AC3
159Duration                         : 7631
160Duration                         : 7s 631ms
161Duration                         : 7s 631ms
162Duration                         : 7s 631ms
163Duration                         : 00:00:07.631
164Bit rate mode                    : CBR
165Bit rate mode                    : Constant
166Bit rate                         : 384000
167Bit rate                         : 384 Kbps
168Channel(s)                       : 6
169Channel(s)                       : 6 channels
170Channel positions                : Front: L C R, Side: L R, LFE
171Channel positions                : 3/2/0.1
172Sampling rate                    : 48000
173Sampling rate                    : 48.0 KHz
174Samples count                    : 366288
175Frame count                      : 238
176Resolution                       : 16
177Resolution                       : 16 bits
178Bit depth                        : 16
179Bit depth                        : 16 bits
180Compression mode                 : Lossy
181Compression mode                 : Lossy
182Delay                            : 45.500
183Delay                            : 46ms
184Delay                            : 46ms
185Delay                            : 46ms
186Delay                            : 00:00:00.046
187Delay, origin                    : Container
188Delay, origin                    : Container
189Delay relative to video          : -118
190Delay relative to video          : -118ms
191Delay relative to video          : -118ms
192Delay relative to video          : -118ms
193Delay relative to video          : -00:00:00.118
194Video0 delay                     : -118
195Video0 delay                     : -118ms
196Video0 delay                     : -118ms
197Video0 delay                     : -118ms
198Video0 delay                     : -00:00:00.118
199Stream size                      : 366288
200Stream size                      : 358 KiB (0%)
201Stream size                      : 358 KiB
202Stream size                      : 358 KiB
203Stream size                      : 358 KiB
204Stream size                      : 357.7 KiB
205Stream size                      : 358 KiB (0%)
206Proportion of this stream        : 0.00007
207dialnorm                         : -27
208dialnorm/String                  : -27 dB
209compr                            : 23.80
210compr/String                     : 23.80 dB
211dynrng                           : -0.14
212dynrng/String                    : -0.14 dB
213bsid                             : 8
214dialnorm_Average                 : -27
215dialnorm_Average/String          : -27 dB
216dialnorm_Minimum                 : -27
217dialnorm_Minimum/String          : -27 dB
218dialnorm_Maximum                 : -27
219dialnorm_Maximum/String          : -27 dB
220dialnorm_Count                   : 2
221compr_Average                    : 23.80
222compr_Average/String             : 23.80 dB
223compr_Minimum                    : 23.80
224compr_Minimum/String             : 23.80 dB
225compr_Maximum                    : 23.80
226compr_Maximum/String             : 23.80 dB
227compr_Count                      : 2
228dynrng_Average                   : -0.14
229dynrng_Average/String            : -0.14 dB
230dynrng_Minimum                   : -0.14
231dynrng_Minimum/String            : -0.14 dB
232dynrng_Maximum                   : -0.14
233dynrng_Maximum/String            : -0.14 dB
234dynrng_Count                     : 2
235
236Audio #2
237Count                            : 197
238Count of stream of this kind     : 5
239Kind of stream                   : Audio
240Kind of stream                   : Audio
241Stream identifier                : 1
242Stream identifier                : 2
243ID                               : 189-129
244ID                               : 189 (0xBD)-129 (0x81)
245Format                           : AC-3
246Format/Info                      : Audio Coding 3
247Commercial name                  : AC-3
248Mode extension                   : CM (complete main)
249Muxing mode                      : DVD-Video
250Codec                            : AC3
251Codec                            : AC3
252Duration                         : 14689
253Duration                         : 14s 689ms
254Duration                         : 14s 689ms
255Duration                         : 14s 689ms
256Duration                         : 00:00:14.689
257Bit rate mode                    : CBR
258Bit rate mode                    : Constant
259Bit rate                         : 192000
260Bit rate                         : 192 Kbps
261Channel(s)                       : 1
262Channel(s)                       : 1 channel
263Channel positions                : Front: C
264Channel positions                : 1/0/0
265Sampling rate                    : 48000
266Sampling rate                    : 48.0 KHz
267Samples count                    : 705072
268Frame count                      : 459
269Resolution                       : 16
270Resolution                       : 16 bits
271Bit depth                        : 16
272Bit depth                        : 16 bits
273Compression mode                 : Lossy
274Compression mode                 : Lossy
275Delay                            : 45.500
276Delay                            : 46ms
277Delay                            : 46ms
278Delay                            : 46ms
279Delay                            : 00:00:00.046
280Delay, origin                    : Container
281Delay, origin                    : Container
282Delay relative to video          : -118
283Delay relative to video          : -118ms
284Delay relative to video          : -118ms
285Delay relative to video          : -118ms
286Delay relative to video          : -00:00:00.118
287Video0 delay                     : -118
288Video0 delay                     : -118ms
289Video0 delay                     : -118ms
290Video0 delay                     : -118ms
291Video0 delay                     : -00:00:00.118
292Stream size                      : 352536
293Stream size                      : 344 KiB (0%)
294Stream size                      : 344 KiB
295Stream size                      : 344 KiB
296Stream size                      : 344 KiB
297Stream size                      : 344.3 KiB
298Stream size                      : 344 KiB (0%)
299Proportion of this stream        : 0.00007
300dialnorm                         : -27
301dialnorm/String                  : -27 dB
302compr                            : 23.80
303compr/String                     : 23.80 dB
304dynrng                           : -18.20
305dynrng/String                    : -18.20 dB
306bsid                             : 8
307dialnorm_Average                 : -27
308dialnorm_Average/String          : -27 dB
309dialnorm_Minimum                 : -27
310dialnorm_Minimum/String          : -27 dB
311dialnorm_Maximum                 : -27
312dialnorm_Maximum/String          : -27 dB
313dialnorm_Count                   : 2
314compr_Average                    : 23.80
315compr_Average/String             : 23.80 dB
316compr_Minimum                    : 23.80
317compr_Minimum/String             : 23.80 dB
318compr_Maximum                    : 23.80
319compr_Maximum/String             : 23.80 dB
320compr_Count                      : 2
321dynrng_Average                   : -18.20
322dynrng_Average/String            : -18.20 dB
323dynrng_Minimum                   : -18.20
324dynrng_Minimum/String            : -18.20 dB
325dynrng_Maximum                   : -18.20
326dynrng_Maximum/String            : -18.20 dB
327dynrng_Count                     : 2
328
329Audio #3
330Count                            : 197
331Count of stream of this kind     : 5
332Kind of stream                   : Audio
333Kind of stream                   : Audio
334Stream identifier                : 2
335Stream identifier                : 3
336ID                               : 189-130
337ID                               : 189 (0xBD)-130 (0x82)
338Format                           : AC-3
339Format/Info                      : Audio Coding 3
340Commercial name                  : AC-3
341Mode extension                   : CM (complete main)
342Muxing mode                      : DVD-Video
343Codec                            : AC3
344Codec                            : AC3
345Duration                         : 14689
346Duration                         : 14s 689ms
347Duration                         : 14s 689ms
348Duration                         : 14s 689ms
349Duration                         : 00:00:14.689
350Bit rate mode                    : CBR
351Bit rate mode                    : Constant
352Bit rate                         : 192000
353Bit rate                         : 192 Kbps
354Channel(s)                       : 1
355Channel(s)                       : 1 channel
356Channel positions                : Front: C
357Channel positions                : 1/0/0
358Sampling rate                    : 48000
359Sampling rate                    : 48.0 KHz
360Samples count                    : 705072
361Frame count                      : 459
362Resolution                       : 16
363Resolution                       : 16 bits
364Bit depth                        : 16
365Bit depth                        : 16 bits
366Compression mode                 : Lossy
367Compression mode                 : Lossy
368Delay                            : 45.500
369Delay                            : 46ms
370Delay                            : 46ms
371Delay                            : 46ms
372Delay                            : 00:00:00.046
373Delay, origin                    : Container
374Delay, origin                    : Container
375Delay relative to video          : -118
376Delay relative to video          : -118ms
377Delay relative to video          : -118ms
378Delay relative to video          : -118ms
379Delay relative to video          : -00:00:00.118
380Video0 delay                     : -118
381Video0 delay                     : -118ms
382Video0 delay                     : -118ms
383Video0 delay                     : -118ms
384Video0 delay                     : -00:00:00.118
385Stream size                      : 352536
386Stream size                      : 344 KiB (0%)
387Stream size                      : 344 KiB
388Stream size                      : 344 KiB
389Stream size                      : 344 KiB
390Stream size                      : 344.3 KiB
391Stream size                      : 344 KiB (0%)
392Proportion of this stream        : 0.00007
393dialnorm                         : -27
394dialnorm/String                  : -27 dB
395compr                            : 23.80
396compr/String                     : 23.80 dB
397dynrng                           : -18.20
398dynrng/String                    : -18.20 dB
399bsid                             : 8
400dialnorm_Average                 : -27
401dialnorm_Average/String          : -27 dB
402dialnorm_Minimum                 : -27
403dialnorm_Minimum/String          : -27 dB
404dialnorm_Maximum                 : -27
405dialnorm_Maximum/String          : -27 dB
406dialnorm_Count                   : 2
407compr_Average                    : 23.80
408compr_Average/String             : 23.80 dB
409compr_Minimum                    : 23.80
410compr_Minimum/String             : 23.80 dB
411compr_Maximum                    : 23.80
412compr_Maximum/String             : 23.80 dB
413compr_Count                      : 2
414dynrng_Average                   : -18.20
415dynrng_Average/String            : -18.20 dB
416dynrng_Minimum                   : -18.20
417dynrng_Minimum/String            : -18.20 dB
418dynrng_Maximum                   : -18.20
419dynrng_Maximum/String            : -18.20 dB
420dynrng_Count                     : 2
421
422Audio #4
423Count                            : 197
424Count of stream of this kind     : 5
425Kind of stream                   : Audio
426Kind of stream                   : Audio
427Stream identifier                : 3
428Stream identifier                : 4
429ID                               : 189-131
430ID                               : 189 (0xBD)-131 (0x83)
431Format                           : AC-3
432Format/Info                      : Audio Coding 3
433Commercial name                  : AC-3
434Mode extension                   : CM (complete main)
435Muxing mode                      : DVD-Video
436Codec                            : AC3
437Codec                            : AC3
438Duration                         : 14689
439Duration                         : 14s 689ms
440Duration                         : 14s 689ms
441Duration                         : 14s 689ms
442Duration                         : 00:00:14.689
443Bit rate mode                    : CBR
444Bit rate mode                    : Constant
445Bit rate                         : 192000
446Bit rate                         : 192 Kbps
447Channel(s)                       : 1
448Channel(s)                       : 1 channel
449Channel positions                : Front: C
450Channel positions                : 1/0/0
451Sampling rate                    : 48000
452Sampling rate                    : 48.0 KHz
453Samples count                    : 705072
454Frame count                      : 459
455Resolution                       : 16
456Resolution                       : 16 bits
457Bit depth                        : 16
458Bit depth                        : 16 bits
459Compression mode                 : Lossy
460Compression mode                 : Lossy
461Delay                            : 45.500
462Delay                            : 46ms
463Delay                            : 46ms
464Delay                            : 46ms
465Delay                            : 00:00:00.046
466Delay, origin                    : Container
467Delay, origin                    : Container
468Delay relative to video          : -118
469Delay relative to video          : -118ms
470Delay relative to video          : -118ms
471Delay relative to video          : -118ms
472Delay relative to video          : -00:00:00.118
473Video0 delay                     : -118
474Video0 delay                     : -118ms
475Video0 delay                     : -118ms
476Video0 delay                     : -118ms
477Video0 delay                     : -00:00:00.118
478Stream size                      : 352536
479Stream size                      : 344 KiB (0%)
480Stream size                      : 344 KiB
481Stream size                      : 344 KiB
482Stream size                      : 344 KiB
483Stream size                      : 344.3 KiB
484Stream size                      : 344 KiB (0%)
485Proportion of this stream        : 0.00007
486dialnorm                         : -27
487dialnorm/String                  : -27 dB
488compr                            : 23.80
489compr/String                     : 23.80 dB
490dynrng                           : -18.20
491dynrng/String                    : -18.20 dB
492bsid                             : 8
493dialnorm_Average                 : -27
494dialnorm_Average/String          : -27 dB
495dialnorm_Minimum                 : -27
496dialnorm_Minimum/String          : -27 dB
497dialnorm_Maximum                 : -27
498dialnorm_Maximum/String          : -27 dB
499dialnorm_Count                   : 2
500compr_Average                    : 23.80
501compr_Average/String             : 23.80 dB
502compr_Minimum                    : 23.80
503compr_Minimum/String             : 23.80 dB
504compr_Maximum                    : 23.80
505compr_Maximum/String             : 23.80 dB
506compr_Count                      : 2
507dynrng_Average                   : -18.20
508dynrng_Average/String            : -18.20 dB
509dynrng_Minimum                   : -18.20
510dynrng_Minimum/String            : -18.20 dB
511dynrng_Maximum                   : -18.20
512dynrng_Maximum/String            : -18.20 dB
513dynrng_Count                     : 2
514
515Audio #5
516Count                            : 199
517Count of stream of this kind     : 5
518Kind of stream                   : Audio
519Kind of stream                   : Audio
520Stream identifier                : 4
521Stream identifier                : 5
522ID                               : 189-132
523ID                               : 189 (0xBD)-132 (0x84)
524Format                           : AC-3
525Format/Info                      : Audio Coding 3
526Commercial name                  : AC-3
527Format profile                   : Dolby Digital
528Mode extension                   : CM (complete main)
529Muxing mode                      : DVD-Video
530Codec                            : AC3
531Codec                            : AC3
532Codec profile                    : Dolby Digital
533Duration                         : 6131
534Duration                         : 6s 131ms
535Duration                         : 6s 131ms
536Duration                         : 6s 131ms
537Duration                         : 00:00:06.131
538Bit rate mode                    : CBR
539Bit rate mode                    : Constant
540Bit rate                         : 192000
541Bit rate                         : 192 Kbps
542Channel(s)                       : 2
543Channel(s)                       : 2 channels
544Channel positions                : Front: L R
545Channel positions                : 2/0/0
546Sampling rate                    : 48000
547Sampling rate                    : 48.0 KHz
548Samples count                    : 294288
549Frame count                      : 192
550Resolution                       : 16
551Resolution                       : 16 bits
552Bit depth                        : 16
553Bit depth                        : 16 bits
554Compression mode                 : Lossy
555Compression mode                 : Lossy
556Delay                            : 45.578
557Delay                            : 46ms
558Delay                            : 46ms
559Delay                            : 46ms
560Delay                            : 00:00:00.046
561Delay, origin                    : Container
562Delay, origin                    : Container
563Delay relative to video          : -117
564Delay relative to video          : -117ms
565Delay relative to video          : -117ms
566Delay relative to video          : -117ms
567Delay relative to video          : -00:00:00.117
568Video0 delay                     : -117
569Video0 delay                     : -117ms
570Video0 delay                     : -117ms
571Video0 delay                     : -117ms
572Video0 delay                     : -00:00:00.117
573Stream size                      : 147144
574Stream size                      : 144 KiB (0%)
575Stream size                      : 144 KiB
576Stream size                      : 144 KiB
577Stream size                      : 144 KiB
578Stream size                      : 143.7 KiB
579Stream size                      : 144 KiB (0%)
580Proportion of this stream        : 0.00003
581dsurmod                          : 2
582dsurmod/String                   : Dolby Surround encoded
583dialnorm                         : -27
584dialnorm/String                  : -27 dB
585compr                            : 5.46
586compr/String                     : 5.46 dB
587dynrng                           : -8.16
588dynrng/String                    : -8.16 dB
589bsid                             : 8
590dialnorm_Average                 : -27
591dialnorm_Average/String          : -27 dB
592dialnorm_Minimum                 : -27
593dialnorm_Minimum/String          : -27 dB
594dialnorm_Maximum                 : -27
595dialnorm_Maximum/String          : -27 dB
596dialnorm_Count                   : 2
597compr_Average                    : 5.46
598compr_Average/String             : 5.46 dB
599compr_Minimum                    : 5.46
600compr_Minimum/String             : 5.46 dB
601compr_Maximum                    : 5.46
602compr_Maximum/String             : 5.46 dB
603compr_Count                      : 2
604dynrng_Average                   : -10.73
605dynrng_Average/String            : -10.73 dB
606dynrng_Minimum                   : -17.79
607dynrng_Minimum/String            : -17.79 dB
608dynrng_Maximum                   : -8.16
609dynrng_Maximum/String            : -8.16 dB
610dynrng_Count                     : 2
611
612Text #1
613Count                            : 135
614Count of stream of this kind     : 5
615Kind of stream                   : Text
616Kind of stream                   : Text
617Stream identifier                : 0
618Stream identifier                : 1
619ID                               : 189-32
620ID                               : 189 (0xBD)-32 (0x20)
621Format                           : RLE
622Format/Info                      : Run-length encoding
623Commercial name                  : RLE
624Muxing mode                      : DVD-Video
625Codec                            : RLE
626Codec                            : RLE
627Delay                            : 45.500
628Delay                            : 46ms
629Delay                            : 46ms
630Delay                            : 46ms
631Delay                            : 00:00:00.046
632Delay, origin                    : Container
633Delay, origin                    : Container
634Delay relative to video          : -118
635Delay relative to video          : -118ms
636Delay relative to video          : -118ms
637Delay relative to video          : -118ms
638Delay relative to video          : -00:00:00.118
639Video0 delay                     : -118
640Video0 delay                     : -118ms
641Video0 delay                     : -118ms
642Video0 delay                     : -118ms
643Video0 delay                     : -00:00:00.118
644
645Text #2
646Count                            : 135
647Count of stream of this kind     : 5
648Kind of stream                   : Text
649Kind of stream                   : Text
650Stream identifier                : 1
651Stream identifier                : 2
652ID                               : 189-34
653ID                               : 189 (0xBD)-34 (0x22)
654Format                           : RLE
655Format/Info                      : Run-length encoding
656Commercial name                  : RLE
657Muxing mode                      : DVD-Video
658Codec                            : RLE
659Codec                            : RLE
660Delay                            : 45.500
661Delay                            : 46ms
662Delay                            : 46ms
663Delay                            : 46ms
664Delay                            : 00:00:00.046
665Delay, origin                    : Container
666Delay, origin                    : Container
667Delay relative to video          : -118
668Delay relative to video          : -118ms
669Delay relative to video          : -118ms
670Delay relative to video          : -118ms
671Delay relative to video          : -00:00:00.118
672Video0 delay                     : -118
673Video0 delay                     : -118ms
674Video0 delay                     : -118ms
675Video0 delay                     : -118ms
676Video0 delay                     : -00:00:00.118
677
678Text #3
679Count                            : 135
680Count of stream of this kind     : 5
681Kind of stream                   : Text
682Kind of stream                   : Text
683Stream identifier                : 2
684Stream identifier                : 3
685ID                               : 189-36
686ID                               : 189 (0xBD)-36 (0x24)
687Format                           : RLE
688Format/Info                      : Run-length encoding
689Commercial name                  : RLE
690Muxing mode                      : DVD-Video
691Codec                            : RLE
692Codec                            : RLE
693Delay                            : 45.500
694Delay                            : 46ms
695Delay                            : 46ms
696Delay                            : 46ms
697Delay                            : 00:00:00.046
698Delay, origin                    : Container
699Delay, origin                    : Container
700Delay relative to video          : -118
701Delay relative to video          : -118ms
702Delay relative to video          : -118ms
703Delay relative to video          : -118ms
704Delay relative to video          : -00:00:00.118
705Video0 delay                     : -118
706Video0 delay                     : -118ms
707Video0 delay                     : -118ms
708Video0 delay                     : -118ms
709Video0 delay                     : -00:00:00.118
710
711Text #4
712Count                            : 135
713Count of stream of this kind     : 5
714Kind of stream                   : Text
715Kind of stream                   : Text
716Stream identifier                : 3
717Stream identifier                : 4
718ID                               : 189-38
719ID                               : 189 (0xBD)-38 (0x26)
720Format                           : RLE
721Format/Info                      : Run-length encoding
722Commercial name                  : RLE
723Muxing mode                      : DVD-Video
724Codec                            : RLE
725Codec                            : RLE
726Delay                            : 45.500
727Delay                            : 46ms
728Delay                            : 46ms
729Delay                            : 46ms
730Delay                            : 00:00:00.046
731Delay, origin                    : Container
732Delay, origin                    : Container
733Delay relative to video          : -118
734Delay relative to video          : -118ms
735Delay relative to video          : -118ms
736Delay relative to video          : -118ms
737Delay relative to video          : -00:00:00.118
738Video0 delay                     : -118
739Video0 delay                     : -118ms
740Video0 delay                     : -118ms
741Video0 delay                     : -118ms
742Video0 delay                     : -00:00:00.118
743
744Text #5
745Count                            : 135
746Count of stream of this kind     : 5
747Kind of stream                   : Text
748Kind of stream                   : Text
749Stream identifier                : 4
750Stream identifier                : 5
751ID                               : 224-DVD-2
752ID                               : 224 (0xE0)-DVD-2
753Format                           : EIA-608
754Commercial name                  : EIA-608
755Muxing mode                      : DVD-Video
756Muxing mode, more info           : Muxed in Video #1
757Delay                            : 162.622
758Delay                            : 163ms
759Delay                            : 163ms
760Delay                            : 163ms
761Delay                            : 00:00:00.163
762Delay relative to video          : 0
763Video0 delay                     : 0
764Stream size                      : 0
765Stream size                      : 0.00 Byte (0%)
766Stream size                      :  Byte0
767Stream size                      : 0.0 Byte
768Stream size                      : 0.00 Byte
769Stream size                      : 0.000 Byte
770Stream size                      : 0.00 Byte (0%)
771Proportion of this stream        : 0.00000
772
773Menu
774Count                            : 72
775Count of stream of this kind     : 1
776Kind of stream                   : Menu
777Kind of stream                   : Menu
778Stream identifier                : 0
779Format                           : DVD-Video
780Commercial name                  : DVD-Video
781Codec                            : DVD-Video
782Codec                            : DVD-Video
783
784