Ticket #3483: console.txt

File console.txt, 16.1 KB (added by sdx, 5 years ago)
Line 
1ble-libopencore-amrnb --enable-libopencore-amrwb --enable-libopenjpeg --enable-l
2ibopus --enable-librtmp --enable-libschroedinger --enable-libsoxr --enable-libsp
3eex --enable-libtheora --enable-libtwolame --enable-libvidstab --enable-libvo-aa
4cenc --enable-libvo-amrwbenc --enable-libvorbis --enable-libvpx --enable-libwavp
5ack --enable-libx264 --enable-libxavs --enable-libxvid --enable-zlib
6  libavutil      52. 63.100 / 52. 63.100
7  libavcodec     55. 49.101 / 55. 49.101
8  libavformat    55. 28.101 / 55. 28.101
9  libavdevice    55.  7.100 / 55.  7.100
10  libavfilter     4.  1.101 /  4.  1.101
11  libswscale      2.  5.101 /  2.  5.101
12  libswresample   0. 17.104 /  0. 17.104
13  libpostproc    52.  3.100 / 52.  3.100
14[mpegts @ 044659c0] PES packet size mismatch
15    Last message repeated 2 times
16[hls,applehttp @ 04465400] Estimating duration from bitrate, this may be inaccur
17ate
18Input #0, hls,applehttp, from 'http://10.5.5.9:8080/live/amba.m3u8':
19  Duration: 00:00:00.02, start: 1189.760000, bitrate: 130 kb/s
20  Program 0
21    Metadata:
22      variant_bitrate : 0
23    Stream #0:0: Video: h264 (High) (HDMV / 0x564D4448), yuvj420p(pc, bt709), 43
242x240 [SAR 1:1 DAR 9:5], 25 fps, 25 tbr, 90k tbn, 50 tbc
25    Stream #0:1: Audio: aac ([15][0][0][0] / 0x000F), 48000 Hz, stereo, fltp, 13
260 kb/s
27File 'test.mp4' already exists. Overwrite ? [y/N] y
28[swscaler @ 04497140] deprecated pixel format used, make sure you did set range
29correctly
30No pixel format specified, yuvj420p for H.264 encoding chosen.
31Use -pix_fmt yuv420p for compatibility with outdated media players.
32[libx264 @ 04f45560] using SAR=27/20
33[libx264 @ 04f45560] using cpu capabilities: MMX2 SSE2Fast SSSE3 SSE4.2 AVX
34[libx264 @ 04f45560] profile High, level 2.1
35[libx264 @ 04f45560] 264 - core 142 r2389 956c8d8 - H.264/MPEG-4 AVC codec - Cop
36yleft 2003-2014 - http://www.videolan.org/x264.html - options: cabac=1 ref=3 deb
37lock=1:0:0 analyse=0x3:0x113 me=hex subme=7 psy=1 psy_rd=1.00:0.00 mixed_ref=1 m
38e_range=16 chroma_me=1 trellis=1 8x8dct=1 cqm=0 deadzone=21,11 fast_pskip=1 chro
39ma_qp_offset=-2 threads=6 lookahead_threads=1 sliced_threads=0 nr=0 decimate=1 i
40nterlaced=0 bluray_compat=0 constrained_intra=0 bframes=3 b_pyramid=2 b_adapt=1
41b_bias=0 direct=1 weightb=1 open_gop=0 weightp=2 keyint=250 keyint_min=25 scenec
42ut=40 intra_refresh=0 rc_lookahead=40 rc=abr mbtree=1 bitrate=300 ratetol=1.0 qc
43omp=0.60 qpmin=0 qpmax=69 qpstep=4 ip_ratio=1.40 aq=1:1.00
44Output #0, flv, to 'test.mp4':
45  Metadata:
46    encoder         : Lavf55.28.101
47    Stream #0:0: Video: h264 (libx264) ([7][0][0][0] / 0x0007), yuvj420p, 400x30
480 [SAR 27:20 DAR 9:5], q=-1--1, 300 kb/s, 1k tbn, 25 tbc
49Stream mapping:
50  Stream #0:0 -> #0:0 (h264 -> libx264)
51Press [q] to stop, [?] for help
52skipping 1 segments ahead, expired from playlists
53[mpegts @ 044659c0] PES packet size mismatch
54    Last message repeated 2 times
55[mpegts @ 044659c0] PES packet size mismatchme=00:00:00.00 bitrate=N/A
56    Last message repeated 2 times
57frame=   70 fps= 70 q=30.0 size=      22kB time=00:00:00.72 bitrate= 252.1kbits/
58[mpegts @ 044659c0] PES packet size mismatch
59    Last message repeated 2 times
60frame=   90 fps= 56 q=25.0 size=      45kB time=00:00:01.84 bitrate= 199.0kbits/
61[mpegts @ 044659c0] PES packet size mismatch
62    Last message repeated 2 times
63frame=  114 fps= 54 q=24.0 size=      73kB time=00:00:02.80 bitrate= 212.3kbits/
64[mpegts @ 044659c0] PES packet size mismatch
65    Last message repeated 1 times
66frame=  133 fps= 51 q=23.0 size=     102kB time=00:00:03.56 bitrate= 235.2kbits/
67[mpegts @ 044659c0] PES packet size mismatch
68    Last message repeated 1 times
69frame=  146 fps= 42 q=23.0 size=     114kB time=00:00:04.08 bitrate= 229.2kbits/
70[mpegts @ 044659c0] PES packet size mismatch
71    Last message repeated 2 times
72frame=  170 fps= 37 q=23.0 size=     156kB time=00:00:05.04 bitrate= 253.8kbits/
73[mpegts @ 044659c0] PES packet size mismatch
74    Last message repeated 2 times
75frame=  194 fps= 37 q=23.0 size=     192kB time=00:00:06.00 bitrate= 261.8kbits/
76[mpegts @ 044659c0] PES packet size mismatch
77frame=  202 fps= 35 q=23.0 size=     205kB time=00:00:06.32 bitrate= 266.3kbits/
78[mpegts @ 044659c0] PES packet size mismatch
79    Last message repeated 2 times
80frame=  226 fps= 34 q=22.0 size=     229kB time=00:00:07.28 bitrate= 258.0kbits/
81[mpegts @ 044659c0] PES packet size mismatch
82    Last message repeated 2 times
83frame=  250 fps= 32 q=22.0 size=     262kB time=00:00:08.24 bitrate= 260.6kbits/
84[mpegts @ 044659c0] PES packet size mismatch
85    Last message repeated 2 times
86frame=  274 fps= 33 q=22.0 size=     307kB time=00:00:09.20 bitrate= 273.6kbits/
87[mpegts @ 044659c0] PES packet size mismatch
88frame=  289 fps= 32 q=22.0 size=     333kB time=00:00:09.80 bitrate= 278.3kbits/
89[mpegts @ 044659c0] PES packet size mismatch
90    Last message repeated 2 times
91frame=  306 fps= 31 q=24.0 size=     379kB time=00:00:10.48 bitrate= 296.3kbits/
92[mpegts @ 044659c0] PES packet size mismatch
93    Last message repeated 2 times
94frame=  330 fps= 30 q=23.0 size=     406kB time=00:00:11.44 bitrate= 290.8kbits/
95[mpegts @ 044659c0] PES packet size mismatch
96    Last message repeated 2 times
97frame=  354 fps= 29 q=23.0 size=     440kB time=00:00:12.40 bitrate= 290.9kbits/
98[mpegts @ 044659c0] PES packet size mismatch
99    Last message repeated 2 times
100frame=  378 fps= 30 q=23.0 size=     476kB time=00:00:13.36 bitrate= 291.6kbits/
101[mpegts @ 044659c0] PES packet size mismatch
102frame=  386 fps= 29 q=23.0 size=     494kB time=00:00:13.68 bitrate= 295.8kbits/
103[mpegts @ 044659c0] PES packet size mismatch
104    Last message repeated 2 times
105frame=  410 fps= 29 q=23.0 size=     517kB time=00:00:14.64 bitrate= 289.1kbits/
106[mpegts @ 044659c0] PES packet size mismatch
107    Last message repeated 2 times
108frame=  434 fps= 29 q=23.0 size=     554kB time=00:00:15.60 bitrate= 290.9kbits/
109[mpegts @ 044659c0] PES packet size mismatch
110frame=  442 fps= 29 q=23.0 size=     564kB time=00:00:15.92 bitrate= 290.2kbits/
111[mpegts @ 044659c0] PES packet size mismatch
112    Last message repeated 1 times
113frame=  465 fps= 29 q=23.0 size=     607kB time=00:00:16.84 bitrate= 295.3kbits/
114[mpegts @ 044659c0] PES packet size mismatch
115frame=  466 fps= 28 q=23.0 size=     607kB time=00:00:16.88 bitrate= 294.7kbits/
116[mpegts @ 044659c0] PES packet size mismatch
117    Last message repeated 2 times
118frame=  490 fps= 28 q=23.0 size=     641kB time=00:00:17.84 bitrate= 294.2kbits/
119[mpegts @ 044659c0] PES packet size mismatch
120    Last message repeated 2 times
121frame=  514 fps= 28 q=22.0 size=     671kB time=00:00:18.80 bitrate= 292.5kbits/
122[mpegts @ 044659c0] PES packet size mismatch
123frame=  522 fps= 28 q=22.0 size=     682kB time=00:00:19.12 bitrate= 292.4kbits/
124[mpegts @ 044659c0] PES packet size mismatch
125    Last message repeated 2 times
126frame=  546 fps= 28 q=20.0 size=     708kB time=00:00:20.08 bitrate= 288.6kbits/
127[mpegts @ 044659c0] PES packet size mismatch
128    Last message repeated 2 times
129frame=  570 fps= 28 q=24.0 size=     787kB time=00:00:21.04 bitrate= 306.5kbits/
130[mpegts @ 044659c0] PES packet size mismatch
131frame=  578 fps= 28 q=23.0 size=     790kB time=00:00:21.36 bitrate= 303.1kbits/
132[mpegts @ 044659c0] PES packet size mismatch
133    Last message repeated 2 times
134frame=  602 fps= 28 q=23.0 size=     821kB time=00:00:22.32 bitrate= 301.5kbits/
135[mpegts @ 044659c0] PES packet size mismatch
136    Last message repeated 2 times
137frame=  626 fps= 28 q=23.0 size=     854kB time=00:00:23.28 bitrate= 300.4kbits/
138[mpegts @ 044659c0] PES packet size mismatch
139frame=  634 fps= 28 q=23.0 size=     865kB time=00:00:23.60 bitrate= 300.3kbits/
140[mpegts @ 044659c0] PES packet size mismatch
141    Last message repeated 2 times
142frame=  658 fps= 27 q=23.0 size=     904kB time=00:00:24.56 bitrate= 301.4kbits/
143[mpegts @ 044659c0] PES packet size mismatch
144    Last message repeated 2 times
145frame=  682 fps= 27 q=23.0 size=     940kB time=00:00:25.52 bitrate= 301.8kbits/
146[mpegts @ 044659c0] PES packet size mismatch
147    Last message repeated 2 times
148frame=  706 fps= 27 q=23.0 size=     986kB time=00:00:26.48 bitrate= 305.0kbits/
149[mpegts @ 044659c0] PES packet size mismatch
150    Last message repeated 2 times
151frame=  730 fps= 27 q=23.0 size=    1016kB time=00:00:27.44 bitrate= 303.2kbits/
152[mpegts @ 044659c0] PES packet size mismatch
153frame=  738 fps= 27 q=23.0 size=    1026kB time=00:00:27.76 bitrate= 302.7kbits/
154[mpegts @ 044659c0] PES packet size mismatch
155    Last message repeated 2 times
156frame=  762 fps= 27 q=23.0 size=    1062kB time=00:00:28.72 bitrate= 302.8kbits/
157[mpegts @ 044659c0] PES packet size mismatch
158    Last message repeated 2 times
159frame=  786 fps= 27 q=23.0 size=    1087kB time=00:00:29.68 bitrate= 300.1kbits/
160[mpegts @ 044659c0] PES packet size mismatch
161frame=  794 fps= 27 q=23.0 size=    1098kB time=00:00:30.00 bitrate= 299.9kbits/
162[mpegts @ 044659c0] PES packet size mismatch
163    Last message repeated 2 times
164frame=  818 fps= 27 q=24.0 size=    1171kB time=00:00:30.96 bitrate= 310.0kbits/
165[mpegts @ 044659c0] PES packet size mismatch
166    Last message repeated 2 times
167frame=  843 fps= 27 q=24.0 size=    1202kB time=00:00:31.96 bitrate= 308.1kbits/
168[mpegts @ 044659c0] PES packet size mismatch
169    Last message repeated 2 times
170frame=  866 fps= 27 q=24.0 size=    1242kB time=00:00:32.88 bitrate= 309.5kbits/
171[mpegts @ 044659c0] PES packet size mismatch
172frame=  881 fps= 27 q=24.0 size=    1271kB time=00:00:33.48 bitrate= 310.9kbits/
173[mpegts @ 044659c0] PES packet size mismatch
174    Last message repeated 2 times
175frame=  898 fps= 27 q=24.0 size=    1300kB time=00:00:34.16 bitrate= 311.8kbits/
176[mpegts @ 044659c0] PES packet size mismatch
177    Last message repeated 2 times
178frame=  922 fps= 27 q=24.0 size=    1345kB time=00:00:35.12 bitrate= 313.7kbits/
179[mpegts @ 044659c0] PES packet size mismatch
180    Last message repeated 2 times
181frame=  946 fps= 27 q=25.0 size=    1386kB time=00:00:36.08 bitrate= 314.6kbits/
182[mpegts @ 044659c0] PES packet size mismatch
183    Last message repeated 2 times
184frame=  970 fps= 27 q=25.0 size=    1425kB time=00:00:37.04 bitrate= 315.2kbits/
185[mpegts @ 044659c0] PES packet size mismatch
186frame=  982 fps= 27 q=25.0 size=    1444kB time=00:00:37.52 bitrate= 315.4kbits/
187[mpegts @ 044659c0] PES packet size mismatch
188    Last message repeated 2 times
189frame= 1002 fps= 26 q=25.0 size=    1480kB time=00:00:38.32 bitrate= 316.4kbits/
190[mpegts @ 044659c0] PES packet size mismatch
191    Last message repeated 2 times
192frame= 1026 fps= 27 q=25.0 size=    1516kB time=00:00:39.28 bitrate= 316.2kbits/
193[mpegts @ 044659c0] PES packet size mismatch
194    Last message repeated 1 times
195frame= 1042 fps= 27 q=25.0 size=    1537kB time=00:00:39.92 bitrate= 315.4kbits/
196[mpegts @ 044659c0] PES packet size mismatch
197    Last message repeated 1 times
198frame= 1058 fps= 26 q=25.0 size=    1580kB time=00:00:40.56 bitrate= 319.1kbits/
199[mpegts @ 044659c0] PES packet size mismatch
200    Last message repeated 2 times
201frame= 1082 fps= 26 q=25.0 size=    1600kB time=00:00:41.52 bitrate= 315.8kbits/
202[mpegts @ 044659c0] PES packet size mismatch
203    Last message repeated 2 times
204frame= 1106 fps= 27 q=25.0 size=    1621kB time=00:00:42.48 bitrate= 312.7kbits/
205[mpegts @ 044659c0] PES packet size mismatch
206frame= 1114 fps= 26 q=25.0 size=    1629kB time=00:00:42.80 bitrate= 311.7kbits/
207[mpegts @ 044659c0] PES packet size mismatch
208    Last message repeated 2 times
209frame= 1138 fps= 26 q=24.0 size=    1652kB time=00:00:43.76 bitrate= 309.2kbits/
210[mpegts @ 044659c0] PES packet size mismatch
211    Last message repeated 2 times
212frame= 1162 fps= 26 q=24.0 size=    1675kB time=00:00:44.72 bitrate= 306.9kbits/
213[mpegts @ 044659c0] PES packet size mismatch
214    Last message repeated 2 times
215frame= 1186 fps= 26 q=24.0 size=    1712kB time=00:00:45.68 bitrate= 307.0kbits/
216[mpegts @ 044659c0] PES packet size mismatch
217frame= 1199 fps= 26 q=24.0 size=    1725kB time=00:00:46.20 bitrate= 305.8kbits/
218[mpegts @ 044659c0] PES packet size mismatch
219    Last message repeated 2 times
220frame= 1218 fps= 26 q=24.0 size=    1749kB time=00:00:46.96 bitrate= 305.1kbits/
221[mpegts @ 044659c0] PES packet size mismatch
222    Last message repeated 2 times
223frame= 1242 fps= 26 q=24.0 size=    1784kB time=00:00:47.92 bitrate= 305.0kbits/
224[mpegts @ 044659c0] PES packet size mismatch
225frame= 1250 fps= 26 q=24.0 size=    1796kB time=00:00:48.24 bitrate= 305.0kbits/
226[mpegts @ 044659c0] PES packet size mismatch
227    Last message repeated 2 times
228frame= 1274 fps= 26 q=24.0 size=    1837kB time=00:00:49.20 bitrate= 305.8kbits/
229[mpegts @ 044659c0] PES packet size mismatch
230    Last message repeated 2 times
231frame= 1298 fps= 26 q=24.0 size=    1862kB time=00:00:50.16 bitrate= 304.1kbits/
232[mpegts @ 044659c0] PES packet size mismatch
233frame= 1306 fps= 26 q=24.0 size=    1906kB time=00:00:50.48 bitrate= 309.3kbits/
234[mpegts @ 044659c0] PES packet size mismatch
235    Last message repeated 2 times
236frame= 1330 fps= 26 q=24.0 size=    1938kB time=00:00:51.44 bitrate= 308.6kbits/
237[mpegts @ 044659c0] PES packet size mismatch
238    Last message repeated 2 times
239frame= 1354 fps= 26 q=24.0 size=    1970kB time=00:00:52.40 bitrate= 308.0kbits/
240[mpegts @ 044659c0] PES packet size mismatch
241    Last message repeated 2 times
242frame= 1378 fps= 26 q=24.0 size=    2003kB time=00:00:53.36 bitrate= 307.5kbits/
243[mpegts @ 044659c0] PES packet size mismatch
244frame= 1386 fps= 26 q=24.0 size=    2013kB time=00:00:53.68 bitrate= 307.2kbits/
245[mpegts @ 044659c0] PES packet size mismatch
246    Last message repeated 2 times
247frame= 1410 fps= 26 q=24.0 size=    2044kB time=00:00:54.64 bitrate= 306.4kbits/
248[mpegts @ 044659c0] PES packet size mismatch
249    Last message repeated 2 times
250frame= 1434 fps= 26 q=24.0 size=    2079kB time=00:00:55.60 bitrate= 306.3kbits/
251[mpegts @ 044659c0] PES packet size mismatch
252    Last message repeated 2 times
253frame= 1459 fps= 26 q=24.0 size=    2111kB time=00:00:56.60 bitrate= 305.5kbits/
254[mpegts @ 044659c0] PES packet size mismatch
255frame= 1470 fps= 26 q=24.0 size=    2123kB time=00:00:57.04 bitrate= 304.9kbits/
256[mpegts @ 044659c0] PES packet size mismatch
257    Last message repeated 2 times
258frame= 1490 fps= 26 q=24.0 size=    2149kB time=00:00:57.84 bitrate= 304.4kbits/
259[mpegts @ 044659c0] PES packet size mismatch
260    Last message repeated 2 times
261frame= 1514 fps= 26 q=23.0 size=    2168kB time=00:00:58.80 bitrate= 302.1kbits/
262[mpegts @ 044659c0] PES packet size mismatch
263frame= 1522 fps= 26 q=23.0 size=    2177kB time=00:00:59.12 bitrate= 301.6kbits/
264[mpegts @ 044659c0] PES packet size mismatch
265    Last message repeated 2 times
266frame= 1546 fps= 26 q=21.0 size=    2218kB time=00:01:00.08 bitrate= 302.4kbits/
267[mpegts @ 044659c0] PES packet size mismatch
268    Last message repeated 2 times
269frame= 1570 fps= 26 q=24.0 size=    2279kB time=00:01:01.04 bitrate= 305.8kbits/
270[mpegts @ 044659c0] PES packet size mismatch
271frame= 1578 fps= 26 q=-1.0 Lsize=    2321kB time=00:01:03.36 bitrate= 300.1kbits
272/s
273video:2290kB audio:0kB subtitle:0 data:0 global headers:0kB muxing overhead 1.35
2746638%
275[libx264 @ 04f45560] frame I:7     Avg QP:14.81  size: 32595
276[libx264 @ 04f45560] frame P:600   Avg QP:16.60  size:  3250
277[libx264 @ 04f45560] frame B:971   Avg QP:20.35  size:   171
278[libx264 @ 04f45560] consecutive B-frames: 17.6%  0.3%  2.9% 79.3%
279[libx264 @ 04f45560] mb I  I16..4:  4.1% 34.7% 61.2%
280[libx264 @ 04f45560] mb P  I16..4:  0.1%  0.2%  0.0%  P16..4: 32.1%  5.9%  7.1%
281 0.0%  0.0%    skip:54.6%
282[libx264 @ 04f45560] mb B  I16..4:  0.0%  0.0%  0.0%  B16..8:  7.9%  0.5%  0.2%
283 direct: 0.6%  skip:90.7%  L0:44.6% L1:48.9% BI: 6.4%
284[libx264 @ 04f45560] final ratefactor: 18.18
285[libx264 @ 04f45560] 8x8 transform intra:42.0% inter:41.4%
286[libx264 @ 04f45560] coded y,uvDC,uvAC intra: 87.9% 76.9% 65.3% inter: 10.0% 11.
2872% 2.6%
288[libx264 @ 04f45560] i16 v,h,dc,p: 16% 19% 10% 55%
289[libx264 @ 04f45560] i8 v,h,dc,ddl,ddr,vr,hd,vl,hu: 32% 17% 26%  3%  4%  4%  6%
290 4%  5%
291[libx264 @ 04f45560] i4 v,h,dc,ddl,ddr,vr,hd,vl,hu: 31% 17% 10%  5%  8%  7%  9%
292 7%  7%
293[libx264 @ 04f45560] i8c dc,h,v,p: 52% 20% 22%  6%
294[libx264 @ 04f45560] Weighted P-Frames: Y:0.2% UV:0.0%
295[libx264 @ 04f45560] ref P L0: 82.2%  5.1%  9.3%  3.5%  0.0%
296[libx264 @ 04f45560] ref B L0: 91.3%  7.6%  1.1%
297[libx264 @ 04f45560] ref B L1: 95.6%  4.4%
298[libx264 @ 04f45560] kb/s:295.64