Ticket #3480: ffmpeg-20140320-104457.log

File ffmpeg-20140320-104457.log, 7.7 KB (added by abalan, 5 years ago)

Using -vn flag for same command line as above.

Line 
1ffmpeg started on 2014-03-20 at 10:44:57
2Report written to "ffmpeg-20140320-104457.log"
3Command line:
4ffmpeg -v 9 -loglevel 99 -report -vsync 1 -i Wildlife.wmv -c:v rawvideo -pix_fmt uyvy422 -c:a pcm_s16le -s 1920x1080 -r 30000/1001 -ar 48000 -vn -f decklink "DeckLink 4K Extreme"
5ffmpeg version git-2014-03-19-074db4b Copyright (c) 2000-2014 the FFmpeg developers
6  built on Mar 19 2014 10:22:58 with gcc 4.8 (Ubuntu 4.8.1-2ubuntu1~12.04)
7  configuration: --bindir=/usr/local/bin --enable-gpl --enable-version3 --enable-nonfree --enable-postproc --enable-libfdk-aac --enable-libmp3lame --enable-libtheora --enable-decklink --enable-libvorbis --enable-libvpx --enable-libx264 --extra-libs=-ldl --enable-gpl --enable-libass --enable-x11grab --enable-shared --prefix=/usr/local --extra-cflags=-I/home/dvrp/Downloads/Blackmagic_DeckLink_SDK_9.7.7/Linux/include --extra-ldflags=-L/home/dvrp/Downloads/Blackmagic_DeckLink_SDK_9.7.7/Linux/include
8  libavutil      52. 67.100 / 52. 67.100
9  libavcodec     55. 52.102 / 55. 52.102
10  libavformat    55. 34.101 / 55. 34.101
11  libavdevice    55. 11.100 / 55. 11.100
12  libavfilter     4.  3.100 /  4.  3.100
13  libswscale      2.  5.102 /  2.  5.102
14  libswresample   0. 18.100 /  0. 18.100
15  libpostproc    52.  3.100 / 52.  3.100
16Splitting the commandline.
17Reading option '-v' ... matched as option 'v' (set logging level) with argument '9'.
18Reading option '-loglevel' ... matched as option 'loglevel' (set logging level) with argument '99'.
19Reading option '-report' ... matched as option 'report' (generate a report) with argument '1'.
20Reading option '-vsync' ... matched as option 'vsync' (video sync method) with argument '1'.
21Reading option '-i' ... matched as input file with argument 'Wildlife.wmv'.
22Reading option '-c:v' ... matched as option 'c' (codec name) with argument 'rawvideo'.
23Reading option '-pix_fmt' ... matched as option 'pix_fmt' (set pixel format) with argument 'uyvy422'.
24Reading option '-c:a' ... matched as option 'c' (codec name) with argument 'pcm_s16le'.
25Reading option '-s' ... matched as option 's' (set frame size (WxH or abbreviation)) with argument '1920x1080'.
26Reading option '-r' ... matched as option 'r' (set frame rate (Hz value, fraction or abbreviation)) with argument '30000/1001'.
27Reading option '-ar' ... matched as option 'ar' (set audio sampling rate (in Hz)) with argument '48000'.
28Reading option '-vn' ... matched as option 'vn' (disable video) with argument '1'.
29Reading option '-f' ... matched as option 'f' (force format) with argument 'decklink'.
30Reading option 'DeckLink 4K Extreme' ... matched as output file.
31Finished splitting the commandline.
32Parsing a group of options: global .
33Applying option v (set logging level) with argument 9.
34Applying option loglevel (set logging level) with argument 99.
35Applying option report (generate a report) with argument 1.
36Applying option vsync (video sync method) with argument 1.
37Successfully parsed a group of options.
38Parsing a group of options: input file Wildlife.wmv.
39Successfully parsed a group of options.
40Opening an input file: Wildlife.wmv.
41[asf @ 0x14694a0] Format asf probed with size=2048 and score=100
42[asf @ 0x14694a0] gpos mismatch our pos=24, end=26
43[asf @ 0x14694a0] gpos mismatch our pos=24, end=3850
44[asf @ 0x14694a0] Payload extension 50 2
45[asf @ 0x14694a0] gpos mismatch our pos=24, end=38
46[asf @ 0x14694a0] gpos mismatch our pos=24, end=278
47[asf @ 0x14694a0] gpos mismatch our pos=24, end=38
48[asf @ 0x14694a0] Before avformat_find_stream_info() pos: 5730 bytes read:32768 seeks:0
49[asf @ 0x14694a0] parser not found for codec wmav2, packets or times may be invalid.
50[vc1 @ 0x146b0c0] Header: DBFE27F1
51[vc1 @ 0x146b0c0] Advanced Profile level 3:
52frmrtq_postproc=7, bitrtq_postproc=31
53LoopFilter=0, ChromaFormat=1, Pulldown=1, Interlace: 0
54TFCTRflag=0, FINTERPflag=0
55[vc1 @ 0x146b0c0] Entry point: 10C49FC5
56[vc1 @ 0x146b0c0] Entry point info:
57BrokenLink=0, ClosedEntry=0, PanscanFlag=0
58RefDist=1, Postproc=0, FastUVMC=0, ExtMV=0
59DQuant=1, VSTransform=1, Overlap=0, Qmode=0
60[asf @ 0x14694a0] parser not found for codec wmav2, packets or times may be invalid.
61[asf @ 0x14694a0] Probe buffer size limit of 5000000 bytes reached
62rfps: 29.916667 0.003519
63rfps: 29.916667 0.003519
64rfps: 30.000000 0.001150
65rfps: 30.083333 0.015527
66rfps: 59.833333 0.014077
67rfps: 59.833333 0.014077
68rfps: 59.916667 0.000967
69rfps: 59.916667 0.000967
70rfps: 60.000000 0.004602
71rfps: 29.970030 0.000074
72rfps: 29.970030 0.016798
73rfps: 59.940060 0.000297
74rfps: 59.940060 0.016509
75[asf @ 0x14694a0] After avformat_find_stream_info() pos: 5031531 bytes read:5046272 seeks:0 frames:117
76Guessed Channel Layout for  Input Stream #0.0 : stereo
77Input #0, asf, from 'Wildlife.wmv':
78  Metadata:
79    SfOriginalFPS   : 299700
80    WMFSDKVersion   : 11.0.6001.7000
81    WMFSDKNeeded    : 0.0.0.0000
82    comment         : Footage: Small World Productions, Inc; Tourism New Zealand | Producer: Gary F. Spradling | Music: Steve Ball
83    title           : Wildlife in HD
84    copyright       : © 2008 Microsoft Corporation
85    IsVBR           : 0
86    DeviceConformanceTemplate: AP@L3
87  Duration: 00:00:30.09, start: 0.000000, bitrate: 6977 kb/s
88    Stream #0:0(eng), 2, 1/1000: Audio: wmav2 (a[1][0][0] / 0x0161), 44100 Hz, stereo, fltp, 192 kb/s
89    Stream #0:1(eng), 115, 1/1000: Video: vc1 (Advanced) (WVC1 / 0x31435657), yuv420p, 1280x720, 1/1000, 5942 kb/s, 29.97 tbr, 1k tbn, 1k tbc
90Successfully opened the file.
91Parsing a group of options: output file DeckLink 4K Extreme.
92Applying option c:v (codec name) with argument rawvideo.
93Applying option pix_fmt (set pixel format) with argument uyvy422.
94Applying option c:a (codec name) with argument pcm_s16le.
95Applying option s (set frame size (WxH or abbreviation)) with argument 1920x1080.
96Applying option r (set frame rate (Hz value, fraction or abbreviation)) with argument 30000/1001.
97Applying option ar (set audio sampling rate (in Hz)) with argument 48000.
98Applying option vn (disable video) with argument 1.
99Applying option f (force format) with argument decklink.
100Successfully parsed a group of options.
101Opening an output file: DeckLink 4K Extreme.
102Successfully opened the file.
103detected 8 logical cores
104[graph 0 input from stream 0:0 @ 0x148efa0] Setting 'time_base' to value '1/44100'
105[graph 0 input from stream 0:0 @ 0x148efa0] Setting 'sample_rate' to value '44100'
106[graph 0 input from stream 0:0 @ 0x148efa0] Setting 'sample_fmt' to value 'fltp'
107[graph 0 input from stream 0:0 @ 0x148efa0] Setting 'channel_layout' to value '0x3'
108[graph 0 input from stream 0:0 @ 0x148efa0] tb:1/44100 samplefmt:fltp samplerate:44100 chlayout:0x3
109[audio format for output stream 0:0 @ 0x148f6e0] Setting 'sample_fmts' to value 's16'
110[audio format for output stream 0:0 @ 0x148f6e0] Setting 'sample_rates' to value '48000'
111[audio format for output stream 0:0 @ 0x148f6e0] auto-inserting filter 'auto-inserted resampler 0' between the filter 'Parsed_anull_0' and the filter 'audio format for output stream 0:0'
112[AVFilterGraph @ 0x145a2c0] query_formats: 4 queried, 6 merged, 3 already done, 0 delayed
113[auto-inserted resampler 0 @ 0x1491b60] ch:2 chl:stereo fmt:fltp r:44100Hz -> ch:2 chl:stereo fmt:s16 r:48000Hz
114Output #0, decklink, to 'DeckLink 4K Extreme':
115  Metadata:
116    SfOriginalFPS   : 299700
117    WMFSDKVersion   : 11.0.6001.7000
118    WMFSDKNeeded    : 0.0.0.0000
119    comment         : Footage: Small World Productions, Inc; Tourism New Zealand | Producer: Gary F. Spradling | Music: Steve Ball
120    title           : Wildlife in HD
121    copyright       : © 2008 Microsoft Corporation
122    IsVBR           : 0
123    DeviceConformanceTemplate: AP@L3
124    encoder         : Lavf55.34.101
125    Stream #0:0(eng), 0, 1/48000: Audio: pcm_s16le, 48000 Hz, stereo, s16, 1536 kb/s
126Stream mapping:
127  Stream #0:0 -> #0:0 (wmav2 -> pcm_s16le)
128Press [q] to stop, [?] for help
129[AVIOContext @ 0x1471c60] Statistics: 5570560 bytes read, 14 seeks
130Received signal 2: terminating.