Ticket #2918: MP4_to_HLS_using_MPEGTS_pipe.log

File MP4_to_HLS_using_MPEGTS_pipe.log, 46.3 KB (added by nealzebub, 6 years ago)

Report from attempting to go from MP4 to HLS, using MPEG-TS pipe

Line 
1ffmpeg started on 2013-08-30 at 11:05:41
2Report written to "ffmpeg-20130830-110541.log"
3Command line:
4./ffmpeg -report -i /mnt/hgfs/source_media/transmuxme.mp4 -sn -codec copy -bsf:v h264_mp4toannexb -f mpegts pipe:1
5ffmpeg version N-55797-g535d9a9 Copyright (c) 2000-2013 the FFmpeg developers
6  built on Aug 27 2013 05:50:31 with gcc 4.6 (Debian 4.6.3-1)
7  configuration: --prefix=/root/ffmpeg-static/64bit --extra-cflags='-I/root/ffmpeg-static/64bit/include -static' --extra-ldflags='-L/root/ffmpeg-static/64bit/lib -static' --extra-libs='-lxml2 -lexpat -lfreetype' --enable-static --disable-shared --disable-ffserver --disable-doc --enable-bzlib --enable-zlib --enable-postproc --enable-runtime-cpudetect --enable-libx264 --enable-gpl --enable-libtheora --enable-libvorbis --enable-libmp3lame --enable-gray --enable-libass --enable-libfreetype --enable-libopenjpeg --enable-libspeex --enable-libvo-aacenc --enable-libvo-amrwbenc --enable-version3 --enable-libvpx
8  libavutil      52. 42.100 / 52. 42.100
9  libavcodec     55. 29.100 / 55. 29.100
10  libavformat    55. 14.102 / 55. 14.102
11  libavdevice    55.  3.100 / 55.  3.100
12  libavfilter     3. 82.102 /  3. 82.102
13  libswscale      2.  5.100 /  2.  5.100
14  libswresample   0. 17.103 /  0. 17.103
15  libpostproc    52.  3.100 / 52.  3.100
16Splitting the commandline.
17Reading option '-report' ... matched as option 'report' (generate a report) with argument '1'.
18Reading option '-i' ... matched as input file with argument '/mnt/hgfs/source_media/transmuxme.mp4'.
19Reading option '-sn' ... matched as option 'sn' (disable subtitle) with argument '1'.
20Reading option '-codec' ... matched as option 'codec' (codec name) with argument 'copy'.
21Reading option '-bsf:v' ... matched as option 'bsf' (A comma-separated list of bitstream filters) with argument 'h264_mp4toannexb'.
22Reading option '-f' ... matched as option 'f' (force format) with argument 'mpegts'.
23Reading option 'pipe:1' ... matched as output file.
24Finished splitting the commandline.
25Parsing a group of options: global .
26Applying option report (generate a report) with argument 1.
27Successfully parsed a group of options.
28Parsing a group of options: input file /mnt/hgfs/source_media/transmuxme.mp4.
29Successfully parsed a group of options.
30Opening an input file: /mnt/hgfs/source_media/transmuxme.mp4.
31[mov,mp4,m4a,3gp,3g2,mj2 @ 0x3737c40] Format mov,mp4,m4a,3gp,3g2,mj2 probed with size=2048 and score=100
32[mov,mp4,m4a,3gp,3g2,mj2 @ 0x3737c40] ISO: F[mpegts @ 0x3c88e20] stream=0 stream_type=1b pid=100 prog_reg_desc=
33[mpegts @ 0x3c88e20] stream=1 stream_type=f pid=101 prog_reg_desc=
34[mpegts @ 0x3c88e20] File position before avformat_find_stream_info() is 0
35[h264 @ 0x3c8d140] Current profile doesn't provide more RBSP data in PPS, skipping
36[aac @ 0x3c8db40] skip whole frame, skip left: 0
37[mpegts @ 0x3c88e20] first_dts 126000 not matching first dts 210253 in the queue
38[mpegts @ 0x3c88e20] first_dts 126000 not matching first dts 190784 in the queue
39[mpegts @ 0x3c88e20] first_dts 126000 not matching first dts 190784 in the queue
40[mpegts @ 0x3c88e20] first_dts 126000 not matching first dts 190784 in the queue
41[mpegts @ 0x3c88e20] first_dts 126000 not matching first dts 190784 in the queue
42[mpegts @ 0x3c88e20] first_dts 126000 not matching first dts 190784 in the queue
43[mpegts @ 0x3c88e20] first_dts 126000 not matching first dts 190784 in the queue
44[mpegts @ 0x3c88e20] first_dts 126000 not matching first dts 190784 in the queue
45[mpegts @ 0x3c88e20] first_dts 126000 not matching first dts 190784 in the queue
46[mpegts @ 0x3c88e20] first_dts 126000 not matching first dts 190784 in the queue
47[mpegts @ 0x3c88e20] first_dts 126000 not matching first dts 190784 in the queue
48[mpegts @ 0x3c88e20] first_dts 126000 not matching first dts 190784 in the queue
49[mpegts @ 0x3c88e20] first_dts 126000 not matching first dts 190784 in the queue
50[h264 @ 0x3c8d140] Current profile doesn't provide more RBSP data in PPS, skipping
51[h264 @ 0x3c8d140] Current profile doesn't provide more RBSP data in PPS, skipping
52[mpegts @ 0x3c88e20] first_dts 126000 not matching first dts 217951 in the queue
53[mpegts @ 0x3c88e20] first_dts 126000 not matching first dts 217951 in the queue
54[mpegts @ 0x3c88e20] first_dts 126000 not matching first dts 217951 in the queue
55[mpegts @ 0x3c88e20] first_dts 126000 not matching first dts 217951 in the queue
56[mpegts @ 0x3c88e20] first_dts 126000 not matching first dts 217951 in the queue
57[mpegts @ 0x3c88e20] first_dts 126000 not matching first dts 217951 in the queue
58[mpegts @ 0x3c88e20] first_dts 126000 not matching first dts 217951 in the queue
59[mpegts @ 0x3c88e20] first_dts 126000 not matching first dts 217951 in the queue
60[mpegts @ 0x3c88e20] first_dts 126000 not matching first dts 217951 in the queue
61[mpegts @ 0x3c88e20] first_dts 126000 not matching first dts 217951 in the queue
62[mpegts @ 0x3c88e20] first_dts 126000 not matching first dts 240939 in the queue
63[mpegts @ 0x3c88e20] first_dts 126000 not matching first dts 240939 in the queue
64[mpegts @ 0x3c88e20] first_dts 126000 not matching first dts 240939 in the queue
65[mpegts @ 0x3c88e20] first_dts 126000 not matching first dts 240939 in the queue
66[mpegts @ 0x3c88e20] first_dts 126000 not matching first dts 240939 in the queue
67[mpegts @ 0x3c88e20] first_dts 126000 not matching first dts 240939 in the queue
68[mpegts @ 0x3c88e20] first_dts 126000 not matching first dts 240939 in the queue
69[mpegts @ 0x3c88e20] first_dts 126000 not matching first dts 240939 in the queue
70[mpegts @ 0x3c88e20] first_dts 126000 not matching first dts 240939 in the queue
71[mpegts @ 0x3c88e20] first_dts 126000 not matching first dts 261837 in the queue
72[mpegts @ 0x3c88e20] first_dts 126000 not matching first dts 261837 in the queue
73[mpegts @ 0x3c88e20] first_dts 126000 not matching first dts 261837 in the queue
74[mpegts @ 0x3c88e20] first_dts 126000 not matching first dts 261837 in the queue
75[mpegts @ 0x3c88e20] first_dts 126000 not matching first dts 261837 in the queue
76[mpegts @ 0x3c88e20] first_dts 126000 not matching first dts 261837 in the queue
77[mpegts @ 0x3c88e20] first_dts 126000 not matching first dts 261837 in the queue
78[mpegts @ 0x3c88e20] first_dts 126000 not matching first dts 261837 in the queue
79[mpegts @ 0x3c88e20] first_dts 126000 not matching first dts 261837 in the queue
80[mpegts @ 0x3c88e20] first_dts 126000 not matching first dts 261837 in the queue
81[mpegts @ 0x3c88e20] first_dts 126000 not matching first dts 261837 in the queue
82[mpegts @ 0x3c88e20] first_dts 126000 not matching first dts 300524 in the queue
83[h264 @ 0x3c8d140] Current profile doesn't provide more RBSP data in PPS, skipping
84[h264 @ 0x3c8d140] Current profile doesn't provide more RBSP data in PPS, skipping
85[mpegts @ 0x3c88e20] first_dts 126000 not matching first dts 286914 in the queue
86[mpegts @ 0x3c88e20] first_dts 126000 not matching first dts 286914 in the queue
87[mpegts @ 0x3c88e20] first_dts 126000 not matching first dts 286914 in the queue
88[mpegts @ 0x3c88e20] first_dts 126000 not matching first dts 286914 in the queue
89[mpegts @ 0x3c88e20] first_dts 126000 not matching first dts 286914 in the queue
90[mpegts @ 0x3c88e20] first_dts 126000 not matching first dts 286914 in the queue
91[mpegts @ 0x3c88e20] first_dts 126000 not matching first dts 286914 in the queue
92[mpegts @ 0x3c88e20] first_dts 126000 not matching first dts 286914 in the queue
93[mpegts @ 0x3c88e20] first_dts 126000 not matching first dts 286914 in the queue
94[mpegts @ 0x3c88e20] first_dts 126000 not matching first dts 286914 in the queue
95[mpegts @ 0x3c88e20] first_dts 126000 not matching first dts 286914 in the queue
96[mpegts @ 0x3c88e20] first_dts 126000 not matching first dts 286914 in the queue
97[mpegts @ 0x3c88e20] first_dts 126000 not matching first dts 286914 in the queue
98[mpegts @ 0x3c88e20] first_dts 126000 not matching first dts 286914 in the queue
99[mpegts @ 0x3c88e20] first_dts 126000 not matching first dts 286914 in the queue
100[mpegts @ 0x3c88e20] first_dts 126000 not matching first dts 286914 in the queue
101[mpegts @ 0x3c88e20] first_dts 126000 not matching first dts 286914 in the queue
102[mpegts @ 0x3c88e20] first_dts 126000 not matching first dts 324531 in the queue
103[mpegts @ 0x3c88e20] first_dts 126000 not matching first dts 324531 in the queue
104[mpegts @ 0x3c88e20] first_dts 126000 not matching first dts 324531 in the queue
105[mpegts @ 0x3c88e20] first_dts 126000 not matching first dts 324531 in the queue
106[mpegts @ 0x3c88e20] first_dts 126000 not matching first dts 324531 in the queue
107[mpegts @ 0x3c88e20] first_dts 126000 not matching first dts 324531 in the queue
108[mpegts @ 0x3c88e20] first_dts 126000 not matching first dts 324531 in the queue
109[mpegts @ 0x3c88e20] first_dts 126000 not matching first dts 324531 in the queue
110[mpegts @ 0x3c88e20] first_dts 126000 not matching first dts 324531 in the queue
111[mpegts @ 0x3c88e20] first_dts 126000 not matching first dts 324531 in the queue
112[mpegts @ 0x3c88e20] first_dts 126000 not matching first dts 324531 in the queue
113[mpegts @ 0x3c88e20] first_dts 126000 not matching first dts 324531 in the queue
114[mpegts @ 0x3c88e20] first_dts 126000 not matching first dts 324531 in the queue
115[mpegts @ 0x3c88e20] first_dts 126000 not matching first dts 324531 in the queue
116[mpegts @ 0x3c88e20] first_dts 126000 not matching first dts 324531 in the queue
117[mpegts @ 0x3c88e20] first_dts 126000 not matching first dts 324531 in the queue
118[mpegts @ 0x3c88e20] first_dts 126000 not matching first dts 324531 in the queue
119[mpegts @ 0x3c88e20] first_dts 126000 not matching first dts 324531 in the queue
120[mpegts @ 0x3c88e20] first_dts 126000 not matching first dts 324531 in the queue
121[mpegts @ 0x3c88e20] first_dts 126000 not matching first dts 390794 in the queue
122[h264 @ 0x3c8d140] Current profile doesn't provide more RBSP data in PPS, skipping
123[h264 @ 0x3c8d140] Current profile doesn't provide more RBSP data in PPS, skipping
124[mpegts @ 0x3c88e20] first_dts 126000 not matching first dts 366327 in the queue
125[mpegts @ 0x3c88e20] first_dts 126000 not matching first dts 366327 in the queue
126[mpegts @ 0x3c88e20] first_dts 126000 not matching first dts 366327 in the queue
127[mpegts @ 0x3c88e20] first_dts 126000 not matching first dts 366327 in the queue
128[mpegts @ 0x3c88e20] first_dts 126000 not matching first dts 366327 in the queue
129[mpegts @ 0x3c88e20] first_dts 126000 not matching first dts 366327 in the queue
130[mpegts @ 0x3c88e20] first_dts 126000 not matching first dts 366327 in the queue
131[mpegts @ 0x3c88e20] first_dts 126000 not matching first dts 366327 in the queue
132[mpegts @ 0x3c88e20] first_dts 126000 not matching first dts 366327 in the queue
133[mpegts @ 0x3c88e20] first_dts 126000 not matching first dts 366327 in the queue
134[mpegts @ 0x3c88e20] first_dts 126000 not matching first dts 366327 in the queue
135[mpegts @ 0x3c88e20] first_dts 126000 not matching first dts 366327 in the queue
136[mpegts @ 0x3c88e20] first_dts 126000 not matching first dts 366327 in the queue
137[mpegts @ 0x3c88e20] first_dts 126000 not matching first dts 366327 in the queue
138[mpegts @ 0x3c88e20] first_dts 126000 not matching first dts 366327 in the queue
139[mpegts @ 0x3c88e20] first_dts 126000 not matching first dts 366327 in the queue
140[mpegts @ 0x3c88e20] first_dts 126000 not matching first dts 366327 in the queue
141[mpegts @ 0x3c88e20] first_dts 126000 not matching first dts 366327 in the queue
142[mpegts @ 0x3c88e20] first_dts 126000 not matching first dts 366327 in the queue
143[mpegts @ 0x3c88e20] first_dts 126000 not matching first dts 408122 in the queue
144[mpegts @ 0x3c88e20] first_dts 126000 not matching first dts 408122 in the queue
145[mpegts @ 0x3c88e20] first_dts 126000 not matching first dts 408122 in the queue
146[mpegts @ 0x3c88e20] first_dts 126000 not matching first dts 408122 in the queue
147[mpegts @ 0x3c88e20] first_dts 126000 not matching first dts 408122 in the queue
148[mpegts @ 0x3c88e20] first_dts 126000 not matching first dts 408122 in the queue
149[mpegts @ 0x3c88e20] first_dts 126000 not matching first dts 408122 in the queue
150[mpegts @ 0x3c88e20] first_dts 126000 not matching first dts 408122 in the queue
151[mpegts @ 0x3c88e20] first_dts 126000 not matching first dts 408122 in the queue
152[mpegts @ 0x3c88e20] first_dts 126000 not matching first dts 408122 in the queue
153[mpegts @ 0x3c88e20] first_dts 126000 not matching first dts 408122 in the queue
154[mpegts @ 0x3c88e20] first_dts 126000 not matching first dts 408122 in the queue
155[mpegts @ 0x3c88e20] first_dts 126000 not matching first dts 408122 in the queue
156[mpegts @ 0x3c88e20] first_dts 126000 not matching first dts 408122 in the queue
157[mpegts @ 0x3c88e20] first_dts 126000 not matching first dts 408122 in the queue
158[mpegts @ 0x3c88e20] first_dts 126000 not matching first dts 408122 in the queue
159[mpegts @ 0x3c88e20] first_dts 126000 not matching first dts 408122 in the queue
160[mpegts @ 0x3c88e20] first_dts 126000 not matching first dts 408122 in the queue
161[mpegts @ 0x3c88e20] first_dts 126000 not matching first dts 408122 in the queue
162[mpegts @ 0x3c88e20] first_dts 126000 not matching first dts 408122 in the queue
163[mpegts @ 0x3c88e20] first_dts 126000 not matching first dts 481065 in the queue
164[h264 @ 0x3c8d140] Current profile doesn't provide more RBSP data in PPS, skipping
165[h264 @ 0x3c8d140] Current profile doesn't provide more RBSP data in PPS, skipping
166[mpegts @ 0x3c88e20] first_dts 126000 not matching first dts 452008 in the queue
167[mpegts @ 0x3c88e20] first_dts 126000 not matching first dts 452008 in the queue
168[mpegts @ 0x3c88e20] first_dts 126000 not matching first dts 452008 in the queue
169[mpegts @ 0x3c88e20] first_dts 126000 not matching first dts 452008 in the queue
170[mpegts @ 0x3c88e20] first_dts 126000 not matching first dts 452008 in the queue
171[mpegts @ 0x3c88e20] first_dts 126000 not matching first dts 452008 in the queue
172[mpegts @ 0x3c88e20] first_dts 126000 not matching first dts 452008 in the queue
173[mpegts @ 0x3c88e20] first_dts 126000 not matching first dts 452008 in the queue
174[mpegts @ 0x3c88e20] first_dts 126000 not matching first dts 452008 in the queue
175[mpegts @ 0x3c88e20] first_dts 126000 not matching first dts 452008 in the queue
176[mpegts @ 0x3c88e20] first_dts 126000 not matching first dts 452008 in the queue
177[mpegts @ 0x3c88e20] first_dts 126000 not matching first dts 452008 in the queue
178[mpegts @ 0x3c88e20] first_dts 126000 not matching first dts 452008 in the queue
179[mpegts @ 0x3c88e20] first_dts 126000 not matching first dts 452008 in the queue
180[mpegts @ 0x3c88e20] first_dts 126000 not matching first dts 452008 in the queue
181[mpegts @ 0x3c88e20] first_dts 126000 not matching first dts 452008 in the queue
182[mpegts @ 0x3c88e20] first_dts 126000 not matching first dts 452008 in the queue
183[mpegts @ 0x3c88e20] first_dts 126000 not matching first dts 452008 in the queue
184[mpegts @ 0x3c88e20] first_dts 126000 not matching first dts 452008 in the queue
185[mpegts @ 0x3c88e20] first_dts 126000 not matching first dts 452008 in the queue
186[mpegts @ 0x3c88e20] first_dts 126000 not matching first dts 495894 in the queue
187[mpegts @ 0x3c88e20] first_dts 126000 not matching first dts 495894 in the queue
188[mpegts @ 0x3c88e20] first_dts 126000 not matching first dts 495894 in the queue
189[mpegts @ 0x3c88e20] first_dts 126000 not matching first dts 495894 in the queue
190[mpegts @ 0x3c88e20] first_dts 126000 not matching first dts 495894 in the queue
191[mpegts @ 0x3c88e20] first_dts 126000 not matching first dts 495894 in the queue
192[mpegts @ 0x3c88e20] first_dts 126000 not matching first dts 495894 in the queue
193[mpegts @ 0x3c88e20] first_dts 126000 not matching first dts 495894 in the queue
194[mpegts @ 0x3c88e20] first_dts 126000 not matching first dts 495894 in the queue
195[mpegts @ 0x3c88e20] first_dts 126000 not matching first dts 495894 in the queue
196[mpegts @ 0x3c88e20] first_dts 126000 not matching first dts 495894 in the queue
197[mpegts @ 0x3c88e20] first_dts 126000 not matching first dts 495894 in the queue
198[mpegts @ 0x3c88e20] first_dts 126000 not matching first dts 495894 in the queue
199[mpegts @ 0x3c88e20] first_dts 126000 not matching first dts 495894 in the queue
200[mpegts @ 0x3c88e20] first_dts 126000 not matching first dts 495894 in the queue
201[mpegts @ 0x3c88e20] first_dts 126000 not matching first dts 495894 in the queue
202[mpegts @ 0x3c88e20] first_dts 126000 not matching first dts 495894 in the queue
203[mpegts @ 0x3c88e20] first_dts 126000 not matching first dts 495894 in the queue
204[mpegts @ 0x3c88e20] first_dts 126000 not matching first dts 495894 in the queue
205[mpegts @ 0x3c88e20] first_dts 126000 not matching first dts 495894 in the queue
206[mpegts @ 0x3c88e20] first_dts 126000 not matching first dts 571336 in the queue
207[h264 @ 0x3c8d140] Current profile doesn't provide more RBSP data in PPS, skipping
208[h264 @ 0x3c8d140] Current profile doesn't provide more RBSP data in PPS, skipping
209[mpegts @ 0x3c88e20] first_dts 126000 not matching first dts 539780 in the queue
210[mpegts @ 0x3c88e20] first_dts 126000 not matching first dts 539780 in the queue
211[mpegts @ 0x3c88e20] first_dts 126000 not matching first dts 539780 in the queue
212[mpegts @ 0x3c88e20] first_dts 126000 not matching first dts 539780 in the queue
213[mpegts @ 0x3c88e20] first_dts 126000 not matching first dts 539780 in the queue
214[mpegts @ 0x3c88e20] first_dts 126000 not matching first dts 539780 in the queue
215[mpegts @ 0x3c88e20] first_dts 126000 not matching first dts 539780 in the queue
216[mpegts @ 0x3c88e20] first_dts 126000 not matching first dts 539780 in the queue
217[mpegts @ 0x3c88e20] first_dts 126000 not matching first dts 539780 in the queue
218[mpegts @ 0x3c88e20] first_dts 126000 not matching first dts 539780 in the queue
219[mpegts @ 0x3c88e20] first_dts 126000 not matching first dts 539780 in the queue
220[mpegts @ 0x3c88e20] first_dts 126000 not matching first dts 539780 in the queue
221[mpegts @ 0x3c88e20] first_dts 126000 not matching first dts 539780 in the queue
222[mpegts @ 0x3c88e20] first_dts 126000 not matching first dts 539780 in the queue
223[mpegts @ 0x3c88e20] first_dts 126000 not matching first dts 539780 in the queue
224[mpegts @ 0x3c88e20] first_dts 126000 not matching first dts 539780 in the queue
225[mpegts @ 0x3c88e20] first_dts 126000 not matching first dts 539780 in the queue
226[mpegts @ 0x3c88e20] first_dts 126000 not matching first dts 539780 in the queue
227[mpegts @ 0x3c88e20] first_dts 126000 not matching first dts 539780 in the queue
228[mpegts @ 0x3c88e20] first_dts 126000 not matching first dts 539780 in the queue
229[mpegts @ 0x3c88e20] first_dts 126000 not matching first dts 539780 in the queue
230[mpegts @ 0x3c88e20] max_analyze_duration 5000000 reached at 5015000 microseconds
231rfps: 29.833333 0.012458
232rfps: 29.916667 0.000094
233rfps: 29.916667 0.000094
234rfps: 30.000000 0.017174
235rfps: 30.000000 0.017174
236rfps: 59.750000 0.010383
237rfps: 59.833333 0.000378
238rfps: 59.833333 0.000378
239rfps: 59.916667 0.019816
240rfps: 29.970030 0.007641
241[mpegts @ 0x3c88e20] File position after avformat_find_stream_info() is 257560
242Input #0, mpegts, from 'pipe:0':
243  Duration: N/A, start: 1.400000, bitrate: 37 kb/s
244  Program 1
245    Metadata:
246      service_name    : Service01
247      service_provider: FFmpeg
248    Stream #0:0[0x100], 152, 1/90000: Video: h264 (Constrained Baseline) ([27][0][0][0] / 0x001B), yuv420p, 400x224, 29.92 fps, 29.92 tbr, 90k tbn, 59.82 tbc
249    Stream #0:1[0x101](und), 220, 1/90000: Audio: aac ([15][0][0][0] / 0x000F), 44100 Hz, mono, fltp, 37 kb/s
250Successfully opened the file.
251Parsing a group of options: output file segmentName_%04d.ts.
252Applying option codec (codec name) with argument copy.
253Applying option map (set input stream mapping) with argument 0.
254Applying option f (force format) with argument ssegment.
255Successfully parsed a group of options.
256Opening an output file: segmentName_%04d.ts.
257Successfully opened the file.
258[stream_segment,ssegment @ 0x3d51b20] Selected stream id:0 type:video
259[mpegts @ 0x3d8a2c0] muxrate VBR, pcr every 2 pkts, sdt every 200, pat/pmt every 40 pkts
260Output #0, stream_segment,ssegment, to 'segmentName_%04d.ts':
261  Metadata:
262    encoder         : Lavf55.14.102
263    Stream #0:0, 0, 1/90000: Video: h264 ([27][0][0][0] / 0x001B), yuv420p, 400x224, q=2-31, 29.92 fps, 90k tbn, 29.91 tbc
264    Stream #0:1(und), 0, 1/90000: Audio: aac ([15][0][0][0] / 0x000F), 44100 Hz, mono, 37 kb/s
265Stream mapping:
266  Stream #0:0 -> #0:0 (copy)
267  Stream #0:1 -> #0:1 (copy)
268[stream_segment,ssegment @ 0x3d51b20] segment:'segmentName_0000.ts' starts with packet stream:0 pts:0 pts_time:0 frame:0
269[stream_segment,ssegment @ 0x3d51b20] stream:0 start_pts_time:0 pts:0 pts_time:0 dts:0 dts_time:0 -> pts:900000 pts_time:10 dts:900000 dts_time:10
270[stream_segment,ssegment @ 0x3d51b20] stream:1 start_pts_time:0 pts:0 pts_time:0 dts:0 dts_time:0 -> pts:900000 pts_time:10 dts:900000 dts_time:10
271[stream_segment,ssegment @ 0x3d51b20] stream:1 start_pts_time:0 pts:2089 pts_time:0.0232111 dts:2089 dts_time:0.0232111 -> pts:902089 pts_time:10.0232 dts:902089 dts_time:10.0232
272[stream_segment,ssegment @ 0x3d51b20] stream:0 start_pts_time:0 pts:3009 pts_time:0.0334333 dts:3009 dts_time:0.0334333 -> pts:903009 pts_time:10.0334 dts:903009 dts_time:10.0334
273[stream_segment,ssegment @ 0x3d51b20] stream:1 start_pts_time:0 pts:4178 pts_time:0.0464222 dts:4178 dts_time:0.0464222 -> pts:904178 pts_time:10.0464 dts:904178 dts_time:10.0464
274[stream_segment,ssegment @ 0x3d51b20] stream:0 start_pts_time:0 pts:6018 pts_time:0.0668667 dts:6018 dts_time:0.0668667 -> pts:906018 pts_time:10.0669 dts:906018 dts_time:10.0669
275[stream_segment,ssegment @ 0x3d51b20] stream:1 start_pts_time:0 pts:6267 pts_time:0.0696333 dts:6267 dts_time:0.0696333 -> pts:906267 pts_time:10.0696 dts:906267 dts_time:10.0696
276[stream_segment,ssegment @ 0x3d51b20] stream:1 start_pts_time:0 pts:8356 pts_time:0.0928444 dts:8356 dts_time:0.0928444 -> pts:908356 pts_time:10.0928 dts:908356 dts_time:10.0928
277[stream_segment,ssegment @ 0x3d51b20] stream:0 start_pts_time:0 pts:9027 pts_time:0.1003 dts:9027 dts_time:0.1003 -> pts:909027 pts_time:10.1003 dts:909027 dts_time:10.1003
278[stream_segment,ssegment @ 0x3d51b20] stream:1 start_pts_time:0 pts:10445 pts_time:0.116056 dts:10445 dts_time:0.116056 -> pts:910445 pts_time:10.1161 dts:910445 dts_time:10.1161
279[stream_segment,ssegment @ 0x3d51b20] stream:0 start_pts_time:0 pts:12036 pts_time:0.133733 dts:12036 dts_time:0.133733 -> pts:912036 pts_time:10.1337 dts:912036 dts_time:10.1337
280[stream_segment,ssegment @ 0x3d51b20] stream:1 start_pts_time:0 pts:12534 pts_time:0.139267 dts:12534 dts_time:0.139267 -> pts:912534 pts_time:10.1393 dts:912534 dts_time:10.1393
281[stream_segment,ssegment @ 0x3d51b20] stream:1 start_pts_time:0 pts:14623 pts_time:0.162478 dts:14623 dts_time:0.162478 -> pts:914623 pts_time:10.1625 dts:914623 dts_time:10.1625
282[stream_segment,ssegment @ 0x3d51b20] stream:0 start_pts_time:0 pts:15045 pts_time:0.167167 dts:15045 dts_time:0.167167 -> pts:915045 pts_time:10.1672 dts:915045 dts_time:10.1672
283[stream_segment,ssegment @ 0x3d51b20] stream:1 start_pts_time:0 pts:16712 pts_time:0.185689 dts:16712 dts_time:0.185689 -> pts:916712 pts_time:10.1857 dts:916712 dts_time:10.1857
284[stream_segment,ssegment @ 0x3d51b20] stream:0 start_pts_time:0 pts:18054 pts_time:0.2006 dts:18054 dts_time:0.2006 -> pts:918054 pts_time:10.2006 dts:918054 dts_time:10.2006
285[stream_segment,ssegment @ 0x3d51b20] stream:1 start_pts_time:0 pts:18801 pts_time:0.2089 dts:18801 dts_time:0.2089 -> pts:918801 pts_time:10.2089 dts:918801 dts_time:10.2089
286[stream_segment,ssegment @ 0x3d51b20] stream:1 start_pts_time:0 pts:20890 pts_time:0.232111 dts:20890 dts_time:0.232111 -> pts:920890 pts_time:10.2321 dts:920890 dts_time:10.2321
287[stream_segment,ssegment @ 0x3d51b20] stream:0 start_pts_time:0 pts:21063 pts_time:0.234033 dts:21063 dts_time:0.234033 -> pts:921063 pts_time:10.234 dts:921063 dts_time:10.234
288[stream_segment,ssegment @ 0x3d51b20] stream:1 start_pts_time:0 pts:22979 pts_time:0.255322 dts:22979 dts_time:0.255322 -> pts:922979 pts_time:10.2553 dts:922979 dts_time:10.2553
289[stream_segment,ssegment @ 0x3d51b20] stream:0 start_pts_time:0 pts:24072 pts_time:0.267467 dts:24072 dts_time:0.267467 -> pts:924072 pts_time:10.2675 dts:924072 dts_time:10.2675
290[stream_segment,ssegment @ 0x3d51b20] stream:1 start_pts_time:0 pts:25068 pts_time:0.278533 dts:25068 dts_time:0.278533 -> pts:925068 pts_time:10.2785 dts:925068 dts_time:10.2785
291[stream_segment,ssegment @ 0x3d51b20] stream:0 start_pts_time:0 pts:27081 pts_time:0.3009 dts:27081 dts_time:0.3009 -> pts:927081 pts_time:10.3009 dts:927081 dts_time:10.3009
292[stream_segment,ssegment @ 0x3d51b20] stream:1 start_pts_time:0 pts:27157 pts_time:0.301744 dts:27157 dts_time:0.301744 -> pts:927157 pts_time:10.3017 dts:927157 dts_time:10.3017
293[stream_segment,ssegment @ 0x3d51b20] stream:1 start_pts_time:0 pts:29246 pts_time:0.324956 dts:29246 dts_time:0.324956 -> pts:929246 pts_time:10.325 dts:929246 dts_time:10.325
294[stream_segment,ssegment @ 0x3d51b20] stream:0 start_pts_time:0 pts:30090 pts_time:0.334333 dts:30090 dts_time:0.334333 -> pts:930090 pts_time:10.3343 dts:930090 dts_time:10.3343
295[stream_segment,ssegment @ 0x3d51b20] stream:1 start_pts_time:0 pts:31335 pts_time:0.348167 dts:31335 dts_time:0.348167 -> pts:931335 pts_time:10.3482 dts:931335 dts_time:10.3482
296[stream_segment,ssegment @ 0x3d51b20] stream:0 start_pts_time:0 pts:33099 pts_time:0.367767 dts:33099 dts_time:0.367767 -> pts:933099 pts_time:10.3678 dts:933099 dts_time:10.3678
297[stream_segment,ssegment @ 0x3d51b20] stream:1 start_pts_time:0 pts:33424 pts_time:0.371378 dts:33424 dts_time:0.371378 -> pts:933424 pts_time:10.3714 dts:933424 dts_time:10.3714
298[stream_segment,ssegment @ 0x3d51b20] stream:1 start_pts_time:0 pts:35513 pts_time:0.394589 dts:35513 dts_time:0.394589 -> pts:935513 pts_time:10.3946 dts:935513 dts_time:10.3946
299[stream_segment,ssegment @ 0x3d51b20] stream:0 start_pts_time:0 pts:36108 pts_time:0.4012 dts:36108 dts_time:0.4012 -> pts:936108 pts_time:10.4012 dts:936108 dts_time:10.4012
300[stream_segment,ssegment @ 0x3d51b20] stream:1 start_pts_time:0 pts:37602 pts_time:0.4178 dts:37602 dts_time:0.4178 -> pts:937602 pts_time:10.4178 dts:937602 dts_time:10.4178
301[stream_segment,ssegment @ 0x3d51b20] stream:0 start_pts_time:0 pts:39117 pts_time:0.434633 dts:39117 dts_time:0.434633 -> pts:939117 pts_time:10.4346 dts:939117 dts_time:10.4346
302[stream_segment,ssegment @ 0x3d51b20] stream:1 start_pts_time:0 pts:39691 pts_time:0.441011 dts:39691 dts_time:0.441011 -> pts:939691 pts_time:10.441 dts:939691 dts_time:10.441
303[stream_segment,ssegment @ 0x3d51b20] stream:1 start_pts_time:0 pts:41780 pts_time:0.464222 dts:41780 dts_time:0.464222 -> pts:941780 pts_time:10.4642 dts:941780 dts_time:10.4642
304[stream_segment,ssegment @ 0x3d51b20] stream:0 start_pts_time:0 pts:42126 pts_time:0.468067 dts:42126 dts_time:0.468067 -> pts:942126 pts_time:10.4681 dts:942126 dts_time:10.4681
305[stream_segment,ssegment @ 0x3d51b20] stream:1 start_pts_time:0 pts:43869 pts_time:0.487433 dts:43869 dts_time:0.487433 -> pts:943869 pts_time:10.4874 dts:943869 dts_time:10.4874
306[stream_segment,ssegment @ 0x3d51b20] stream:0 start_pts_time:0 pts:45135 pts_time:0.5015 dts:45135 dts_time:0.5015 -> pts:945135 pts_time:10.5015 dts:945135 dts_time:10.5015
307[stream_segment,ssegment @ 0x3d51b20] stream:1 start_pts_time:0 pts:45958 pts_time:0.510644 dts:45958 dts_time:0.510644 -> pts:945958 pts_time:10.5106 dts:945958 dts_time:10.5106
308[stream_segment,ssegment @ 0x3d51b20] stream:1 start_pts_time:0 pts:48047 pts_time:0.533856 dts:48047 dts_time:0.533856 -> pts:948047 pts_time:10.5339 dts:948047 dts_time:10.5339
309[stream_segment,ssegment @ 0x3d51b20] stream:0 start_pts_time:0 pts:48144 pts_time:0.534933 dts:48144 dts_time:0.534933 -> pts:948144 pts_time:10.5349 dts:948144 dts_time:10.5349
310[stream_segment,ssegment @ 0x3d51b20] stream:1 start_pts_time:0 pts:50136 pts_time:0.557067 dts:50136 dts_time:0.557067 -> pts:950136 pts_time:10.5571 dts:950136 dts_time:10.5571
311[stream_segment,ssegment @ 0x3d51b20] stream:0 start_pts_time:0 pts:51153 pts_time:0.568367 dts:51153 dts_time:0.568367 -> pts:951153 pts_time:10.5684 dts:951153 dts_time:10.5684
312[stream_segment,ssegment @ 0x3d51b20] stream:1 start_pts_time:0 pts:52225 pts_time:0.580278 dts:52225 dts_time:0.580278 -> pts:952225 pts_time:10.5803 dts:952225 dts_time:10.5803
313[stream_segment,ssegment @ 0x3d51b20] stream:0 start_pts_time:0 pts:54162 pts_time:0.6018 dts:54162 dts_time:0.6018 -> pts:954162 pts_time:10.6018 dts:954162 dts_time:10.6018
314[stream_segment,ssegment @ 0x3d51b20] stream:1 start_pts_time:0 pts:54314 pts_time:0.603489 dts:54314 dts_time:0.603489 -> pts:954314 pts_time:10.6035 dts:954314 dts_time:10.6035
315[stream_segment,ssegment @ 0x3d51b20] stream:1 start_pts_time:0 pts:56403 pts_time:0.6267 dts:56403 dts_time:0.6267 -> pts:956403 pts_time:10.6267 dts:956403 dts_time:10.6267
316[stream_segment,ssegment @ 0x3d51b20] stream:0 start_pts_time:0 pts:57172 pts_time:0.635244 dts:57172 dts_time:0.635244 -> pts:957172 pts_time:10.6352 dts:957172 dts_time:10.6352
317[stream_segment,ssegment @ 0x3d51b20] stream:1 start_pts_time:0 pts:58492 pts_time:0.649911 dts:58492 dts_time:0.649911 -> pts:958492 pts_time:10.6499 dts:958492 dts_time:10.6499
318[stream_segment,ssegment @ 0x3d51b20] stream:0 start_pts_time:0 pts:60181 pts_time:0.668678 dts:60181 dts_time:0.668678 -> pts:960181 pts_time:10.6687 dts:960181 dts_time:10.6687
319[stream_segment,ssegment @ 0x3d51b20] stream:1 start_pts_time:0 pts:60581 pts_time:0.673122 dts:60581 dts_time:0.673122 -> pts:960581 pts_time:10.6731 dts:960581 dts_time:10.6731
320[stream_segment,ssegment @ 0x3d51b20] stream:1 start_pts_time:0 pts:62670 pts_time:0.696333 dts:62670 dts_time:0.696333 -> pts:962670 pts_time:10.6963 dts:962670 dts_time:10.6963
321[stream_segment,ssegment @ 0x3d51b20] stream:0 start_pts_time:0 pts:63190 pts_time:0.702111 dts:63190 dts_time:0.702111 -> pts:963190 pts_time:10.7021 dts:963190 dts_time:10.7021
322[stream_segment,ssegment @ 0x3d51b20] stream:1 start_pts_time:0 pts:64784 pts_time:0.719822 dts:64784 dts_time:0.719822 -> pts:964784 pts_time:10.7198 dts:964784 dts_time:10.7198
323[stream_segment,ssegment @ 0x3d51b20] stream:0 start_pts_time:0 pts:66199 pts_time:0.735544 dts:66199 dts_time:0.735544 -> pts:966199 pts_time:10.7355 dts:966199 dts_time:10.7355
324[stream_segment,ssegment @ 0x3d51b20] stream:1 start_pts_time:0 pts:66873 pts_time:0.743033 dts:66873 dts_time:0.743033 -> pts:966873 pts_time:10.743 dts:966873 dts_time:10.743
325[stream_segment,ssegment @ 0x3d51b20] stream:1 start_pts_time:0 pts:68962 pts_time:0.766244 dts:68962 dts_time:0.766244 -> pts:968962 pts_time:10.7662 dts:968962 dts_time:10.7662
326[stream_segment,ssegment @ 0x3d51b20] stream:0 start_pts_time:0 pts:69208 pts_time:0.768978 dts:69208 dts_time:0.768978 -> pts:969208 pts_time:10.769 dts:969208 dts_time:10.769
327[stream_segment,ssegment @ 0x3d51b20] stream:1 start_pts_time:0 pts:71051 pts_time:0.789456 dts:71051 dts_time:0.789456 -> pts:971051 pts_time:10.7895 dts:971051 dts_time:10.7895
328[stream_segment,ssegment @ 0x3d51b20] stream:0 start_pts_time:0 pts:72217 pts_time:0.802411 dts:72217 dts_time:0.802411 -> pts:972217 pts_time:10.8024 dts:972217 dts_time:10.8024
329[stream_segment,ssegment @ 0x3d51b20] stream:1 start_pts_time:0 pts:73140 pts_time:0.812667 dts:73140 dts_time:0.812667 -> pts:973140 pts_time:10.8127 dts:973140 dts_time:10.8127
330[stream_segment,ssegment @ 0x3d51b20] stream:0 start_pts_time:0 pts:75226 pts_time:0.835844 dts:75226 dts_time:0.835844 -> pts:975226 pts_time:10.8358 dts:975226 dts_time:10.8358
331[stream_segment,ssegment @ 0x3d51b20] stream:1 start_pts_time:0 pts:75229 pts_time:0.835878 dts:75229 dts_time:0.835878 -> pts:975229 pts_time:10.8359 dts:975229 dts_time:10.8359
332[stream_segment,ssegment @ 0x3d51b20] stream:1 start_pts_time:0 pts:77318 pts_time:0.859089 dts:77318 dts_time:0.859089 -> pts:977318 pts_time:10.8591 dts:977318 dts_time:10.8591
333[stream_segment,ssegment @ 0x3d51b20] stream:0 start_pts_time:0 pts:78235 pts_time:0.869278 dts:78235 dts_time:0.869278 -> pts:978235 pts_time:10.8693 dts:978235 dts_time:10.8693
334[stream_segment,ssegment @ 0x3d51b20] stream:1 start_pts_time:0 pts:79407 pts_time:0.8823 dts:79407 dts_time:0.8823 -> pts:979407 pts_time:10.8823 dts:979407 dts_time:10.8823
335[stream_segment,ssegment @ 0x3d51b20] stream:0 start_pts_time:0 pts:81244 pts_time:0.902711 dts:81244 dts_time:0.902711 -> pts:981244 pts_time:10.9027 dts:981244 dts_time:10.9027
336[stream_segment,ssegment @ 0x3d51b20] stream:1 start_pts_time:0 pts:81496 pts_time:0.905511 dts:81496 dts_time:0.905511 -> pts:981496 pts_time:10.9055 dts:981496 dts_time:10.9055
337[stream_segment,ssegment @ 0x3d51b20] stream:1 start_pts_time:0 pts:83585 pts_time:0.928722 dts:83585 dts_time:0.928722 -> pts:983585 pts_time:10.9287 dts:983585 dts_time:10.9287
338[stream_segment,ssegment @ 0x3d51b20] stream:0 start_pts_time:0 pts:84253 pts_time:0.936144 dts:84253 dts_time:0.936144 -> pts:984253 pts_time:10.9361 dts:984253 dts_time:10.9361
339[stream_segment,ssegment @ 0x3d51b20] stream:1 start_pts_time:0 pts:85674 pts_time:0.951933 dts:85674 dts_time:0.951933 -> pts:985674 pts_time:10.9519 dts:985674 dts_time:10.9519
340[stream_segment,ssegment @ 0x3d51b20] stream:0 start_pts_time:0 pts:87262 pts_time:0.969578 dts:87262 dts_time:0.969578 -> pts:987262 pts_time:10.9696 dts:987262 dts_time:10.9696
341[stream_segment,ssegment @ 0x3d51b20] stream:1 start_pts_time:0 pts:87763 pts_time:0.975144 dts:87763 dts_time:0.975144 -> pts:987763 pts_time:10.9751 dts:987763 dts_time:10.9751
342[stream_segment,ssegment @ 0x3d51b20] stream:1 start_pts_time:0 pts:89852 pts_time:0.998356 dts:89852 dts_time:0.998356 -> pts:989852 pts_time:10.9984 dts:989852 dts_time:10.9984
343[stream_segment,ssegment @ 0x3d51b20] stream:0 start_pts_time:0 pts:90271 pts_time:1.00301 dts:90271 dts_time:1.00301 -> pts:990271 pts_time:11.003 dts:990271 dts_time:11.003
344[mpegts @ 0x3d8a2c0] H.264 bitstream error, startcode missing
345[stream_segment,ssegment @ 0x3d51b20] stream:1 start_pts_time:0 pts:91951 pts_time:1.02168 dts:91951 dts_time:1.02168 -> pts:991951 pts_time:11.0217 dts:991951 dts_time:11.0217
346[stream_segment,ssegment @ 0x3d51b20] stream:0 start_pts_time:0 pts:93280 pts_time:1.03644 dts:93280 dts_time:1.03644 -> pts:993280 pts_time:11.0364 dts:993280 dts_time:11.0364
347[stream_segment,ssegment @ 0x3d51b20] stream:1 start_pts_time:0 pts:94040 pts_time:1.04489 dts:94040 dts_time:1.04489 -> pts:994040 pts_time:11.0449 dts:994040 dts_time:11.0449
348[stream_segment,ssegment @ 0x3d51b20] stream:1 start_pts_time:0 pts:96129 pts_time:1.0681 dts:96129 dts_time:1.0681 -> pts:996129 pts_time:11.0681 dts:996129 dts_time:11.0681
349[stream_segment,ssegment @ 0x3d51b20] stream:0 start_pts_time:0 pts:96289 pts_time:1.06988 dts:96289 dts_time:1.06988 -> pts:996289 pts_time:11.0699 dts:996289 dts_time:11.0699
350[stream_segment,ssegment @ 0x3d51b20] stream:1 start_pts_time:0 pts:98218 pts_time:1.09131 dts:98218 dts_time:1.09131 -> pts:998218 pts_time:11.0913 dts:998218 dts_time:11.0913
351[stream_segment,ssegment @ 0x3d51b20] stream:0 start_pts_time:0 pts:99298 pts_time:1.10331 dts:99298 dts_time:1.10331 -> pts:999298 pts_time:11.1033 dts:999298 dts_time:11.1033
352[stream_segment,ssegment @ 0x3d51b20] stream:1 start_pts_time:0 pts:100307 pts_time:1.11452 dts:100307 dts_time:1.11452 -> pts:1000307 pts_time:11.1145 dts:1000307 dts_time:11.1145
353[stream_segment,ssegment @ 0x3d51b20] stream:0 start_pts_time:0 pts:102307 pts_time:1.13674 dts:102307 dts_time:1.13674 -> pts:1002307 pts_time:11.1367 dts:1002307 dts_time:11.1367
354[stream_segment,ssegment @ 0x3d51b20] stream:1 start_pts_time:0 pts:102396 pts_time:1.13773 dts:102396 dts_time:1.13773 -> pts:1002396 pts_time:11.1377 dts:1002396 dts_time:11.1377
355[stream_segment,ssegment @ 0x3d51b20] stream:1 start_pts_time:0 pts:104485 pts_time:1.16094 dts:104485 dts_time:1.16094 -> pts:1004485 pts_time:11.1609 dts:1004485 dts_time:11.1609
356[stream_segment,ssegment @ 0x3d51b20] stream:0 start_pts_time:0 pts:105316 pts_time:1.17018 dts:105316 dts_time:1.17018 -> pts:1005316 pts_time:11.1702 dts:1005316 dts_time:11.1702
357[stream_segment,ssegment @ 0x3d51b20] stream:1 start_pts_time:0 pts:106574 pts_time:1.18416 dts:106574 dts_time:1.18416 -> pts:1006574 pts_time:11.1842 dts:1006574 dts_time:11.1842
358[stream_segment,ssegment @ 0x3d51b20] stream:0 start_pts_time:0 pts:108325 pts_time:1.20361 dts:108325 dts_time:1.20361 -> pts:1008325 pts_time:11.2036 dts:1008325 dts_time:11.2036
359[stream_segment,ssegment @ 0x3d51b20] stream:1 start_pts_time:0 pts:108663 pts_time:1.20737 dts:108663 dts_time:1.20737 -> pts:1008663 pts_time:11.2074 dts:1008663 dts_time:11.2074
360[stream_segment,ssegment @ 0x3d51b20] stream:1 start_pts_time:0 pts:110752 pts_time:1.23058 dts:110752 dts_time:1.23058 -> pts:1010752 pts_time:11.2306 dts:1010752 dts_time:11.2306
361[stream_segment,ssegment @ 0x3d51b20] stream:0 start_pts_time:0 pts:111334 pts_time:1.23704 dts:111334 dts_time:1.23704 -> pts:1011334 pts_time:11.237 dts:1011334 dts_time:11.237
362[stream_segment,ssegment @ 0x3d51b20] stream:1 start_pts_time:0 pts:112841 pts_time:1.25379 dts:112841 dts_time:1.25379 -> pts:1012841 pts_time:11.2538 dts:1012841 dts_time:11.2538
363[stream_segment,ssegment @ 0x3d51b20] stream:0 start_pts_time:0 pts:114343 pts_time:1.27048 dts:114343 dts_time:1.27048 -> pts:1014343 pts_time:11.2705 dts:1014343 dts_time:11.2705
364[stream_segment,ssegment @ 0x3d51b20] stream:1 start_pts_time:0 pts:114939 pts_time:1.2771 dts:114939 dts_time:1.2771 -> pts:1014939 pts_time:11.2771 dts:1014939 dts_time:11.2771
365[stream_segment,ssegment @ 0x3d51b20] stream:1 start_pts_time:0 pts:117028 pts_time:1.30031 dts:117028 dts_time:1.30031 -> pts:1017028 pts_time:11.3003 dts:1017028 dts_time:11.3003
366[stream_segment,ssegment @ 0x3d51b20] stream:0 start_pts_time:0 pts:117352 pts_time:1.30391 dts:117352 dts_time:1.30391 -> pts:1017352 pts_time:11.3039 dts:1017352 dts_time:11.3039
367[stream_segment,ssegment @ 0x3d51b20] stream:1 start_pts_time:0 pts:119117 pts_time:1.32352 dts:119117 dts_time:1.32352 -> pts:1019117 pts_time:11.3235 dts:1019117 dts_time:11.3235
368[stream_segment,ssegment @ 0x3d51b20] stream:0 start_pts_time:0 pts:120361 pts_time:1.33734 dts:120361 dts_time:1.33734 -> pts:1020361 pts_time:11.3373 dts:1020361 dts_time:11.3373
369[stream_segment,ssegment @ 0x3d51b20] stream:1 start_pts_time:0 pts:121206 pts_time:1.34673 dts:121206 dts_time:1.34673 -> pts:1021206 pts_time:11.3467 dts:1021206 dts_time:11.3467
370[stream_segment,ssegment @ 0x3d51b20] stream:1 start_pts_time:0 pts:123295 pts_time:1.36994 dts:123295 dts_time:1.36994 -> pts:1023295 pts_time:11.3699 dts:1023295 dts_time:11.3699
371[stream_segment,ssegment @ 0x3d51b20] stream:0 start_pts_time:0 pts:123370 pts_time:1.37078 dts:123370 dts_time:1.37078 -> pts:1023370 pts_time:11.3708 dts:1023370 dts_time:11.3708
372[stream_segment,ssegment @ 0x3d51b20] stream:1 start_pts_time:0 pts:125384 pts_time:1.39316 dts:125384 dts_time:1.39316 -> pts:1025384 pts_time:11.3932 dts:1025384 dts_time:11.3932
373[stream_segment,ssegment @ 0x3d51b20] stream:0 start_pts_time:0 pts:126379 pts_time:1.40421 dts:126379 dts_time:1.40421 -> pts:1026379 pts_time:11.4042 dts:1026379 dts_time:11.4042
374[stream_segment,ssegment @ 0x3d51b20] stream:1 start_pts_time:0 pts:127473 pts_time:1.41637 dts:127473 dts_time:1.41637 -> pts:1027473 pts_time:11.4164 dts:1027473 dts_time:11.4164
375[stream_segment,ssegment @ 0x3d51b20] stream:0 start_pts_time:0 pts:129388 pts_time:1.43764 dts:129388 dts_time:1.43764 -> pts:1029388 pts_time:11.4376 dts:1029388 dts_time:11.4376
376[stream_segment,ssegment @ 0x3d51b20] stream:1 start_pts_time:0 pts:129562 pts_time:1.43958 dts:129562 dts_time:1.43958 -> pts:1029562 pts_time:11.4396 dts:1029562 dts_time:11.4396
377[stream_segment,ssegment @ 0x3d51b20] stream:1 start_pts_time:0 pts:131651 pts_time:1.46279 dts:131651 dts_time:1.46279 -> pts:1031651 pts_time:11.4628 dts:1031651 dts_time:11.4628
378[stream_segment,ssegment @ 0x3d51b20] stream:0 start_pts_time:0 pts:132397 pts_time:1.47108 dts:132397 dts_time:1.47108 -> pts:1032397 pts_time:11.4711 dts:1032397 dts_time:11.4711
379[stream_segment,ssegment @ 0x3d51b20] stream:1 start_pts_time:0 pts:133740 pts_time:1.486 dts:133740 dts_time:1.486 -> pts:1033740 pts_time:11.486 dts:1033740 dts_time:11.486
380[stream_segment,ssegment @ 0x3d51b20] stream:0 start_pts_time:0 pts:135406 pts_time:1.50451 dts:135406 dts_time:1.50451 -> pts:1035406 pts_time:11.5045 dts:1035406 dts_time:11.5045
381[stream_segment,ssegment @ 0x3d51b20] stream:1 start_pts_time:0 pts:135837 pts_time:1.5093 dts:135837 dts_time:1.5093 -> pts:1035837 pts_time:11.5093 dts:1035837 dts_time:11.5093
382[stream_segment,ssegment @ 0x3d51b20] stream:1 start_pts_time:0 pts:137926 pts_time:1.53251 dts:137926 dts_time:1.53251 -> pts:1037926 pts_time:11.5325 dts:1037926 dts_time:11.5325
383[stream_segment,ssegment @ 0x3d51b20] stream:0 start_pts_time:0 pts:138415 pts_time:1.53794 dts:138415 dts_time:1.53794 -> pts:1038415 pts_time:11.5379 dts:1038415 dts_time:11.5379
384[stream_segment,ssegment @ 0x3d51b20] stream:1 start_pts_time:0 pts:140015 pts_time:1.55572 dts:140015 dts_time:1.55572 -> pts:1040015 pts_time:11.5557 dts:1040015 dts_time:11.5557
385[stream_segment,ssegment @ 0x3d51b20] stream:0 start_pts_time:0 pts:141424 pts_time:1.57138 dts:141424 dts_time:1.57138 -> pts:1041424 pts_time:11.5714 dts:1041424 dts_time:11.5714
386[stream_segment,ssegment @ 0x3d51b20] stream:1 start_pts_time:0 pts:142104 pts_time:1.57893 dts:142104 dts_time:1.57893 -> pts:1042104 pts_time:11.5789 dts:1042104 dts_time:11.5789
387[stream_segment,ssegment @ 0x3d51b20] stream:1 start_pts_time:0 pts:144193 pts_time:1.60214 dts:144193 dts_time:1.60214 -> pts:1044193 pts_time:11.6021 dts:1044193 dts_time:11.6021
388[stream_segment,ssegment @ 0x3d51b20] stream:0 start_pts_time:0 pts:144433 pts_time:1.60481 dts:144433 dts_time:1.60481 -> pts:1044433 pts_time:11.6048 dts:1044433 dts_time:11.6048
389[stream_segment,ssegment @ 0x3d51b20] stream:1 start_pts_time:0 pts:146282 pts_time:1.62536 dts:146282 dts_time:1.62536 -> pts:1046282 pts_time:11.6254 dts:1046282 dts_time:11.6254
390[stream_segment,ssegment @ 0x3d51b20] stream:0 start_pts_time:0 pts:147442 pts_time:1.63824 dts:147442 dts_time:1.63824 -> pts:1047442 pts_time:11.6382 dts:1047442 dts_time:11.6382
391[stream_segment,ssegment @ 0x3d51b20] stream:1 start_pts_time:0 pts:148371 pts_time:1.64857 dts:148371 dts_time:1.64857 -> pts:1048371 pts_time:11.6486 dts:1048371 dts_time:11.6486
392[stream_segment,ssegment @ 0x3d51b20] stream:0 start_pts_time:0 pts:150451 pts_time:1.67168 dts:150451 dts_time:1.67168 -> pts:1050451 pts_time:11.6717 dts:1050451 dts_time:11.6717
393[stream_segment,ssegment @ 0x3d51b20] stream:1 start_pts_time:0 pts:150460 pts_time:1.67178 dts:150460 dts_time:1.67178 -> pts:1050460 pts_time:11.6718 dts:1050460 dts_time:11.6718
394[stream_segment,ssegment @ 0x3d51b20] stream:1 start_pts_time:0 pts:152549 pts_time:1.69499 dts:152549 dts_time:1.69499 -> pts:1052549 pts_time:11.695 dts:1052549 dts_time:11.695
395[stream_segment,ssegment @ 0x3d51b20] stream:0 start_pts_time:0 pts:153460 pts_time:1.70511 dts:153460 dts_time:1.70511 -> pts:1053460 pts_time:11.7051 dts:1053460 dts_time:11.7051
396[stream_segment,ssegment @ 0x3d51b20] stream:1 start_pts_time:0 pts:154638 pts_time:1.7182 dts:154638 dts_time:1.7182 -> pts:1054638 pts_time:11.7182 dts:1054638 dts_time:11.7182
397[stream_segment,ssegment @ 0x3d51b20] stream:0 start_pts_time:0 pts:156469 pts_time:1.73854 dts:156469 dts_time:1.73854 -> pts:1056469 pts_time:11.7385 dts:1056469 dts_time:11.7385
398[stream_segment,ssegment @ 0x3d51b20] stream:1 start_pts_time:0 pts:156727 pts_time:1.74141 dts:156727 dts_time:1.74141 -> pts:1056727 pts_time:11.7414 dts:1056727 dts_time:11.7414
399[stream_segment,ssegment @ 0x3d51b20] stream:1 start_pts_time:0 pts:158816 pts_time:1.76462 dts:158816 dts_time:1.76462 -> pts:1058816 pts_time:11.7646 dts:1058816 dts_time:11.7646
400[stream_segment,ssegment @ 0x3d51b20] stream:0 start_pts_time:0 pts:159478 pts_time:1.77198 dts:159478 dts_time:1.77198 -> pts:1059478 pts_time:11.772 dts:1059478 dts_time:11.772
401[stream_segment,ssegment @ 0x3d51b20] stream:1 start_pts_time:0 pts:160914 pts_time:1.78793 dts:160914 dts_time:1.78793 -> pts:1060914 pts_time:11.7879 dts:1060914 dts_time:11.7879
402[stream_segment,ssegment @ 0x3d51b20] stream:0 start_pts_time:0 pts:162487 pts_time:1.80541 dts:162487 dts_time:1.80541 -> pts:1062487 pts_time:11.8054 dts:1062487 dts_time:11.8054
403[stream_segment,ssegment @ 0x3d51b20] stream:1 start_pts_time:0 pts:163003 pts_time:1.81114 dts:163003 dts_time:1.81114 -> pts:1063003 pts_time:11.8111 dts:1063003 dts_time:11.8111
404[stream_segment,ssegment @ 0x3d51b20] stream:1 start_pts_time:0 pts:165092 pts_time:1.83436 dts:165092 dts_time:1.83436 -> pts:1065092 pts_time:11.8344 dts:1065092 dts_time:11.8344
405[stream_segment,ssegment @ 0x3d51b20] stream:0 start_pts_time:0 pts:165496 pts_time:1.83884 dts:165496 dts_time:1.83884 -> pts:1065496 pts_time:11.8388 dts:1065496 dts_time:11.8388
406[stream_segment,ssegment @ 0x3d51b20] stream:1 start_pts_time:0 pts:167181 pts_time:1.85757 dts:167181 dts_time:1.85757 -> pts:1067181 pts_time:11.8576 dts:1067181 dts_time:11.8576
407[stream_segment,ssegment @ 0x3d51b20] stream:0 start_pts_time:0 pts:168506 pts_time:1.87229 dts:168506 dts_time:1.87229 -> pts:1068506 pts_time:11.8723 dts:1068506 dts_time:11.8723
408[stream_segment,ssegment @ 0x3d51b20] stream:1 start_pts_time:0 pts:169270 pts_time:1.88078 dts:169270 dts_time:1.88078 -> pts:1069270 pts_time:11.8808 dts:1069270 dts_time:11.8808
409[stream_segment,ssegment @ 0x3d51b20] stream:1 start_pts_time:0 pts:171359 pts_time:1.90399 dts:171359 dts_time:1.90399 -> pts:1071359 pts_time:11.904 dts:1071359 dts_time:11.904
410[stream_segment,ssegment @ 0x3d51b20] stream:0 start_pts_time:0 pts:171515 pts_time:1.90572 dts:171515 dts_time:1.90572 -> pts:1071515 pts_time:11.9057 dts:1071515 dts_time:11.9057
411[stream_segment,ssegment @ 0x3d51b20] stream:1 start_pts_time:0 pts:173448 pts_time:1.9272 dts:173448 dts_time:1.9272 -> pts:1073448 pts_time:11.9272 dts:1073448 dts_time:11.9272
412[stream_segment,ssegment @ 0x3d51b20] stream:0 start_pts_time:0 pts:174524 pts_time:1.93916 dts:174524 dts_time:1.93916 -> pts:1074524 pts_time:11.9392 dts:1074524 dts_time:11.9392
413[stream_segment,ssegment @ 0x3d51b20] stream:1 start_pts_time:0 pts:175537 pts_time:1.95041 dts:175537 dts_time:1.95041 -> pts:1075537 pts_time:11.9504 dts:1075537 dts_time:11.9504
414[stream_segment,ssegment @ 0x3d51b20] stream:0 start_pts_time:0 pts:177533 pts_time:1.97259 dts:177533 dts_time:1.97259 -> pts:1077533 pts_time:11.9726 dts:1077533 dts_time:11.9726
415[stream_segment,ssegment @ 0x3d51b20] stream:1 start_pts_time:0 pts:177626 pts_time:1.97362 dts:177626 dts_time:1.97362 -> pts:1077626 pts_time:11.9736 dts:1077626 dts_time:11.9736
416[stream_segment,ssegment @ 0x3d51b20] stream:1 start_pts_time:0 pts:179715 pts_time:1.99683 dts:179715 dts_time:1.99683 -> pts:1079715 pts_time:11.9968 dts:1079715 dts_time:11.9968
417[AVIOContext @ 0x3e21d00] Statistics: 0 seeks, 147 writeouts
418[mpegts @ 0x3de8380] muxrate VBR, pcr every 2 pkts, sdt every 200, pat/pmt every 40 pkts
419[stream_segment,ssegment @ 0x3d51b20] segment:'segmentName_0001.ts' starts with packet stream:0 pts:180542 pts_time:2.00602 frame:60
420[stream_segment,ssegment @ 0x3d51b20] stream:0 start_pts_time:2.00602 pts:180542 pts_time:2.00602 dts:180542 dts_time:2.00602 -> pts:1080542 pts_time:12.006 dts:1080542 dts_time:12.006
421[mpegts @ 0x3de8380] H.264 bitstream malformed, no startcode found, use the h264_mp4toannexb bitstream filter (-bsf h264_mp4toannexb)
422av_interleaved_write_frame(): Invalid argument
423[AVIOContext @ 0x3c91520] Statistics: 274552 bytes read, 0 seeks