Ticket #2896: ffmpeg-crash-fieldmatch-yadif-log-attempt-2.log

File ffmpeg-crash-fieldmatch-yadif-log-attempt-2.log, 81.0 KB (added by Mornix, 3 years ago)

The second attempt which crashed ~9s into the video.

Line 
1ffmpeg started on 2013-08-23 at 23:28:20
2Report written to "ffmpeg-20130823-232820.log"
3Command line:
4"ffmpeg_g.exe" -v 9 -loglevel 99 -report -i in.mkv -vcodec mpeg2video -vf "fieldmatch=order=tff:combmatch=full,yadif=deint=interlaced,decimate" out.mkv
5ffmpeg version 2.0 Copyright (c) 2000-2013 the FFmpeg developers
6  built on Aug 23 2013 22:55:29 with gcc 4.6.2 (GCC)
7  configuration: --disable-w32threads --enable-gpl --disable-yasm
8  libavutil      52. 42.100 / 52. 42.100
9  libavcodec     55. 29.100 / 55. 29.100
10  libavformat    55. 14.102 / 55. 14.102
11  libavdevice    55.  3.100 / 55.  3.100
12  libavfilter     3. 82.102 /  3. 82.102
13  libswscale      2.  5.100 /  2.  5.100
14  libswresample   0. 17.103 /  0. 17.103
15  libpostproc    52.  3.100 / 52.  3.100
16Splitting the commandline.
17Reading option '-v' ... matched as option 'v' (set logging level) with argument '9'.
18Reading option '-loglevel' ... matched as option 'loglevel' (set logging level) with argument '99'.
19Reading option '-report' ... matched as option 'report' (generate a report) with argument '1'.
20Reading option '-i' ... matched as input file with argument 'in.mkv'.
21Reading option '-vcodec' ... matched as option 'vcodec' (force video codec ('copy' to copy stream)) with argument 'mpeg2video'.
22Reading option '-vf' ... matched as option 'vf' (set video filters) with argument 'fieldmatch=order=tff:combmatch=full,yadif=deint=interlaced,decimate'.
23Reading option 'out.mkv' ... matched as output file.
24Finished splitting the commandline.
25Parsing a group of options: global .
26Applying option v (set logging level) with argument 9.
27Applying option loglevel (set logging level) with argument 99.
28Applying option report (generate a report) with argument 1.
29Successfully parsed a group of options.
30Parsing a group of options: input file in.mkv.
31Successfully parsed a group of options.
32Opening an input file: in.mkv.
33[matroska,webm @ 003aa240] Format matroska,webm probed with size=2048 and score=100
34st:0 removing common factor 1000000 from timebase
35[matroska,webm @ 003aa240] File position before avformat_find_stream_info() is 5499
36[h264 @ 0484c780] no picture
37[matroska,webm @ 003aa240] All info found
38[matroska,webm @ 003aa240] File position after avformat_find_stream_info() is 6400
39Input #0, matroska,webm, from 'in.mkv':
40  Metadata:
41    creation_time   : 2013-08-24 03:01:15
42  Duration: 00:01:52.55, start: 0.000000, bitrate: 716 kb/s
43    Stream #0:0(eng), 4, 1/1000: Video: h264 (High), yuv420p, 720x480 [SAR 8:9 DAR 4:3], 1001/60000, 29.97 fps, 29.97 tbr, 1k tbn, 59.94 tbc (default)
44Successfully opened the file.
45Parsing a group of options: output file out.mkv.
46Applying option vcodec (force video codec ('copy' to copy stream)) with argument mpeg2video.
47Applying option vf (set video filters) with argument fieldmatch=order=tff:combmatch=full,yadif=deint=interlaced,decimate.
48Successfully parsed a group of options.
49Opening an output file: out.mkv.
50Successfully opened the file.
51detected 4 logical cores
52[Parsed_fieldmatch_0 @ 04844420] Setting 'order' to value 'tff'
53[Parsed_fieldmatch_0 @ 04844420] Setting 'combmatch' to value 'full'
54[Parsed_yadif_1 @ 003af380] Setting 'deint' to value 'interlaced'
55[graph 0 input from stream 0:0 @ 003a4400] Setting 'video_size' to value '720x480'
56[graph 0 input from stream 0:0 @ 003a4400] Setting 'pix_fmt' to value '0'
57[graph 0 input from stream 0:0 @ 003a4400] Setting 'time_base' to value '1/1000'
58[graph 0 input from stream 0:0 @ 003a4400] Setting 'pixel_aspect' to value '8/9'
59[graph 0 input from stream 0:0 @ 003a4400] Setting 'sws_param' to value 'flags=2'
60[graph 0 input from stream 0:0 @ 003a4400] Setting 'frame_rate' to value '19001/634'
61[graph 0 input from stream 0:0 @ 003a4400] w:720 h:480 pixfmt:yuv420p tb:1/1000 fr:19001/634 sar:8/9 sws_param:flags=2
62[format @ 003a4b20] compat: called with args=[yuv420p|yuv422p]
63[format @ 003a4b20] Setting 'pix_fmts' to value 'yuv420p|yuv422p'
64[AVFilterGraph @ 04843e20] query_formats: 6 queried, 5 merged, 0 already done, 0 delayed
65[Parsed_decimate_2 @ 003a4000] FPS: 19001/634 -> 38002/1585
66[mpeg2video @ 003ab080] intra_quant_bias = 96 inter_quant_bias = 0
67Output #0, matroska, to 'out.mkv':
68  Metadata:
69    encoder         : Lavf55.14.102
70    Stream #0:0(eng), 0, 1/1000: Video: mpeg2video (mpg2 / 0x3267706D), yuv420p, 720x480 [SAR 8:9 DAR 4:3], 1001/24000, q=2-31, 200 kb/s, 1k tbn, 23.98 tbc (default)
71Stream mapping:
72  Stream #0:0 -> #0:0 (h264 -> mpeg2video)
73Press [q] to stop, [?] for help
74[h264 @ 04912a20] no picture
75[h264 @ 06a98780] no picture
76[Parsed_fieldmatch_0 @ 04844420] SC:0 | COMBS:  -1   0   0  -1  -1 (combpel=80) match=1 combed=NO
77[Parsed_fieldmatch_0 @ 04844420] SC:0 | COMBS:  -1   0   0  -1  -1 (combpel=80) match=1 combed=NO
78[Parsed_fieldmatch_0 @ 04844420] SC:0 | COMBS:  -1   0   0  -1  -1 (combpel=80) match=1 combed=NO
79[Parsed_fieldmatch_0 @ 04844420] SC:0 | COMBS:  -1   0   0  -1  -1 (combpel=80) match=1 combed=NO
80[Parsed_fieldmatch_0 @ 04844420] SC:0 | COMBS:  -1   0   0  -1  -1 (combpel=80) match=1 combed=NO
81[Parsed_fieldmatch_0 @ 04844420] SC:0 | COMBS:  -1   0   0  -1  -1 (combpel=80) match=1 combed=NO
82[Parsed_decimate_2 @ 003a4000] 1/5 frame drop:
83[Parsed_decimate_2 @ 003a4000]   #1: totdiff=00000000 maxbdiff=00000000 dup lowest [DROP]
84[Parsed_decimate_2 @ 003a4000]   #2: totdiff=00000000 maxbdiff=00000000
85[Parsed_decimate_2 @ 003a4000]   #3: totdiff=00000000 maxbdiff=00000000
86[Parsed_decimate_2 @ 003a4000]   #4: totdiff=00000000 maxbdiff=00000000
87[Parsed_decimate_2 @ 003a4000]   #5: totdiff=00000000 maxbdiff=00000000
88[matroska @ 048afa60] Writing block at offset 585, size 5297, pts 42, dts 0, duration 42, flags 128
89[matroska @ 048afa60] Writing block at offset 5889, size 288, pts 84, dts 42, duration 42, flags 0
90[matroska @ 048afa60] Writing block at offset 6184, size 288, pts 125, dts 84, duration 42, flags 0
91[Parsed_fieldmatch_0 @ 04844420] SC:0 | COMBS:  -1   0   0  -1  -1 (combpel=80) match=1 combed=NO
92[Parsed_fieldmatch_0 @ 04844420] SC:0 | COMBS:  -1   0   0  -1  -1 (combpel=80) match=1 combed=NO
93[Parsed_fieldmatch_0 @ 04844420] SC:0 | COMBS:  -1   0   0  -1  -1 (combpel=80) match=1 combed=NO
94[Parsed_fieldmatch_0 @ 04844420] SC:0 | COMBS:  -1   0   0  -1  -1 (combpel=80) match=1 combed=NO
95[Parsed_fieldmatch_0 @ 04844420] SC:0 | COMBS:  -1   0   0  -1  -1 (combpel=80) match=1 combed=NO
96[Parsed_decimate_2 @ 003a4000] 1/5 frame drop:
97[Parsed_decimate_2 @ 003a4000]   #1: totdiff=00000000 maxbdiff=00000000 dup lowest [DROP]
98[Parsed_decimate_2 @ 003a4000]   #2: totdiff=00000000 maxbdiff=00000000
99[Parsed_decimate_2 @ 003a4000]   #3: totdiff=00000000 maxbdiff=00000000
100[Parsed_decimate_2 @ 003a4000]   #4: totdiff=00000000 maxbdiff=00000000
101[Parsed_decimate_2 @ 003a4000]   #5: totdiff=00000000 maxbdiff=00000000
102[matroska @ 048afa60] Writing block at offset 6479, size 288, pts 167, dts 125, duration 42, flags 0
103[matroska @ 048afa60] Writing block at offset 6774, size 288, pts 209, dts 167, duration 42, flags 0
104[matroska @ 048afa60] Writing block at offset 7069, size 288, pts 251, dts 209, duration 42, flags 0
105[matroska @ 048afa60] Writing block at offset 7364, size 288, pts 292, dts 251, duration 42, flags 0
106[Parsed_fieldmatch_0 @ 04844420] SC:0 | COMBS:  -1   0   0  -1  -1 (combpel=80) match=1 combed=NO
107[Parsed_fieldmatch_0 @ 04844420] SC:0 | COMBS:  -1   0   0  -1  -1 (combpel=80) match=1 combed=NO
108[Parsed_fieldmatch_0 @ 04844420] SC:0 | COMBS:  -1   0   0  -1  -1 (combpel=80) match=1 combed=NO
109[Parsed_fieldmatch_0 @ 04844420] SC:0 | COMBS:  -1   0   0  -1  -1 (combpel=80) match=1 combed=NO
110[Parsed_fieldmatch_0 @ 04844420] SC:0 | COMBS:  -1   0   0  -1  -1 (combpel=80) match=1 combed=NO
111[Parsed_decimate_2 @ 003a4000] 1/5 frame drop:
112[Parsed_decimate_2 @ 003a4000]   #1: totdiff=00000000 maxbdiff=00000000 dup lowest [DROP]
113[Parsed_decimate_2 @ 003a4000]   #2: totdiff=00000000 maxbdiff=00000000
114[Parsed_decimate_2 @ 003a4000]   #3: totdiff=00000000 maxbdiff=00000000
115[Parsed_decimate_2 @ 003a4000]   #4: totdiff=00000000 maxbdiff=00000000
116[Parsed_decimate_2 @ 003a4000]   #5: totdiff=00000000 maxbdiff=00000000
117[matroska @ 048afa60] Writing block at offset 7659, size 288, pts 334, dts 292, duration 42, flags 0
118[matroska @ 048afa60] Writing block at offset 7954, size 288, pts 376, dts 334, duration 42, flags 0
119[matroska @ 048afa60] Writing block at offset 8249, size 288, pts 417, dts 376, duration 42, flags 0
120[matroska @ 048afa60] Writing block at offset 8544, size 288, pts 459, dts 417, duration 42, flags 0
121[Parsed_fieldmatch_0 @ 04844420] SC:0 | COMBS:  -1   0   0  -1  -1 (combpel=80) match=1 combed=NO
122[Parsed_fieldmatch_0 @ 04844420] SC:0 | COMBS:  -1   0   0  -1  -1 (combpel=80) match=1 combed=NO
123[Parsed_fieldmatch_0 @ 04844420] SC:0 | COMBS:  -1   0   0  -1  -1 (combpel=80) match=1 combed=NO
124[Parsed_fieldmatch_0 @ 04844420] SC:0 | COMBS:  -1   0   0  -1  -1 (combpel=80) match=1 combed=NO
125[Parsed_fieldmatch_0 @ 04844420] SC:0 | COMBS:  -1   0   0  -1  -1 (combpel=80) match=1 combed=NO
126[Parsed_decimate_2 @ 003a4000] 1/5 frame drop:
127[Parsed_decimate_2 @ 003a4000]   #1: totdiff=00000000 maxbdiff=00000000 dup lowest [DROP]
128[Parsed_decimate_2 @ 003a4000]   #2: totdiff=00000000 maxbdiff=00000000
129[Parsed_decimate_2 @ 003a4000]   #3: totdiff=00000000 maxbdiff=00000000
130[Parsed_decimate_2 @ 003a4000]   #4: totdiff=00000000 maxbdiff=00000000
131[Parsed_decimate_2 @ 003a4000]   #5: totdiff=00000000 maxbdiff=00000000
132[matroska @ 048afa60] Writing block at offset 8839, size 288, pts 501, dts 459, duration 42, flags 0
133[matroska @ 048afa60] Starting new cluster at offset 9134 bytes, pts 543dts 501
134[matroska @ 048afa60] Writing block at offset 9150, size 5297, pts 543, dts 501, duration 42, flags 128
135[matroska @ 048afa60] Writing block at offset 14454, size 288, pts 584, dts 543, duration 42, flags 0
136[matroska @ 048afa60] Writing block at offset 14749, size 288, pts 626, dts 584, duration 42, flags 0
137[Parsed_fieldmatch_0 @ 04844420] SC:0 | COMBS:  -1   0   0  -1  -1 (combpel=80) match=1 combed=NO
138[Parsed_fieldmatch_0 @ 04844420] SC:0 | COMBS:  -1   0   0  -1  -1 (combpel=80) match=1 combed=NO
139[Parsed_fieldmatch_0 @ 04844420] SC:0 | COMBS:  -1   0   0  -1  -1 (combpel=80) match=1 combed=NO
140[Parsed_fieldmatch_0 @ 04844420] SC:0 | COMBS:  -1   0   0  -1  -1 (combpel=80) match=1 combed=NO
141[Parsed_fieldmatch_0 @ 04844420] SC:0 | COMBS:  -1   0   0  -1  -1 (combpel=80) match=1 combed=NO
142[Parsed_decimate_2 @ 003a4000] 1/5 frame drop:
143[Parsed_decimate_2 @ 003a4000]   #1: totdiff=00000000 maxbdiff=00000000 dup lowest [DROP]
144[Parsed_decimate_2 @ 003a4000]   #2: totdiff=00000000 maxbdiff=00000000
145[Parsed_decimate_2 @ 003a4000]   #3: totdiff=00000000 maxbdiff=00000000
146[Parsed_decimate_2 @ 003a4000]   #4: totdiff=00000000 maxbdiff=00000000
147[Parsed_decimate_2 @ 003a4000]   #5: totdiff=00000000 maxbdiff=00000000
148[matroska @ 048afa60] Writing block at offset 15044, size 288, pts 668, dts 626, duration 42, flags 0
149[matroska @ 048afa60] Writing block at offset 15339, size 288, pts 709, dts 668, duration 42, flags 0
150[matroska @ 048afa60] Writing block at offset 15634, size 288, pts 751, dts 709, duration 42, flags 0
151[matroska @ 048afa60] Writing block at offset 15929, size 288, pts 793, dts 751, duration 42, flags 0
152[Parsed_fieldmatch_0 @ 04844420] SC:0 | COMBS:  -1   0   0  -1  -1 (combpel=80) match=1 combed=NO
153[Parsed_fieldmatch_0 @ 04844420] SC:0 | COMBS:  -1   0   0  -1  -1 (combpel=80) match=1 combed=NO
154[Parsed_fieldmatch_0 @ 04844420] SC:0 | COMBS:  -1   0   0  -1  -1 (combpel=80) match=1 combed=NO
155[Parsed_fieldmatch_0 @ 04844420] SC:0 | COMBS:  -1   0   0  -1  -1 (combpel=80) match=1 combed=NO
156[Parsed_fieldmatch_0 @ 04844420] SC:0 | COMBS:  -1   0   0  -1  -1 (combpel=80) match=1 combed=NO
157[Parsed_decimate_2 @ 003a4000] 1/5 frame drop:
158[Parsed_decimate_2 @ 003a4000]   #1: totdiff=00000000 maxbdiff=00000000 dup lowest [DROP]
159[Parsed_decimate_2 @ 003a4000]   #2: totdiff=00000000 maxbdiff=00000000
160[Parsed_decimate_2 @ 003a4000]   #3: totdiff=00000000 maxbdiff=00000000
161[Parsed_decimate_2 @ 003a4000]   #4: totdiff=00000000 maxbdiff=00000000
162[Parsed_decimate_2 @ 003a4000]   #5: totdiff=00000000 maxbdiff=00000000
163[matroska @ 048afa60] Writing block at offset 16224, size 288, pts 834, dts 793, duration 42, flags 0
164[matroska @ 048afa60] Writing block at offset 16519, size 288, pts 876, dts 834, duration 42, flags 0
165[matroska @ 048afa60] Writing block at offset 16814, size 288, pts 918, dts 876, duration 42, flags 0
166[matroska @ 048afa60] Writing block at offset 17109, size 288, pts 960, dts 918, duration 42, flags 0
167[Parsed_fieldmatch_0 @ 04844420] SC:0 | COMBS:  -1   0   0  -1  -1 (combpel=80) match=1 combed=NO
168[Parsed_fieldmatch_0 @ 04844420] SC:0 | COMBS:  -1   0   0  -1  -1 (combpel=80) match=1 combed=NO
169[Parsed_fieldmatch_0 @ 04844420] SC:0 | COMBS:  -1   0   0  -1  -1 (combpel=80) match=1 combed=NO
170[Parsed_fieldmatch_0 @ 04844420] SC:0 | COMBS:  -1   0   0  -1  -1 (combpel=80) match=1 combed=NO
171[Parsed_fieldmatch_0 @ 04844420] SC:0 | COMBS:  -1   0   0  -1  -1 (combpel=80) match=1 combed=NO
172[Parsed_decimate_2 @ 003a4000] 1/5 frame drop:
173[Parsed_decimate_2 @ 003a4000]   #1: totdiff=00000000 maxbdiff=00000000 dup lowest [DROP]
174[Parsed_decimate_2 @ 003a4000]   #2: totdiff=00000000 maxbdiff=00000000
175[Parsed_decimate_2 @ 003a4000]   #3: totdiff=00000000 maxbdiff=00000000
176[Parsed_decimate_2 @ 003a4000]   #4: totdiff=00000000 maxbdiff=00000000
177[Parsed_decimate_2 @ 003a4000]   #5: totdiff=00000000 maxbdiff=00000000
178[matroska @ 048afa60] Writing block at offset 17404, size 288, pts 1001, dts 960, duration 42, flags 0
179[matroska @ 048afa60] Starting new cluster at offset 17699 bytes, pts 1043dts 1001
180[matroska @ 048afa60] Writing block at offset 17715, size 5297, pts 1043, dts 1001, duration 42, flags 128
181[matroska @ 048afa60] Writing block at offset 23019, size 288, pts 1085, dts 1043, duration 42, flags 0
182[matroska @ 048afa60] Writing block at offset 23314, size 288, pts 1126, dts 1085, duration 42, flags 0
183[Parsed_fieldmatch_0 @ 04844420] SC:0 | COMBS:  -1   0   0  -1  -1 (combpel=80) match=1 combed=NO
184[Parsed_fieldmatch_0 @ 04844420] SC:0 | COMBS:  -1   0   0  -1  -1 (combpel=80) match=1 combed=NO
185[Parsed_fieldmatch_0 @ 04844420] SC:0 | COMBS:  -1   0   0  -1  -1 (combpel=80) match=1 combed=NO
186[Parsed_fieldmatch_0 @ 04844420] SC:0 | COMBS:  -1   0   0  -1  -1 (combpel=80) match=1 combed=NO
187[Parsed_fieldmatch_0 @ 04844420] SC:0 | COMBS:  -1   0   0  -1  -1 (combpel=80) match=1 combed=NO
188[Parsed_decimate_2 @ 003a4000] 1/5 frame drop:
189[Parsed_decimate_2 @ 003a4000]   #1: totdiff=00000000 maxbdiff=00000000 dup lowest [DROP]
190[Parsed_decimate_2 @ 003a4000]   #2: totdiff=00000000 maxbdiff=00000000
191[Parsed_decimate_2 @ 003a4000]   #3: totdiff=00000000 maxbdiff=00000000
192[Parsed_decimate_2 @ 003a4000]   #4: totdiff=00000000 maxbdiff=00000000
193[Parsed_decimate_2 @ 003a4000]   #5: totdiff=00000000 maxbdiff=00000000
194[matroska @ 048afa60] Writing block at offset 23609, size 288, pts 1168, dts 1126, duration 42, flags 0
195[matroska @ 048afa60] Writing block at offset 23904, size 288, pts 1210, dts 1168, duration 42, flags 0
196[matroska @ 048afa60] Writing block at offset 24199, size 288, pts 1252, dts 1210, duration 42, flags 0
197[matroska @ 048afa60] Writing block at offset 24494, size 288, pts 1293, dts 1252, duration 42, flags 0
198[Parsed_fieldmatch_0 @ 04844420] SC:0 | COMBS:  -1   0   0  -1  -1 (combpel=80) match=1 combed=NO
199[Parsed_fieldmatch_0 @ 04844420] SC:0 | COMBS:  -1   0   0  -1  -1 (combpel=80) match=1 combed=NO
200[Parsed_fieldmatch_0 @ 04844420] SC:0 | COMBS:  -1   0   0  -1  -1 (combpel=80) match=1 combed=NO
201[Parsed_fieldmatch_0 @ 04844420] SC:0 | COMBS:  -1   0   0  -1  -1 (combpel=80) match=1 combed=NO
202[Parsed_fieldmatch_0 @ 04844420] SC:0 | COMBS:  -1   0   0  -1  -1 (combpel=80) match=1 combed=NO
203[Parsed_decimate_2 @ 003a4000] 1/5 frame drop:
204[Parsed_decimate_2 @ 003a4000]   #1: totdiff=00000000 maxbdiff=00000000 dup lowest [DROP]
205[Parsed_decimate_2 @ 003a4000]   #2: totdiff=00000000 maxbdiff=00000000
206[Parsed_decimate_2 @ 003a4000]   #3: totdiff=00000000 maxbdiff=00000000
207[Parsed_decimate_2 @ 003a4000]   #4: totdiff=00000000 maxbdiff=00000000
208[Parsed_decimate_2 @ 003a4000]   #5: totdiff=00000000 maxbdiff=00000000
209[matroska @ 048afa60] Writing block at offset 24789, size 288, pts 1335, dts 1293, duration 42, flags 0
210[matroska @ 048afa60] Writing block at offset 25084, size 288, pts 1377, dts 1335, duration 42, flags 0
211[matroska @ 048afa60] Writing block at offset 25379, size 288, pts 1418, dts 1377, duration 42, flags 0
212[matroska @ 048afa60] Writing block at offset 25674, size 288, pts 1460, dts 1418, duration 42, flags 0
213[Parsed_fieldmatch_0 @ 04844420] SC:0 | COMBS:  -1   0   0  -1  -1 (combpel=80) match=1 combed=NO
214[Parsed_fieldmatch_0 @ 04844420] SC:0 | COMBS:  -1   0   0  -1  -1 (combpel=80) match=1 combed=NO
215[Parsed_fieldmatch_0 @ 04844420] SC:0 | COMBS:  -1   0   0  -1  -1 (combpel=80) match=1 combed=NO
216[Parsed_fieldmatch_0 @ 04844420] SC:0 | COMBS:  -1   0   0  -1  -1 (combpel=80) match=1 combed=NO
217[Parsed_fieldmatch_0 @ 04844420] SC:0 | COMBS:  -1   0   0  -1  -1 (combpel=80) match=1 combed=NO
218[Parsed_decimate_2 @ 003a4000] 1/5 frame drop:
219[Parsed_decimate_2 @ 003a4000]   #1: totdiff=00000000 maxbdiff=00000000 dup lowest [DROP]
220[Parsed_decimate_2 @ 003a4000]   #2: totdiff=00000000 maxbdiff=00000000
221[Parsed_decimate_2 @ 003a4000]   #3: totdiff=00000000 maxbdiff=00000000
222[Parsed_decimate_2 @ 003a4000]   #4: totdiff=00000000 maxbdiff=00000000
223[Parsed_decimate_2 @ 003a4000]   #5: totdiff=00000000 maxbdiff=00000000
224[matroska @ 048afa60] Writing block at offset 25969, size 288, pts 1502, dts 1460, duration 42, flags 0
225[matroska @ 048afa60] Starting new cluster at offset 26264 bytes, pts 1544dts 1502
226[matroska @ 048afa60] Writing block at offset 26280, size 5297, pts 1544, dts 1502, duration 42, flags 128
227[matroska @ 048afa60] Writing block at offset 31584, size 288, pts 1585, dts 1544, duration 42, flags 0
228[matroska @ 048afa60] Writing block at offset 31879, size 288, pts 1627, dts 1585, duration 42, flags 0
229[Parsed_fieldmatch_0 @ 04844420] SC:0 | COMBS:  -1   0   0  -1  -1 (combpel=80) match=1 combed=NO
230[Parsed_fieldmatch_0 @ 04844420] SC:0 | COMBS:  -1   0   0  -1  -1 (combpel=80) match=1 combed=NO
231[Parsed_fieldmatch_0 @ 04844420] SC:0 | COMBS:  -1   0   0  -1  -1 (combpel=80) match=1 combed=NO
232[Parsed_fieldmatch_0 @ 04844420] SC:0 | COMBS:  -1   0   0  -1  -1 (combpel=80) match=1 combed=NO
233[Parsed_fieldmatch_0 @ 04844420] SC:0 | COMBS:  -1   0   0  -1  -1 (combpel=80) match=1 combed=NO
234[Parsed_decimate_2 @ 003a4000] 1/5 frame drop:
235[Parsed_decimate_2 @ 003a4000]   #1: totdiff=00000000 maxbdiff=00000000 dup lowest [DROP]
236[Parsed_decimate_2 @ 003a4000]   #2: totdiff=00000000 maxbdiff=00000000
237[Parsed_decimate_2 @ 003a4000]   #3: totdiff=00000000 maxbdiff=00000000
238[Parsed_decimate_2 @ 003a4000]   #4: totdiff=00000000 maxbdiff=00000000
239[Parsed_decimate_2 @ 003a4000]   #5: totdiff=00000000 maxbdiff=00000000
240[matroska @ 048afa60] Writing block at offset 32174, size 288, pts 1669, dts 1627, duration 42, flags 0
241[matroska @ 048afa60] Writing block at offset 32469, size 288, pts 1710, dts 1669, duration 42, flags 0
242[matroska @ 048afa60] Writing block at offset 32764, size 288, pts 1752, dts 1710, duration 42, flags 0
243[matroska @ 048afa60] Writing block at offset 33059, size 288, pts 1794, dts 1752, duration 42, flags 0
244[Parsed_fieldmatch_0 @ 04844420] SC:0 | COMBS:  -1   0   0  -1  -1 (combpel=80) match=1 combed=NO
245[Parsed_fieldmatch_0 @ 04844420] SC:0 | COMBS:  -1   0   0  -1  -1 (combpel=80) match=1 combed=NO
246[Parsed_fieldmatch_0 @ 04844420] SC:0 | COMBS:  -1   0   0  -1  -1 (combpel=80) match=1 combed=NO
247[Parsed_fieldmatch_0 @ 04844420] SC:0 | COMBS:  -1   0   0  -1  -1 (combpel=80) match=1 combed=NO
248[Parsed_fieldmatch_0 @ 04844420] SC:0 | COMBS:  -1   0  77  -1  -1 (combpel=80) match=1 combed=NO
249[Parsed_decimate_2 @ 003a4000] 1/5 frame drop:
250[Parsed_decimate_2 @ 003a4000]   #1: totdiff=00000000 maxbdiff=00000000 dup lowest [DROP]
251[Parsed_decimate_2 @ 003a4000]   #2: totdiff=00000000 maxbdiff=00000000
252[Parsed_decimate_2 @ 003a4000]   #3: totdiff=00000000 maxbdiff=00000000
253[Parsed_decimate_2 @ 003a4000]   #4: totdiff=00000000 maxbdiff=00000000
254[Parsed_decimate_2 @ 003a4000]   #5: totdiff=00000000 maxbdiff=00000000
255[matroska @ 048afa60] Writing block at offset 33354, size 288, pts 1835, dts 1794, duration 42, flags 0
256[matroska @ 048afa60] Writing block at offset 33649, size 288, pts 1877, dts 1835, duration 42, flags 0
257[matroska @ 048afa60] Writing block at offset 33944, size 288, pts 1919, dts 1877, duration 42, flags 0
258[matroska @ 048afa60] Writing block at offset 34239, size 288, pts 1961, dts 1919, duration 42, flags 0
259[Parsed_fieldmatch_0 @ 04844420] SC:0 | COMBS:  -1   0 110  -1  -1 (combpel=80) match=1 combed=NO
260[Parsed_fieldmatch_0 @ 04844420] SC:0 | COMBS:  -1   0 103  -1  -1 (combpel=80) match=1 combed=NO
261[Parsed_fieldmatch_0 @ 04844420] SC:0 | COMBS:  -1   0  71  -1  -1 (combpel=80) match=1 combed=NO
262[Parsed_fieldmatch_0 @ 04844420] SC:0 | COMBS:  -1   0 117  -1  -1 (combpel=80) match=1 combed=NO
263[Parsed_fieldmatch_0 @ 04844420] SC:0 | COMBS:  -1   0 128  -1  -1 (combpel=80) match=1 combed=NO
264[Parsed_decimate_2 @ 003a4000] 1/5 frame drop:
265[Parsed_decimate_2 @ 003a4000]   #1: totdiff=0005e240 maxbdiff=000009c0 dup lowest [DROP]
266[Parsed_decimate_2 @ 003a4000]   #2: totdiff=000b5a68 maxbdiff=00002022
267[Parsed_decimate_2 @ 003a4000]   #3: totdiff=000abf42 maxbdiff=00001cb3
268[Parsed_decimate_2 @ 003a4000]   #4: totdiff=000aa8ec maxbdiff=00001d30
269[Parsed_decimate_2 @ 003a4000]   #5: totdiff=000b3f86 maxbdiff=00001bdc
270[matroska @ 048afa60] Writing block at offset 34534, size 288, pts 2002, dts 1961, duration 42, flags 0
271[matroska @ 048afa60] Starting new cluster at offset 34829 bytes, pts 2044dts 2002
272[matroska @ 048afa60] Writing block at offset 34845, size 8127, pts 2044, dts 2002, duration 42, flags 128
273[matroska @ 048afa60] Writing block at offset 42979, size 9484, pts 2086, dts 2044, duration 42, flags 0
274[matroska @ 048afa60] Writing block at offset 52470, size 9943, pts 2127, dts 2086, duration 42, flags 0
275[Parsed_fieldmatch_0 @ 04844420] SC:0 | COMBS:  -1   0 100  -1  -1 (combpel=80) match=1 combed=NO
276[Parsed_fieldmatch_0 @ 04844420] SC:0 | COMBS:  -1   0  63  -1  -1 (combpel=80) match=1 combed=NO
277[Parsed_fieldmatch_0 @ 04844420] SC:0 | COMBS:  -1   1  80  -1  -1 (combpel=80) match=1 combed=NO
278[Parsed_fieldmatch_0 @ 04844420] SC:0 | COMBS:  -1   2  59  -1  -1 (combpel=80) match=1 combed=NO
279[Parsed_fieldmatch_0 @ 04844420] SC:0 | COMBS:  -1   1  54  -1  -1 (combpel=80) match=1 combed=NO
280[Parsed_decimate_2 @ 003a4000] 1/5 frame drop:
281[Parsed_decimate_2 @ 003a4000]   #1: totdiff=000ca144 maxbdiff=00001ebc
282[Parsed_decimate_2 @ 003a4000]   #2: totdiff=000b2f81 maxbdiff=00001ca9
283[Parsed_decimate_2 @ 003a4000]   #3: totdiff=000ba158 maxbdiff=00001d2d
284[Parsed_decimate_2 @ 003a4000]   #4: totdiff=000b94a3 maxbdiff=00001af0 lowest [DROP]
285[Parsed_decimate_2 @ 003a4000]   #5: totdiff=000c3768 maxbdiff=00001eb7
286[matroska @ 048afa60] Writing block at offset 62420, size 10072, pts 2169, dts 2127, duration 42, flags 0
287[matroska @ 048afa60] Writing block at offset 72499, size 10901, pts 2211, dts 2169, duration 42, flags 0
288[matroska @ 048afa60] Writing block at offset 83407, size 10862, pts 2253, dts 2211, duration 42, flags 0
289[matroska @ 048afa60] Writing block at offset 94276, size 11434, pts 2294, dts 2253, duration 42, flags 0
290[Parsed_fieldmatch_0 @ 04844420] SC:0 | COMBS:  -1   1  51  -1  -1 (combpel=80) match=1 combed=NO
291[Parsed_fieldmatch_0 @ 04844420] SC:0 | COMBS:  -1   1  58  -1  -1 (combpel=80) match=1 combed=NO
292[Parsed_fieldmatch_0 @ 04844420] SC:0 | COMBS:  -1   1  58  -1  -1 (combpel=80) match=1 combed=NO
293[Parsed_fieldmatch_0 @ 04844420] SC:0 | COMBS:  -1   1  45  -1  -1 (combpel=80) match=1 combed=NO
294[Parsed_fieldmatch_0 @ 04844420] SC:0 | COMBS:  -1   1 191  -1  -1 (combpel=80) match=1 combed=NO
295[Parsed_decimate_2 @ 003a4000] 1/5 frame drop:
296[Parsed_decimate_2 @ 003a4000]   #1: totdiff=000d24e5 maxbdiff=00001d9a
297[Parsed_decimate_2 @ 003a4000]   #2: totdiff=000b23a7 maxbdiff=00001c98
298[Parsed_decimate_2 @ 003a4000]   #3: totdiff=000b9130 maxbdiff=00001b9e lowest [DROP]
299[Parsed_decimate_2 @ 003a4000]   #4: totdiff=000bfc04 maxbdiff=00001e9a
300[Parsed_decimate_2 @ 003a4000]   #5: totdiff=000bd7fd maxbdiff=00001e59
301[matroska @ 048afa60] Writing block at offset 105717, size 11113, pts 2336, dts 2294, duration 42, flags 0
302[matroska @ 048afa60] Writing block at offset 116837, size 9212, pts 2378, dts 2336, duration 42, flags 0
303[matroska @ 048afa60] Writing block at offset 126056, size 8302, pts 2419, dts 2378, duration 42, flags 0
304[matroska @ 048afa60] Writing block at offset 134365, size 9307, pts 2461, dts 2419, duration 42, flags 0
305[Parsed_fieldmatch_0 @ 04844420] SC:0 | COMBS:   8  -1 230  -1  -1 (combpel=80) match=0 combed=NO
306[Parsed_fieldmatch_0 @ 04844420] SC:0 | COMBS:  13  -1 210  -1  -1 (combpel=80) match=0 combed=NO
307[Parsed_fieldmatch_0 @ 04844420] SC:0 | COMBS:  -1   4 182  -1  -1 (combpel=80) match=1 combed=NO
308[Parsed_fieldmatch_0 @ 04844420] SC:0 | COMBS:  -1   5 136  -1  -1 (combpel=80) match=1 combed=NO
309[Parsed_fieldmatch_0 @ 04844420] SC:0 | COMBS:  -1   4   4  -1  -1 (combpel=80) match=1 combed=NO
310[Parsed_decimate_2 @ 003a4000] 1/5 frame drop:
311[Parsed_decimate_2 @ 003a4000]   #1: totdiff=000b2f3c maxbdiff=00001b41
312[Parsed_decimate_2 @ 003a4000]   #2: totdiff=0004b6d1 maxbdiff=00000e94 lowest [DROP]
313[Parsed_decimate_2 @ 003a4000]   #3: totdiff=000bb600 maxbdiff=00008d4c
314[Parsed_decimate_2 @ 003a4000]   #4: totdiff=001365af maxbdiff=0000929d
315[Parsed_decimate_2 @ 003a4000]   #5: totdiff=000e2bf2 maxbdiff=000087a5
316[matroska @ 048afa60] Writing block at offset 143679, size 6753, pts 2503, dts 2461, duration 42, flags 0
317[matroska @ 048afa60] Starting new cluster at offset 150439 bytes, pts 2545dts 2503
318[matroska @ 048afa60] Writing block at offset 150455, size 15897, pts 2545, dts 2503, duration 42, flags 128
319[matroska @ 048afa60] Writing block at offset 166359, size 7839, pts 2586, dts 2545, duration 42, flags 0
320[matroska @ 048afa60] Writing block at offset 174205, size 6529, pts 2628, dts 2586, duration 42, flags 0
321[Parsed_fieldmatch_0 @ 04844420] SC:0 | COMBS:  -1   4 118  -1  -1 (combpel=80) match=1 combed=NO
322frame=   64 fps=0.0 q=7.5 size=     177kB time=00:00:02.58 bitrate= 559.1kbits/s   
323[Parsed_fieldmatch_0 @ 04844420] SC:0 | COMBS:   8  -1 111  -1  -1 (combpel=80) match=0 combed=NO
324[Parsed_fieldmatch_0 @ 04844420] SC:0 | COMBS:  -1   4   4  -1  -1 (combpel=80) match=1 combed=NO
325[Parsed_fieldmatch_0 @ 04844420] SC:0 | COMBS:  -1   4   4  -1  -1 (combpel=80) match=1 combed=NO
326[Parsed_fieldmatch_0 @ 04844420] SC:0 | COMBS:  -1   4 123  -1  -1 (combpel=80) match=1 combed=NO
327[Parsed_decimate_2 @ 003a4000] 1/5 frame drop:
328[Parsed_decimate_2 @ 003a4000]   #1: totdiff=000acdb3 maxbdiff=00004ee6
329[Parsed_decimate_2 @ 003a4000]   #2: totdiff=00016283 maxbdiff=00000559
330[Parsed_decimate_2 @ 003a4000]   #3: totdiff=0000a8b5 maxbdiff=00000bf1
331[Parsed_decimate_2 @ 003a4000]   #4: totdiff=00026f9d maxbdiff=000041c5
332[Parsed_decimate_2 @ 003a4000]   #5: totdiff=0000767b maxbdiff=000002c1 dup lowest [DROP]
333[matroska @ 048afa60] Writing block at offset 180741, size 4635, pts 2670, dts 2628, duration 42, flags 0
334[matroska @ 048afa60] Writing block at offset 185383, size 3825, pts 2711, dts 2670, duration 42, flags 0
335[matroska @ 048afa60] Writing block at offset 189215, size 1272, pts 2753, dts 2711, duration 42, flags 0
336[matroska @ 048afa60] Writing block at offset 190494, size 1603, pts 2795, dts 2753, duration 42, flags 0
337[Parsed_fieldmatch_0 @ 04844420] SC:0 | COMBS:   5  -1 123  -1  -1 (combpel=80) match=0 combed=NO
338[Parsed_fieldmatch_0 @ 04844420] SC:0 | COMBS:  -1   4   4  -1  -1 (combpel=80) match=1 combed=NO
339[Parsed_fieldmatch_0 @ 04844420] SC:0 | COMBS:  -1   4 148  -1  -1 (combpel=80) match=1 combed=NO
340[Parsed_fieldmatch_0 @ 04844420] SC:0 | COMBS:  -1   5 150  -1  -1 (combpel=80) match=1 combed=NO
341[Parsed_fieldmatch_0 @ 04844420] SC:0 | COMBS:  -1   4 114  -1  -1 (combpel=80) match=1 combed=NO
342[Parsed_decimate_2 @ 003a4000] 1/5 frame drop:
343[Parsed_decimate_2 @ 003a4000]   #1: totdiff=0000b35d maxbdiff=000006c4
344[Parsed_decimate_2 @ 003a4000]   #2: totdiff=00006896 maxbdiff=00000aba
345[Parsed_decimate_2 @ 003a4000]   #3: totdiff=0002094c maxbdiff=00005776
346[Parsed_decimate_2 @ 003a4000]   #4: totdiff=00004a8c maxbdiff=000004d7 dup lowest [DROP]
347[Parsed_decimate_2 @ 003a4000]   #5: totdiff=000224d3 maxbdiff=00005c3b
348[matroska @ 048afa60] Writing block at offset 192104, size 1492, pts 2836, dts 2795, duration 42, flags 0
349[matroska @ 048afa60] Writing block at offset 193603, size 1976, pts 2878, dts 2836, duration 42, flags 0
350[matroska @ 048afa60] Writing block at offset 195586, size 808, pts 2920, dts 2878, duration 42, flags 0
351[matroska @ 048afa60] Writing block at offset 196401, size 1306, pts 2962, dts 2920, duration 42, flags 0
352[Parsed_fieldmatch_0 @ 04844420] SC:0 | COMBS:   6  -1 215  -1  -1 (combpel=80) match=0 combed=NO
353[Parsed_fieldmatch_0 @ 04844420] SC:0 | COMBS:  13  -1 193  -1  -1 (combpel=80) match=0 combed=NO
354[Parsed_fieldmatch_0 @ 04844420] SC:0 | COMBS:  -1   5 161  -1  -1 (combpel=80) match=1 combed=NO
355[Parsed_fieldmatch_0 @ 04844420] SC:0 | COMBS:  -1   4 157  -1  -1 (combpel=80) match=1 combed=NO
356[Parsed_fieldmatch_0 @ 04844420] SC:0 | COMBS:  -1   5 113  -1  -1 (combpel=80) match=1 combed=NO
357[Parsed_decimate_2 @ 003a4000] 1/5 frame drop:
358[Parsed_decimate_2 @ 003a4000]   #1: totdiff=0002c2e1 maxbdiff=00007648
359[Parsed_decimate_2 @ 003a4000]   #2: totdiff=000080fc maxbdiff=00000ca6 lowest [DROP]
360[Parsed_decimate_2 @ 003a4000]   #3: totdiff=00022153 maxbdiff=000066aa
361[Parsed_decimate_2 @ 003a4000]   #4: totdiff=0003013f maxbdiff=000072fc
362[Parsed_decimate_2 @ 003a4000]   #5: totdiff=00029419 maxbdiff=00008f1b
363[matroska @ 048afa60] Writing block at offset 197714, size 1313, pts 3003, dts 2962, duration 42, flags 0
364[matroska @ 048afa60] Starting new cluster at offset 199034 bytes, pts 3045dts 3003
365[matroska @ 048afa60] Writing block at offset 199050, size 18346, pts 3045, dts 3003, duration 42, flags 128
366[matroska @ 048afa60] Writing block at offset 217404, size 1404, pts 3087, dts 3045, duration 42, flags 0
367[matroska @ 048afa60] Writing block at offset 218815, size 1309, pts 3128, dts 3087, duration 42, flags 0
368[Parsed_fieldmatch_0 @ 04844420] SC:0 | COMBS:   4  -1 121  -1  -1 (combpel=80) match=0 combed=NO
369[Parsed_fieldmatch_0 @ 04844420] SC:0 | COMBS:   8  -1  67  -1  -1 (combpel=80) match=0 combed=NO
370[Parsed_fieldmatch_0 @ 04844420] SC:0 | COMBS:  -1   4  81  -1  -1 (combpel=80) match=1 combed=NO
371[Parsed_fieldmatch_0 @ 04844420] SC:0 | COMBS:  -1   4 154  -1  -1 (combpel=80) match=1 combed=NO
372[Parsed_fieldmatch_0 @ 04844420] SC:0 | COMBS:  -1   4 173  -1  -1 (combpel=80) match=1 combed=NO
373[Parsed_decimate_2 @ 003a4000] 1/5 frame drop:
374[Parsed_decimate_2 @ 003a4000]   #1: totdiff=00029b0c maxbdiff=0000800a
375[Parsed_decimate_2 @ 003a4000]   #2: totdiff=00005a1b maxbdiff=00000721 dup lowest [DROP]
376[Parsed_decimate_2 @ 003a4000]   #3: totdiff=00015f7c maxbdiff=000040aa
377[Parsed_decimate_2 @ 003a4000]   #4: totdiff=000100e2 maxbdiff=000020d6
378[Parsed_decimate_2 @ 003a4000]   #5: totdiff=00015b2c maxbdiff=000029be
379[matroska @ 048afa60] Writing block at offset 220131, size 1099, pts 3170, dts 3128, duration 42, flags 0
380[matroska @ 048afa60] Writing block at offset 221237, size 1458, pts 3212, dts 3170, duration 42, flags 0
381[matroska @ 048afa60] Writing block at offset 222702, size 1069, pts 3254, dts 3212, duration 42, flags 0
382[matroska @ 048afa60] Writing block at offset 223778, size 1010, pts 3295, dts 3254, duration 42, flags 0
383[Parsed_fieldmatch_0 @ 04844420] SC:0 | COMBS:  11  -1 222  -1  -1 (combpel=80) match=0 combed=NO
384[Parsed_fieldmatch_0 @ 04844420] SC:0 | COMBS:  11  -1 148  -1  -1 (combpel=80) match=0 combed=NO
385[Parsed_fieldmatch_0 @ 04844420] SC:0 | COMBS:  -1   8 222  -1  -1 (combpel=80) match=1 combed=NO
386[Parsed_fieldmatch_0 @ 04844420] SC:0 | COMBS:  -1   4 249  -1  -1 (combpel=80) match=1 combed=NO
387[Parsed_fieldmatch_0 @ 04844420] SC:0 | COMBS:  -1   6 229  -1  -1 (combpel=80) match=1 combed=NO
388[Parsed_decimate_2 @ 003a4000] 1/5 frame drop:
389[Parsed_decimate_2 @ 003a4000]   #1: totdiff=00018183 maxbdiff=00004237
390[Parsed_decimate_2 @ 003a4000]   #2: totdiff=00005f6d maxbdiff=0000085f dup lowest [DROP]
391[Parsed_decimate_2 @ 003a4000]   #3: totdiff=00017baa maxbdiff=00004024
392[Parsed_decimate_2 @ 003a4000]   #4: totdiff=0001e52d maxbdiff=00003b90
393[Parsed_decimate_2 @ 003a4000]   #5: totdiff=0001da48 maxbdiff=000047b7
394[matroska @ 048afa60] Writing block at offset 224795, size 970, pts 3337, dts 3295, duration 42, flags 0
395[matroska @ 048afa60] Writing block at offset 225772, size 1087, pts 3379, dts 3337, duration 42, flags 0
396[matroska @ 048afa60] Writing block at offset 226866, size 1189, pts 3420, dts 3379, duration 42, flags 0
397[matroska @ 048afa60] Writing block at offset 228062, size 979, pts 3462, dts 3420, duration 42, flags 0
398[Parsed_fieldmatch_0 @ 04844420] SC:0 | COMBS:   6  -1 232  -1  -1 (combpel=80) match=0 combed=NO
399[Parsed_fieldmatch_0 @ 04844420] SC:0 | COMBS:  12  -1 210  -1  -1 (combpel=80) match=0 combed=NO
400[Parsed_fieldmatch_0 @ 04844420] SC:0 | COMBS:  -1   4 237  -1  -1 (combpel=80) match=1 combed=NO
401[Parsed_fieldmatch_0 @ 04844420] SC:0 | COMBS:  -1   4 244  -1  -1 (combpel=80) match=1 combed=NO
402[Parsed_fieldmatch_0 @ 04844420] SC:0 | COMBS:  -1   9 201  -1  -1 (combpel=80) match=1 combed=NO
403[Parsed_decimate_2 @ 003a4000] 1/5 frame drop:
404[Parsed_decimate_2 @ 003a4000]   #1: totdiff=00026878 maxbdiff=00006c48
405[Parsed_decimate_2 @ 003a4000]   #2: totdiff=00006d23 maxbdiff=000009db dup lowest [DROP]
406[Parsed_decimate_2 @ 003a4000]   #3: totdiff=0002d229 maxbdiff=000068b5
407[Parsed_decimate_2 @ 003a4000]   #4: totdiff=00037ea0 maxbdiff=0000703c
408[Parsed_decimate_2 @ 003a4000]   #5: totdiff=00040f9a maxbdiff=0000cf98
409[matroska @ 048afa60] Writing block at offset 229048, size 1019, pts 3504, dts 3462, duration 42, flags 0
410[matroska @ 048afa60] Starting new cluster at offset 230074 bytes, pts 3546dts 3504
411[matroska @ 048afa60] Writing block at offset 230090, size 16030, pts 3546, dts 3504, duration 42, flags 128
412[matroska @ 048afa60] Writing block at offset 246127, size 1583, pts 3587, dts 3546, duration 42, flags 0
413[matroska @ 048afa60] Writing block at offset 247717, size 1384, pts 3629, dts 3587, duration 42, flags 0
414[Parsed_fieldmatch_0 @ 04844420] SC:0 | COMBS:   9  -1 240  -1  -1 (combpel=80) match=0 combed=NO
415[Parsed_fieldmatch_0 @ 04844420] SC:0 | COMBS:  22  -1 237  -1  -1 (combpel=80) match=0 combed=NO
416[Parsed_fieldmatch_0 @ 04844420] SC:0 | COMBS:  -1   3 199  -1  -1 (combpel=80) match=1 combed=NO
417[Parsed_fieldmatch_0 @ 04844420] SC:0 | COMBS:  -1   3 189  -1  -1 (combpel=80) match=1 combed=NO
418[Parsed_fieldmatch_0 @ 04844420] SC:0 | COMBS:  -1   3 186  -1  -1 (combpel=80) match=1 combed=NO
419[Parsed_decimate_2 @ 003a4000] 1/5 frame drop:
420[Parsed_decimate_2 @ 003a4000]   #1: totdiff=00040f70 maxbdiff=0000a42b
421[Parsed_decimate_2 @ 003a4000]   #2: totdiff=00007064 maxbdiff=00000bd0 lowest [DROP]
422[Parsed_decimate_2 @ 003a4000]   #3: totdiff=0002391d maxbdiff=00007cb8
423[Parsed_decimate_2 @ 003a4000]   #4: totdiff=00039411 maxbdiff=000085f9
424[Parsed_decimate_2 @ 003a4000]   #5: totdiff=00022db2 maxbdiff=0000782e
425[matroska @ 048afa60] Writing block at offset 249108, size 1145, pts 3671, dts 3629, duration 42, flags 0
426[matroska @ 048afa60] Writing block at offset 250260, size 1342, pts 3712, dts 3671, duration 42, flags 0
427[matroska @ 048afa60] Writing block at offset 251609, size 992, pts 3754, dts 3712, duration 42, flags 0
428[matroska @ 048afa60] Writing block at offset 252608, size 1402, pts 3796, dts 3754, duration 42, flags 0
429[Parsed_fieldmatch_0 @ 04844420] SC:0 | COMBS:   5  -1 244  -1  -1 (combpel=80) match=0 combed=NO
430[Parsed_fieldmatch_0 @ 04844420] SC:0 | COMBS:  27  -1 183  -1  -1 (combpel=80) match=0 combed=NO
431[Parsed_fieldmatch_0 @ 04844420] SC:0 | COMBS:  -1   1 249  -1  -1 (combpel=80) match=1 combed=NO
432[Parsed_fieldmatch_0 @ 04844420] SC:0 | COMBS:  -1   1 247  -1  -1 (combpel=80) match=1 combed=NO
433[Parsed_fieldmatch_0 @ 04844420] SC:0 | COMBS:  -1   4 246  -1  -1 (combpel=80) match=1 combed=NO
434[Parsed_decimate_2 @ 003a4000] 1/5 frame drop:
435[Parsed_decimate_2 @ 003a4000]   #1: totdiff=0002ebaf maxbdiff=00007ad8
436[Parsed_decimate_2 @ 003a4000]   #2: totdiff=0000595d maxbdiff=00000c7a lowest [DROP]
437[Parsed_decimate_2 @ 003a4000]   #3: totdiff=0001fc90 maxbdiff=000068e7
438[Parsed_decimate_2 @ 003a4000]   #4: totdiff=000345be maxbdiff=000068e0
439[Parsed_decimate_2 @ 003a4000]   #5: totdiff=0005325c maxbdiff=0000c727
440[matroska @ 048afa60] Writing block at offset 254017, size 947, pts 3837, dts 3796, duration 42, flags 0
441[matroska @ 048afa60] Writing block at offset 254971, size 1274, pts 3879, dts 3837, duration 42, flags 0
442[matroska @ 048afa60] Writing block at offset 256252, size 1070, pts 3921, dts 3879, duration 42, flags 0
443[matroska @ 048afa60] Writing block at offset 257329, size 1313, pts 3963, dts 3921, duration 42, flags 0
444[Parsed_fieldmatch_0 @ 04844420] SC:0 | COMBS:   7  -1 247  -1  -1 (combpel=80) match=0 combed=NO
445[Parsed_fieldmatch_0 @ 04844420] SC:0 | COMBS:  19  -1 242  -1  -1 (combpel=80) match=0 combed=NO
446[Parsed_fieldmatch_0 @ 04844420] SC:0 | COMBS:  -1   6 243  -1  -1 (combpel=80) match=1 combed=NO
447[Parsed_fieldmatch_0 @ 04844420] SC:0 | COMBS:  -1  11 256  -1  -1 (combpel=80) match=1 combed=NO
448[Parsed_fieldmatch_0 @ 04844420] SC:0 | COMBS:  -1   4 256  -1  -1 (combpel=80) match=1 combed=NO
449[Parsed_decimate_2 @ 003a4000] 1/5 frame drop:
450[Parsed_decimate_2 @ 003a4000]   #1: totdiff=000711ab maxbdiff=0000bd02
451[Parsed_decimate_2 @ 003a4000]   #2: totdiff=000095d3 maxbdiff=00000cc8 lowest [DROP]
452[Parsed_decimate_2 @ 003a4000]   #3: totdiff=00052fa0 maxbdiff=0000d481
453[Parsed_decimate_2 @ 003a4000]   #4: totdiff=0006d014 maxbdiff=0000e1a3
454[Parsed_decimate_2 @ 003a4000]   #5: totdiff=0003fa5a maxbdiff=00010752
455[matroska @ 048afa60] Writing block at offset 258649, size 1236, pts 4004, dts 3963, duration 42, flags 0
456[matroska @ 048afa60] Starting new cluster at offset 259892 bytes, pts 4046dts 4004
457[matroska @ 048afa60] Writing block at offset 259908, size 14945, pts 4046, dts 4004, duration 42, flags 128
458[matroska @ 048afa60] Writing block at offset 274860, size 1326, pts 4088, dts 4046, duration 42, flags 0
459[matroska @ 048afa60] Writing block at offset 276193, size 1640, pts 4129, dts 4088, duration 42, flags 0
460[Parsed_fieldmatch_0 @ 04844420] SC:0 | COMBS:   8  -1 256  -1  -1 (combpel=80) match=0 combed=NO
461[Parsed_fieldmatch_0 @ 04844420] SC:0 | COMBS:  17  -1 256  -1  -1 (combpel=80) match=0 combed=NO
462[Parsed_fieldmatch_0 @ 04844420] SC:0 | COMBS:  -1   3 256  -1  -1 (combpel=80) match=1 combed=NO
463[Parsed_fieldmatch_0 @ 04844420] SC:0 | COMBS:  -1   5 256  -1  -1 (combpel=80) match=1 combed=NO
464[Parsed_fieldmatch_0 @ 04844420] SC:0 | COMBS:  -1   5 238  -1  -1 (combpel=80) match=1 combed=NO
465[Parsed_decimate_2 @ 003a4000] 1/5 frame drop:
466[Parsed_decimate_2 @ 003a4000]   #1: totdiff=000d363f maxbdiff=00013d0c
467[Parsed_decimate_2 @ 003a4000]   #2: totdiff=00013519 maxbdiff=00000e71 lowest [DROP]
468[Parsed_decimate_2 @ 003a4000]   #3: totdiff=000d2521 maxbdiff=0001174f
469[Parsed_decimate_2 @ 003a4000]   #4: totdiff=001053b2 maxbdiff=0001970a
470[Parsed_decimate_2 @ 003a4000]   #5: totdiff=000a474f maxbdiff=000100c0
471[matroska @ 048afa60] Writing block at offset 277840, size 927, pts 4171, dts 4129, duration 42, flags 0
472[matroska @ 048afa60] Writing block at offset 278774, size 2125, pts 4213, dts 4171, duration 42, flags 0
473[matroska @ 048afa60] Writing block at offset 280906, size 1935, pts 4255, dts 4213, duration 42, flags 0
474[matroska @ 048afa60] Writing block at offset 282848, size 1925, pts 4296, dts 4255, duration 42, flags 0
475[Parsed_fieldmatch_0 @ 04844420] SC:0 | COMBS:   4  -1 256  -1  -1 (combpel=80) match=0 combed=NO
476[Parsed_fieldmatch_0 @ 04844420] SC:0 | COMBS:   8  -1 256  -1  -1 (combpel=80) match=0 combed=NO
477[Parsed_fieldmatch_0 @ 04844420] SC:0 | COMBS:  -1   7 256  -1  -1 (combpel=80) match=1 combed=NO
478[Parsed_fieldmatch_0 @ 04844420] SC:0 | COMBS:  -1   5 214  -1  -1 (combpel=80) match=1 combed=NO
479[Parsed_fieldmatch_0 @ 04844420] SC:0 | COMBS:  -1   5 194  -1  -1 (combpel=80) match=1 combed=NO
480[Parsed_decimate_2 @ 003a4000] 1/5 frame drop:
481[Parsed_decimate_2 @ 003a4000]   #1: totdiff=00062396 maxbdiff=0000c2e8
482[Parsed_decimate_2 @ 003a4000]   #2: totdiff=000106d6 maxbdiff=00000b94 lowest [DROP]
483[Parsed_decimate_2 @ 003a4000]   #3: totdiff=0008956a maxbdiff=0000ea9e
484[Parsed_decimate_2 @ 003a4000]   #4: totdiff=00091931 maxbdiff=0000eb0e
485[Parsed_decimate_2 @ 003a4000]   #5: totdiff=000f0acf maxbdiff=0001067d
486[matroska @ 048afa60] Writing block at offset 284780, size 1565, pts 4338, dts 4296, duration 42, flags 0
487[matroska @ 048afa60] Writing block at offset 286352, size 1114, pts 4380, dts 4338, duration 42, flags 0
488[matroska @ 048afa60] Writing block at offset 287473, size 1497, pts 4421, dts 4380, duration 42, flags 0
489[matroska @ 048afa60] Writing block at offset 288977, size 1239, pts 4463, dts 4421, duration 42, flags 0
490[Parsed_fieldmatch_0 @ 04844420] SC:0 | COMBS:  17  -1 196  -1  -1 (combpel=80) match=0 combed=NO
491[Parsed_fieldmatch_0 @ 04844420] SC:0 | COMBS:   9  -1 203  -1  -1 (combpel=80) match=0 combed=NO
492[Parsed_fieldmatch_0 @ 04844420] SC:0 | COMBS:  -1   4 256  -1  -1 (combpel=80) match=1 combed=NO
493[Parsed_fieldmatch_0 @ 04844420] SC:0 | COMBS:  -1   2 256  -1  -1 (combpel=80) match=1 combed=NO
494[Parsed_fieldmatch_0 @ 04844420] SC:0 | COMBS:  -1   9 256  -1  -1 (combpel=80) match=1 combed=NO
495[Parsed_decimate_2 @ 003a4000] 1/5 frame drop:
496[Parsed_decimate_2 @ 003a4000]   #1: totdiff=00025f4d maxbdiff=0000ba20
497[Parsed_decimate_2 @ 003a4000]   #2: totdiff=0001141b maxbdiff=00000b89 lowest [DROP]
498[Parsed_decimate_2 @ 003a4000]   #3: totdiff=00064fe9 maxbdiff=0000aeaf
499[Parsed_decimate_2 @ 003a4000]   #4: totdiff=000380bf maxbdiff=0000a588
500[Parsed_decimate_2 @ 003a4000]   #5: totdiff=00114f56 maxbdiff=00012c3c
501[matroska @ 048afa60] Writing block at offset 290223, size 1666, pts 4505, dts 4463, duration 42, flags 0
502[matroska @ 048afa60] Starting new cluster at offset 291896 bytes, pts 4547dts 4505
503[matroska @ 048afa60] Writing block at offset 291912, size 11811, pts 4547, dts 4505, duration 42, flags 128
504[matroska @ 048afa60] Writing block at offset 303730, size 1161, pts 4588, dts 4547, duration 42, flags 0
505[matroska @ 048afa60] Writing block at offset 304898, size 855, pts 4630, dts 4588, duration 42, flags 0
506[Parsed_fieldmatch_0 @ 04844420] SC:0 | COMBS:   9  -1 256  -1  -1 (combpel=80) match=0 combed=NO
507[Parsed_fieldmatch_0 @ 04844420] SC:0 | COMBS:  11  -1 256  -1  -1 (combpel=80) match=0 combed=NO
508[Parsed_fieldmatch_0 @ 04844420] SC:0 | COMBS:  -1   9 256  -1  -1 (combpel=80) match=1 combed=NO
509[Parsed_fieldmatch_0 @ 04844420] SC:0 | COMBS:  -1   9 256  -1  -1 (combpel=80) match=1 combed=NO
510[Parsed_fieldmatch_0 @ 04844420] SC:0 | COMBS:  -1   9 255  -1  -1 (combpel=80) match=1 combed=NO
511[Parsed_decimate_2 @ 003a4000] 1/5 frame drop:
512[Parsed_decimate_2 @ 003a4000]   #1: totdiff=00079d53 maxbdiff=0000fd33
513[Parsed_decimate_2 @ 003a4000]   #2: totdiff=0001ab13 maxbdiff=00000f77 lowest [DROP]
514[Parsed_decimate_2 @ 003a4000]   #3: totdiff=0015f03f maxbdiff=000149fd
515[Parsed_decimate_2 @ 003a4000]   #4: totdiff=00353bea maxbdiff=0001e310
516[Parsed_decimate_2 @ 003a4000]   #5: totdiff=00292dcf maxbdiff=000167d0
517[matroska @ 048afa60] Writing block at offset 305760, size 1893, pts 4672, dts 4630, duration 42, flags 0
518[matroska @ 048afa60] Writing block at offset 307660, size 1102, pts 4713, dts 4672, duration 42, flags 0
519[matroska @ 048afa60] Writing block at offset 308769, size 2088, pts 4755, dts 4713, duration 42, flags 0
520[matroska @ 048afa60] Writing block at offset 310864, size 3951, pts 4797, dts 4755, duration 42, flags 0
521[Parsed_fieldmatch_0 @ 04844420] SC:0 | COMBS:  17  -1 256  -1  -1 (combpel=80) match=0 combed=NO
522[Parsed_fieldmatch_0 @ 04844420] SC:0 | COMBS:  -1   8   8  -1  -1 (combpel=80) match=1 combed=NO
523[Parsed_fieldmatch_0 @ 04844420] SC:0 | COMBS:  -1   8 256  -1  -1 (combpel=80) match=1 combed=NO
524[Parsed_fieldmatch_0 @ 04844420] SC:0 | COMBS:  -1   0 256  -1  -1 (combpel=80) match=1 combed=NO
525[Parsed_fieldmatch_0 @ 04844420] SC:0 | COMBS:  -1   0 256  -1  -1 (combpel=80) match=1 combed=NO
526[Parsed_decimate_2 @ 003a4000] 1/5 frame drop:
527[Parsed_decimate_2 @ 003a4000]   #1: totdiff=000bc34e maxbdiff=0000f3c1
528[Parsed_decimate_2 @ 003a4000]   #2: totdiff=00014725 maxbdiff=00000995
529[Parsed_decimate_2 @ 003a4000]   #3: totdiff=00074858 maxbdiff=0000a0d6
530[Parsed_decimate_2 @ 003a4000]   #4: totdiff=000095df maxbdiff=0000059d dup lowest [DROP]
531[Parsed_decimate_2 @ 003a4000]   #5: totdiff=0040a77c maxbdiff=00010d6c
532[matroska @ 048afa60] Writing block at offset 314822, size 3030, pts 4838, dts 4797, duration 42, flags 0
533[matroska @ 048afa60] Writing block at offset 317859, size 991, pts 4880, dts 4838, duration 42, flags 0
534[matroska @ 048afa60] Writing block at offset 318857, size 543, pts 4922, dts 4880, duration 42, flags 0
535[matroska @ 048afa60] Writing block at offset 319407, size 1195, pts 4964, dts 4922, duration 42, flags 0
536[Parsed_fieldmatch_0 @ 04844420] SC:0 | COMBS:   1  -1 256  -1  -1 (combpel=80) match=0 combed=NO
537[Parsed_fieldmatch_0 @ 04844420] SC:0 | COMBS:  13  -1 256  -1  -1 (combpel=80) match=0 combed=NO
538[Parsed_fieldmatch_0 @ 04844420] SC:0 | COMBS:  -1   0 256  -1  -1 (combpel=80) match=1 combed=NO
539[Parsed_fieldmatch_0 @ 04844420] SC:0 | COMBS:  -1   0 256  -1  -1 (combpel=80) match=1 combed=NO
540[Parsed_fieldmatch_0 @ 04844420] Frame #155 at 5.239 is still interlaced
541[Parsed_fieldmatch_0 @ 04844420] SC:0 | COMBS: 256  -1 256  -1  -1 (combpel=80) match=0 combed=YES
542[Parsed_decimate_2 @ 003a4000] 1/5 frame drop:
543[Parsed_decimate_2 @ 003a4000]   #1: totdiff=0070ffaf maxbdiff=000141d6
544[Parsed_decimate_2 @ 003a4000]   #2: totdiff=0005a0b0 maxbdiff=000009b7 dup lowest [DROP]
545[Parsed_decimate_2 @ 003a4000]   #3: totdiff=0045d48f maxbdiff=0000c2f3
546[Parsed_decimate_2 @ 003a4000]   #4: totdiff=00481c81 maxbdiff=0000efa8
547[Parsed_decimate_2 @ 003a4000]   #5: totdiff=001989ac maxbdiff=00005e6e
548[matroska @ 048afa60] Writing block at offset 320609, size 3990, pts 5005, dts 4964, duration 42, flags 0
549[matroska @ 048afa60] Starting new cluster at offset 324606 bytes, pts 5047dts 5005
550[matroska @ 048afa60] Writing block at offset 324622, size 6628, pts 5047, dts 5005, duration 42, flags 128
551[matroska @ 048afa60] Writing block at offset 331257, size 4559, pts 5089, dts 5047, duration 42, flags 0
552[matroska @ 048afa60] Writing block at offset 335823, size 4108, pts 5130, dts 5089, duration 42, flags 0
553[Parsed_fieldmatch_0 @ 04844420] SC:0 | COMBS:  -1   0 256  -1  -1 (combpel=80) match=1 combed=NO
554frame=  124 fps=122 q=19.3 size=     332kB time=00:00:05.08 bitrate= 534.4kbits/s   
555[Parsed_fieldmatch_0 @ 04844420] SC:0 | COMBS:  -1   0 256  -1  -1 (combpel=80) match=1 combed=NO
556[Parsed_fieldmatch_0 @ 04844420] SC:0 | COMBS:  -1   1   1  -1  -1 (combpel=80) match=1 combed=NO
557[Parsed_fieldmatch_0 @ 04844420] SC:0 | COMBS:  -1   1   1  -1  -1 (combpel=80) match=1 combed=NO
558[Parsed_fieldmatch_0 @ 04844420] SC:0 | COMBS:  -1   1   1  -1  -1 (combpel=80) match=1 combed=NO
559[Parsed_decimate_2 @ 003a4000] 1/5 frame drop:
560[Parsed_decimate_2 @ 003a4000]   #1: totdiff=004283b1 maxbdiff=0000f539
561[Parsed_decimate_2 @ 003a4000]   #2: totdiff=006e7335 maxbdiff=00011e42
562[Parsed_decimate_2 @ 003a4000]   #3: totdiff=00879bb5 maxbdiff=00018605
563[Parsed_decimate_2 @ 003a4000]   #4: totdiff=004cf79e maxbdiff=00013fcb
564[Parsed_decimate_2 @ 003a4000]   #5: totdiff=00006c44 maxbdiff=000003c0 dup lowest [DROP]
565[matroska @ 048afa60] Writing block at offset 339938, size 3719, pts 5172, dts 5130, duration 42, flags 0
566[matroska @ 048afa60] Starting new cluster at offset 343664 bytes, pts 5214dts 5172
567[matroska @ 048afa60] Writing block at offset 343680, size 6132, pts 5214, dts 5172, duration 42, flags 128
568[matroska @ 048afa60] Writing block at offset 349819, size 5386, pts 5256, dts 5214, duration 42, flags 0
569[matroska @ 048afa60] Writing block at offset 355212, size 5863, pts 5297, dts 5256, duration 42, flags 0
570[Parsed_fieldmatch_0 @ 04844420] SC:0 | COMBS:  -1   1   1  -1  -1 (combpel=80) match=1 combed=NO
571[Parsed_fieldmatch_0 @ 04844420] SC:0 | COMBS:  -1   1   1  -1  -1 (combpel=80) match=1 combed=NO
572[Parsed_fieldmatch_0 @ 04844420] SC:0 | COMBS:  -1   1   1  -1  -1 (combpel=80) match=1 combed=NO
573[Parsed_fieldmatch_0 @ 04844420] SC:0 | COMBS:  -1   1   1  -1  -1 (combpel=80) match=1 combed=NO
574[Parsed_fieldmatch_0 @ 04844420] SC:0 | COMBS:  -1   1   1  -1  -1 (combpel=80) match=1 combed=NO
575[Parsed_decimate_2 @ 003a4000] 1/5 frame drop:
576[Parsed_decimate_2 @ 003a4000]   #1: totdiff=00002735 maxbdiff=000001c0 dup lowest [DROP]
577[Parsed_decimate_2 @ 003a4000]   #2: totdiff=00004044 maxbdiff=00000280
578[Parsed_decimate_2 @ 003a4000]   #3: totdiff=00002d33 maxbdiff=00000244
579[Parsed_decimate_2 @ 003a4000]   #4: totdiff=00003ab7 maxbdiff=00000403
580[Parsed_decimate_2 @ 003a4000]   #5: totdiff=00002585 maxbdiff=00000200
581[matroska @ 048afa60] Writing block at offset 361082, size 5301, pts 5339, dts 5297, duration 42, flags 0
582[matroska @ 048afa60] Writing block at offset 366390, size 308, pts 5381, dts 5339, duration 42, flags 0
583[matroska @ 048afa60] Writing block at offset 366705, size 368, pts 5422, dts 5381, duration 42, flags 0
584[matroska @ 048afa60] Writing block at offset 367080, size 354, pts 5464, dts 5422, duration 42, flags 0
585[Parsed_fieldmatch_0 @ 04844420] SC:0 | COMBS:  -1   1 256  -1  -1 (combpel=80) match=1 combed=NO
586[Parsed_fieldmatch_0 @ 04844420] SC:0 | COMBS:   9  -1 256  -1  -1 (combpel=80) match=0 combed=NO
587[Parsed_fieldmatch_0 @ 04844420] SC:0 | COMBS:  -1   1   1  -1  -1 (combpel=80) match=1 combed=NO
588[Parsed_fieldmatch_0 @ 04844420] SC:0 | COMBS:  -1   1 256  -1  -1 (combpel=80) match=1 combed=NO
589[Parsed_fieldmatch_0 @ 04844420] SC:0 | COMBS:  -1   2   2  -1  -1 (combpel=80) match=1 combed=NO
590[Parsed_decimate_2 @ 003a4000] 1/5 frame drop:
591[Parsed_decimate_2 @ 003a4000]   #1: totdiff=00003a7c maxbdiff=000001b6
592[Parsed_decimate_2 @ 003a4000]   #2: totdiff=000028eb maxbdiff=00000142 dup lowest [DROP]
593[Parsed_decimate_2 @ 003a4000]   #3: totdiff=0000ce4e maxbdiff=00000f7e
594[Parsed_decimate_2 @ 003a4000]   #4: totdiff=0008899a maxbdiff=0001241e
595[Parsed_decimate_2 @ 003a4000]   #5: totdiff=00003370 maxbdiff=000002dd
596[matroska @ 048afa60] Writing block at offset 367441, size 480, pts 5506, dts 5464, duration 42, flags 0
597[matroska @ 048afa60] Writing block at offset 367928, size 524, pts 5548, dts 5506, duration 42, flags 0
598[matroska @ 048afa60] Writing block at offset 368459, size 873, pts 5589, dts 5548, duration 42, flags 0
599[matroska @ 048afa60] Writing block at offset 369339, size 1162, pts 5631, dts 5589, duration 42, flags 0
600[Parsed_fieldmatch_0 @ 04844420] SC:0 | COMBS:  -1   2 225  -1  -1 (combpel=80) match=1 combed=NO
601[Parsed_fieldmatch_0 @ 04844420] SC:0 | COMBS:   6  -1 221  -1  -1 (combpel=80) match=0 combed=NO
602[Parsed_fieldmatch_0 @ 04844420] SC:0 | COMBS:  -1   1   1  -1  -1 (combpel=80) match=1 combed=NO
603[Parsed_fieldmatch_0 @ 04844420] SC:0 | COMBS:  -1   1 203  -1  -1 (combpel=80) match=1 combed=NO
604[Parsed_fieldmatch_0 @ 04844420] SC:0 | COMBS:  -1   1   1  -1  -1 (combpel=80) match=1 combed=NO
605[Parsed_decimate_2 @ 003a4000] 1/5 frame drop:
606[Parsed_decimate_2 @ 003a4000]   #1: totdiff=000d2e99 maxbdiff=0001766e
607[Parsed_decimate_2 @ 003a4000]   #2: totdiff=00002b0f maxbdiff=00000288 dup lowest [DROP]
608[Parsed_decimate_2 @ 003a4000]   #3: totdiff=0000ee5e maxbdiff=00000bd3
609[Parsed_decimate_2 @ 003a4000]   #4: totdiff=00055e9b maxbdiff=0000dc5c
610[Parsed_decimate_2 @ 003a4000]   #5: totdiff=000044ad maxbdiff=0000033a
611[matroska @ 048afa60] Writing block at offset 370508, size 505, pts 5673, dts 5631, duration 42, flags 0
612[matroska @ 048afa60] Starting new cluster at offset 371020 bytes, pts 5714dts 5673
613[matroska @ 048afa60] Writing block at offset 371036, size 10227, pts 5714, dts 5673, duration 42, flags 128
614[matroska @ 048afa60] Writing block at offset 381270, size 347, pts 5756, dts 5714, duration 42, flags 0
615[matroska @ 048afa60] Writing block at offset 381624, size 783, pts 5798, dts 5756, duration 42, flags 0
616[Parsed_fieldmatch_0 @ 04844420] SC:0 | COMBS:  -1   1 177  -1  -1 (combpel=80) match=1 combed=NO
617[Parsed_fieldmatch_0 @ 04844420] SC:0 | COMBS:  14  -1 182  -1  -1 (combpel=80) match=0 combed=NO
618[Parsed_fieldmatch_0 @ 04844420] SC:0 | COMBS:  -1   2   2  -1  -1 (combpel=80) match=1 combed=NO
619[Parsed_fieldmatch_0 @ 04844420] SC:0 | COMBS:  -1   2 256  -1  -1 (combpel=80) match=1 combed=NO
620[Parsed_fieldmatch_0 @ 04844420] SC:0 | COMBS:  -1   2 256  -1  -1 (combpel=80) match=1 combed=NO
621[Parsed_decimate_2 @ 003a4000] 1/5 frame drop:
622[Parsed_decimate_2 @ 003a4000]   #1: totdiff=0002f916 maxbdiff=00006e04
623[Parsed_decimate_2 @ 003a4000]   #2: totdiff=000037a5 maxbdiff=000001d4 dup lowest [DROP]
624[Parsed_decimate_2 @ 003a4000]   #3: totdiff=00009de1 maxbdiff=00000d89
625[Parsed_decimate_2 @ 003a4000]   #4: totdiff=00038a0c maxbdiff=0000a6a9
626[Parsed_decimate_2 @ 003a4000]   #5: totdiff=00004a3f maxbdiff=00000233
627[matroska @ 048afa60] Writing block at offset 382414, size 346, pts 5839, dts 5798, duration 42, flags 0
628[matroska @ 048afa60] Writing block at offset 382767, size 693, pts 5881, dts 5839, duration 42, flags 0
629[matroska @ 048afa60] Writing block at offset 383467, size 383, pts 5923, dts 5881, duration 42, flags 0
630[matroska @ 048afa60] Writing block at offset 383857, size 693, pts 5965, dts 5923, duration 42, flags 0
631[Parsed_fieldmatch_0 @ 04844420] SC:0 | COMBS:  15  -1 256  -1  -1 (combpel=80) match=0 combed=NO
632[Parsed_fieldmatch_0 @ 04844420] SC:0 | COMBS:  11  -1 253  -1  -1 (combpel=80) match=0 combed=NO
633[Parsed_fieldmatch_0 @ 04844420] SC:0 | COMBS:  -1   2 256  -1  -1 (combpel=80) match=1 combed=NO
634[Parsed_fieldmatch_0 @ 04844420] SC:0 | COMBS:  -1   8 256  -1  -1 (combpel=80) match=1 combed=NO
635[Parsed_fieldmatch_0 @ 04844420] SC:0 | COMBS:  -1   8 256  -1  -1 (combpel=80) match=1 combed=NO
636[Parsed_decimate_2 @ 003a4000] 1/5 frame drop:
637[Parsed_decimate_2 @ 003a4000]   #1: totdiff=000a34ac maxbdiff=00012858
638[Parsed_decimate_2 @ 003a4000]   #2: totdiff=00012b5b maxbdiff=00000f81 lowest [DROP]
639[Parsed_decimate_2 @ 003a4000]   #3: totdiff=0011209d maxbdiff=0001bbda
640[Parsed_decimate_2 @ 003a4000]   #4: totdiff=0005ed9e maxbdiff=0000cccd
641[Parsed_decimate_2 @ 003a4000]   #5: totdiff=000fdc34 maxbdiff=00016e30
642[matroska @ 048afa60] Writing block at offset 384557, size 314, pts 6006, dts 5965, duration 42, flags 0
643[matroska @ 048afa60] Writing block at offset 384878, size 1157, pts 6048, dts 6006, duration 42, flags 0
644[matroska @ 048afa60] Writing block at offset 386042, size 1622, pts 6090, dts 6048, duration 42, flags 0
645[matroska @ 048afa60] Writing block at offset 387671, size 800, pts 6131, dts 6090, duration 42, flags 0
646[Parsed_fieldmatch_0 @ 04844420] SC:0 | COMBS:  12  -1 256  -1  -1 (combpel=80) match=0 combed=NO
647[Parsed_fieldmatch_0 @ 04844420] SC:0 | COMBS:  17  -1 256  -1  -1 (combpel=80) match=0 combed=NO
648[Parsed_fieldmatch_0 @ 04844420] SC:0 | COMBS:  -1   5 256  -1  -1 (combpel=80) match=1 combed=NO
649[Parsed_fieldmatch_0 @ 04844420] SC:0 | COMBS:  -1  15 256  -1  -1 (combpel=80) match=1 combed=NO
650[Parsed_fieldmatch_0 @ 04844420] SC:0 | COMBS:  -1   3 256  -1  -1 (combpel=80) match=1 combed=NO
651[Parsed_decimate_2 @ 003a4000] 1/5 frame drop:
652[Parsed_decimate_2 @ 003a4000]   #1: totdiff=0020a907 maxbdiff=000200da
653[Parsed_decimate_2 @ 003a4000]   #2: totdiff=0002d01d maxbdiff=00000f63 lowest [DROP]
654[Parsed_decimate_2 @ 003a4000]   #3: totdiff=003629b4 maxbdiff=0001dfc0
655[Parsed_decimate_2 @ 003a4000]   #4: totdiff=00201e6f maxbdiff=00012c0c
656[Parsed_decimate_2 @ 003a4000]   #5: totdiff=002a890d maxbdiff=0001b83d
657[matroska @ 048afa60] Writing block at offset 388478, size 1146, pts 6173, dts 6131, duration 42, flags 0
658[matroska @ 048afa60] Starting new cluster at offset 389631 bytes, pts 6215dts 6173
659[matroska @ 048afa60] Writing block at offset 389647, size 9073, pts 6215, dts 6173, duration 42, flags 128
660[matroska @ 048afa60] Writing block at offset 398727, size 3094, pts 6257, dts 6215, duration 42, flags 0
661[matroska @ 048afa60] Writing block at offset 401828, size 2396, pts 6298, dts 6257, duration 42, flags 0
662[Parsed_fieldmatch_0 @ 04844420] SC:0 | COMBS:   8  -1 256  -1  -1 (combpel=80) match=0 combed=NO
663[Parsed_fieldmatch_0 @ 04844420] SC:0 | COMBS:  27  -1 256  -1  -1 (combpel=80) match=0 combed=NO
664[Parsed_fieldmatch_0 @ 04844420] SC:0 | COMBS:  -1   6 256  -1  -1 (combpel=80) match=1 combed=NO
665[Parsed_fieldmatch_0 @ 04844420] SC:0 | COMBS:  -1   3 256  -1  -1 (combpel=80) match=1 combed=NO
666[Parsed_fieldmatch_0 @ 04844420] SC:0 | COMBS:  -1   2 254  -1  -1 (combpel=80) match=1 combed=NO
667[Parsed_decimate_2 @ 003a4000] 1/5 frame drop:
668[Parsed_decimate_2 @ 003a4000]   #1: totdiff=00232385 maxbdiff=00012ea1
669[Parsed_decimate_2 @ 003a4000]   #2: totdiff=000396c1 maxbdiff=0000109e lowest [DROP]
670[Parsed_decimate_2 @ 003a4000]   #3: totdiff=0024dd4e maxbdiff=0001a203
671[Parsed_decimate_2 @ 003a4000]   #4: totdiff=001a94cd maxbdiff=0001070b
672[Parsed_decimate_2 @ 003a4000]   #5: totdiff=001ee939 maxbdiff=000124ad
673[matroska @ 048afa60] Writing block at offset 404231, size 3039, pts 6340, dts 6298, duration 42, flags 0
674[matroska @ 048afa60] Writing block at offset 407277, size 2671, pts 6382, dts 6340, duration 42, flags 0
675[matroska @ 048afa60] Writing block at offset 409955, size 2862, pts 6423, dts 6382, duration 42, flags 0
676[matroska @ 048afa60] Writing block at offset 412824, size 2526, pts 6465, dts 6423, duration 42, flags 0
677[Parsed_fieldmatch_0 @ 04844420] SC:0 | COMBS:   9  -1 256  -1  -1 (combpel=80) match=0 combed=NO
678[Parsed_fieldmatch_0 @ 04844420] SC:0 | COMBS:  18  -1 253  -1  -1 (combpel=80) match=0 combed=NO
679[Parsed_fieldmatch_0 @ 04844420] SC:0 | COMBS:  -1   7 256  -1  -1 (combpel=80) match=1 combed=NO
680[Parsed_fieldmatch_0 @ 04844420] SC:0 | COMBS:  -1   8 256  -1  -1 (combpel=80) match=1 combed=NO
681[Parsed_fieldmatch_0 @ 04844420] SC:0 | COMBS:  -1   2 256  -1  -1 (combpel=80) match=1 combed=NO
682[Parsed_decimate_2 @ 003a4000] 1/5 frame drop:
683[Parsed_decimate_2 @ 003a4000]   #1: totdiff=00170ce0 maxbdiff=0000f47d
684[Parsed_decimate_2 @ 003a4000]   #2: totdiff=000367e2 maxbdiff=00000d41 lowest [DROP]
685[Parsed_decimate_2 @ 003a4000]   #3: totdiff=001a2d7f maxbdiff=0000db09
686[Parsed_decimate_2 @ 003a4000]   #4: totdiff=0014d332 maxbdiff=00008f32
687[Parsed_decimate_2 @ 003a4000]   #5: totdiff=001a9c39 maxbdiff=00015674
688[matroska @ 048afa60] Writing block at offset 415357, size 2746, pts 6507, dts 6465, duration 42, flags 0
689[matroska @ 048afa60] Writing block at offset 418110, size 2418, pts 6549, dts 6507, duration 42, flags 0
690[matroska @ 048afa60] Writing block at offset 420535, size 2607, pts 6590, dts 6549, duration 42, flags 0
691[matroska @ 048afa60] Writing block at offset 423149, size 2320, pts 6632, dts 6590, duration 42, flags 0
692[Parsed_fieldmatch_0 @ 04844420] SC:0 | COMBS:  10  -1 256  -1  -1 (combpel=80) match=0 combed=NO
693[Parsed_fieldmatch_0 @ 04844420] SC:0 | COMBS:  13  -1 256  -1  -1 (combpel=80) match=0 combed=NO
694[Parsed_fieldmatch_0 @ 04844420] SC:0 | COMBS:  -1  11 256  -1  -1 (combpel=80) match=1 combed=NO
695[Parsed_fieldmatch_0 @ 04844420] SC:0 | COMBS:  -1  12 256  -1  -1 (combpel=80) match=1 combed=NO
696[Parsed_fieldmatch_0 @ 04844420] SC:0 | COMBS:  -1   6 256  -1  -1 (combpel=80) match=1 combed=NO
697[Parsed_decimate_2 @ 003a4000] 1/5 frame drop:
698[Parsed_decimate_2 @ 003a4000]   #1: totdiff=0012ae95 maxbdiff=0000f0d1
699[Parsed_decimate_2 @ 003a4000]   #2: totdiff=00028dcf maxbdiff=000010b4 lowest [DROP]
700[Parsed_decimate_2 @ 003a4000]   #3: totdiff=0024c62f maxbdiff=0001e4c6
701[Parsed_decimate_2 @ 003a4000]   #4: totdiff=00194d78 maxbdiff=0000d88e
702[Parsed_decimate_2 @ 003a4000]   #5: totdiff=0012ec8a maxbdiff=0000b43f
703[matroska @ 048afa60] Writing block at offset 425476, size 2453, pts 6674, dts 6632, duration 42, flags 0
704[matroska @ 048afa60] Starting new cluster at offset 427936 bytes, pts 6715dts 6674
705[matroska @ 048afa60] Writing block at offset 427952, size 8786, pts 6715, dts 6674, duration 42, flags 128
706[matroska @ 048afa60] Writing block at offset 436745, size 2328, pts 6757, dts 6715, duration 42, flags 0
707[matroska @ 048afa60] Writing block at offset 439080, size 1896, pts 6799, dts 6757, duration 42, flags 0
708[Parsed_fieldmatch_0 @ 04844420] SC:0 | COMBS:  12  -1 256  -1  -1 (combpel=80) match=0 combed=NO
709[Parsed_fieldmatch_0 @ 04844420] Frame #207 at 6.974 is still interlaced
710[Parsed_fieldmatch_0 @ 04844420] SC:0 | COMBS: 256  -1 256  -1  -1 (combpel=80) match=0 combed=YES
711[Parsed_fieldmatch_0 @ 04844420] SC:0 | COMBS:  -1   0 256  -1  -1 (combpel=80) match=1 combed=NO
712[Parsed_fieldmatch_0 @ 04844420] SC:0 | COMBS:  -1   0 256  -1  -1 (combpel=80) match=1 combed=NO
713[Parsed_fieldmatch_0 @ 04844420] SC:0 | COMBS:  -1   0 256  -1  -1 (combpel=80) match=1 combed=NO
714[Parsed_decimate_2 @ 003a4000] 1/5 frame drop:
715[Parsed_decimate_2 @ 003a4000]   #1: totdiff=000a842f maxbdiff=0000640e
716[Parsed_decimate_2 @ 003a4000]   #2: totdiff=00048b82 maxbdiff=00000da4 lowest [DROP]
717[Parsed_decimate_2 @ 003a4000]   #3: totdiff=0046fae9 maxbdiff=000124e2
718[Parsed_decimate_2 @ 003a4000]   #4: totdiff=008e7310 maxbdiff=0001b25f
719[Parsed_decimate_2 @ 003a4000]   #5: totdiff=006de2ff maxbdiff=000132d7
720[matroska @ 048afa60] Writing block at offset 440983, size 1421, pts 6840, dts 6799, duration 42, flags 0
721[matroska @ 048afa60] Writing block at offset 442411, size 1250, pts 6882, dts 6840, duration 42, flags 0
722[matroska @ 048afa60] Writing block at offset 443668, size 3992, pts 6924, dts 6882, duration 42, flags 0
723[matroska @ 048afa60] Starting new cluster at offset 447667 bytes, pts 6966dts 6924
724[matroska @ 048afa60] Writing block at offset 447683, size 6373, pts 6966, dts 6924, duration 42, flags 128
725[Parsed_fieldmatch_0 @ 04844420] SC:0 | COMBS:  -1   0 256  -1  -1 (combpel=80) match=1 combed=NO
726[Parsed_fieldmatch_0 @ 04844420] SC:0 | COMBS:  -1   0 256  -1  -1 (combpel=80) match=1 combed=NO
727[Parsed_fieldmatch_0 @ 04844420] SC:0 | COMBS:  -1   0 256  -1  -1 (combpel=80) match=1 combed=NO
728[Parsed_fieldmatch_0 @ 04844420] SC:0 | COMBS:  13  -1 256  -1  -1 (combpel=80) match=0 combed=NO
729[Parsed_fieldmatch_0 @ 04844420] SC:0 | COMBS:   3  -1 256  -1  -1 (combpel=80) match=0 combed=NO
730[Parsed_decimate_2 @ 003a4000] 1/5 frame drop:
731[Parsed_decimate_2 @ 003a4000]   #1: totdiff=0037a700 maxbdiff=0001151c
732[Parsed_decimate_2 @ 003a4000]   #2: totdiff=001a2127 maxbdiff=000040d8
733[Parsed_decimate_2 @ 003a4000]   #3: totdiff=002e3e2f maxbdiff=0000c7a2
734[Parsed_decimate_2 @ 003a4000]   #4: totdiff=0064b56f maxbdiff=0000fcc9
735[Parsed_decimate_2 @ 003a4000]   #5: totdiff=00068535 maxbdiff=00000b7b lowest [DROP]
736[matroska @ 048afa60] Writing block at offset 454063, size 4800, pts 7007, dts 6966, duration 42, flags 0
737[matroska @ 048afa60] Writing block at offset 458870, size 3491, pts 7049, dts 7007, duration 42, flags 0
738[matroska @ 048afa60] Writing block at offset 462368, size 2506, pts 7091, dts 7049, duration 42, flags 0
739[matroska @ 048afa60] Writing block at offset 464881, size 3560, pts 7132, dts 7091, duration 42, flags 0
740[Parsed_fieldmatch_0 @ 04844420] SC:0 | COMBS:  -1   1   1  -1  -1 (combpel=80) match=1 combed=NO
741[Parsed_fieldmatch_0 @ 04844420] SC:0 | COMBS:  -1   1   1  -1  -1 (combpel=80) match=1 combed=NO
742[Parsed_fieldmatch_0 @ 04844420] SC:0 | COMBS:  -1   1   1  -1  -1 (combpel=80) match=1 combed=NO
743[Parsed_fieldmatch_0 @ 04844420] SC:0 | COMBS:  -1   1   1  -1  -1 (combpel=80) match=1 combed=NO
744[Parsed_fieldmatch_0 @ 04844420] SC:0 | COMBS:  -1   1   1  -1  -1 (combpel=80) match=1 combed=NO
745[Parsed_decimate_2 @ 003a4000] 1/5 frame drop:
746[Parsed_decimate_2 @ 003a4000]   #1: totdiff=0073abfd maxbdiff=000142a3
747[Parsed_decimate_2 @ 003a4000]   #2: totdiff=0044e562 maxbdiff=000155c4
748[Parsed_decimate_2 @ 003a4000]   #3: totdiff=00005c69 maxbdiff=00000481
749[Parsed_decimate_2 @ 003a4000]   #4: totdiff=00002d99 maxbdiff=000001c1 dup lowest [DROP]
750[Parsed_decimate_2 @ 003a4000]   #5: totdiff=00005626 maxbdiff=000002c0
751[matroska @ 048afa60] Starting new cluster at offset 468448 bytes, pts 7174dts 7132
752[matroska @ 048afa60] Writing block at offset 468464, size 6154, pts 7174, dts 7132, duration 42, flags 128
753[matroska @ 048afa60] Starting new cluster at offset 474625 bytes, pts 7216dts 7174
754[matroska @ 048afa60] Writing block at offset 474641, size 6535, pts 7216, dts 7174, duration 42, flags 128
755[matroska @ 048afa60] Writing block at offset 481183, size 4969, pts 7258, dts 7216, duration 42, flags 0
756[matroska @ 048afa60] Writing block at offset 486159, size 330, pts 7299, dts 7258, duration 42, flags 0
757[Parsed_fieldmatch_0 @ 04844420] SC:0 | COMBS:  -1   1   1  -1  -1 (combpel=80) match=1 combed=NO
758[Parsed_fieldmatch_0 @ 04844420] SC:0 | COMBS:  -1   1   1  -1  -1 (combpel=80) match=1 combed=NO
759[Parsed_fieldmatch_0 @ 04844420] SC:0 | COMBS:  -1   1   1  -1  -1 (combpel=80) match=1 combed=NO
760[Parsed_fieldmatch_0 @ 04844420] SC:0 | COMBS:  -1   1   1  -1  -1 (combpel=80) match=1 combed=NO
761[Parsed_fieldmatch_0 @ 04844420] SC:0 | COMBS:  -1   1   1  -1  -1 (combpel=80) match=1 combed=NO
762[Parsed_decimate_2 @ 003a4000] 1/5 frame drop:
763[Parsed_decimate_2 @ 003a4000]   #1: totdiff=0000374c maxbdiff=000002c0
764[Parsed_decimate_2 @ 003a4000]   #2: totdiff=000056f6 maxbdiff=000002c0
765[Parsed_decimate_2 @ 003a4000]   #3: totdiff=00002d16 maxbdiff=000001c0
766[Parsed_decimate_2 @ 003a4000]   #4: totdiff=000036e2 maxbdiff=00000255
767[Parsed_decimate_2 @ 003a4000]   #5: totdiff=0000247a maxbdiff=00000144 dup lowest [DROP]
768[matroska @ 048afa60] Writing block at offset 486496, size 336, pts 7341, dts 7299, duration 42, flags 0
769[matroska @ 048afa60] Writing block at offset 486839, size 292, pts 7383, dts 7341, duration 42, flags 0
770[matroska @ 048afa60] Writing block at offset 487138, size 289, pts 7424, dts 7383, duration 42, flags 0
771[matroska @ 048afa60] Writing block at offset 487434, size 288, pts 7466, dts 7424, duration 42, flags 0
772frame=  180 fps=118 q=31.0 size=     476kB time=00:00:07.42 bitrate= 525.6kbits/s   
773[Parsed_fieldmatch_0 @ 04844420] SC:0 | COMBS:   1  -1   1  -1  -1 (combpel=80) match=0 combed=NO
774[Parsed_fieldmatch_0 @ 04844420] SC:0 | COMBS:  -1   1   1  -1  -1 (combpel=80) match=1 combed=NO
775[Parsed_fieldmatch_0 @ 04844420] SC:0 | COMBS:  -1   1   1  -1  -1 (combpel=80) match=1 combed=NO
776[Parsed_fieldmatch_0 @ 04844420] SC:0 | COMBS:  -1   1   1  -1  -1 (combpel=80) match=1 combed=NO
777[Parsed_fieldmatch_0 @ 04844420] SC:0 | COMBS:  -1   1   1  -1  -1 (combpel=80) match=1 combed=NO
778[Parsed_decimate_2 @ 003a4000] 1/5 frame drop:
779[Parsed_decimate_2 @ 003a4000]   #1: totdiff=000022a8 maxbdiff=000001a4
780[Parsed_decimate_2 @ 003a4000]   #2: totdiff=00000c38 maxbdiff=000000a0 dup lowest [DROP]
781[Parsed_decimate_2 @ 003a4000]   #3: totdiff=00002e61 maxbdiff=000001b3
782[Parsed_decimate_2 @ 003a4000]   #4: totdiff=000026d2 maxbdiff=000001c1
783[Parsed_decimate_2 @ 003a4000]   #5: totdiff=00002455 maxbdiff=0000021a
784[matroska @ 048afa60] Writing block at offset 487729, size 295, pts 7508, dts 7466, duration 42, flags 0
785[matroska @ 048afa60] Writing block at offset 488031, size 297, pts 7550, dts 7508, duration 42, flags 0
786[matroska @ 048afa60] Writing block at offset 488335, size 288, pts 7591, dts 7550, duration 42, flags 0
787[matroska @ 048afa60] Writing block at offset 488630, size 288, pts 7633, dts 7591, duration 42, flags 0
788[Parsed_fieldmatch_0 @ 04844420] SC:0 | COMBS:  -1   1   1  -1  -1 (combpel=80) match=1 combed=NO
789[Parsed_fieldmatch_0 @ 04844420] SC:0 | COMBS:   1  -1   1  -1  -1 (combpel=80) match=0 combed=NO
790[Parsed_fieldmatch_0 @ 04844420] SC:0 | COMBS:   1  -1 250  -1  -1 (combpel=80) match=0 combed=NO
791[Parsed_fieldmatch_0 @ 04844420] SC:0 | COMBS:   2  -1 248  -1  -1 (combpel=80) match=0 combed=NO
792[Parsed_fieldmatch_0 @ 04844420] SC:0 | COMBS:  -1   3   3  -1  -1 (combpel=80) match=1 combed=NO
793[Parsed_decimate_2 @ 003a4000] 1/5 frame drop:
794[Parsed_decimate_2 @ 003a4000]   #1: totdiff=00008290 maxbdiff=00000346
795[Parsed_decimate_2 @ 003a4000]   #2: totdiff=000043a4 maxbdiff=00000224
796[Parsed_decimate_2 @ 003a4000]   #3: totdiff=0000142c maxbdiff=00000120 dup lowest [DROP]
797[Parsed_decimate_2 @ 003a4000]   #4: totdiff=00003101 maxbdiff=00000260
798[Parsed_decimate_2 @ 003a4000]   #5: totdiff=00008b4a maxbdiff=000009ea
799[matroska @ 048afa60] Writing block at offset 488925, size 288, pts 7675, dts 7633, duration 42, flags 0
800[matroska @ 048afa60] Starting new cluster at offset 489220 bytes, pts 7716dts 7675
801[matroska @ 048afa60] Writing block at offset 489236, size 8542, pts 7716, dts 7675, duration 42, flags 128
802[matroska @ 048afa60] Writing block at offset 497785, size 332, pts 7758, dts 7716, duration 42, flags 0
803[matroska @ 048afa60] Writing block at offset 498124, size 289, pts 7800, dts 7758, duration 42, flags 0
804[Parsed_fieldmatch_0 @ 04844420] SC:0 | COMBS:  -1   3 254  -1  -1 (combpel=80) match=1 combed=NO
805[Parsed_fieldmatch_0 @ 04844420] SC:0 | COMBS:  -1   2   2  -1  -1 (combpel=80) match=1 combed=NO
806[Parsed_fieldmatch_0 @ 04844420] SC:0 | COMBS:   1  -1 256  -1  -1 (combpel=80) match=0 combed=NO
807[Parsed_fieldmatch_0 @ 04844420] SC:0 | COMBS:   7  -1 256  -1  -1 (combpel=80) match=0 combed=NO
808[Parsed_fieldmatch_0 @ 04844420] SC:0 | COMBS:  -1   2   2  -1  -1 (combpel=80) match=1 combed=NO
809[Parsed_decimate_2 @ 003a4000] 1/5 frame drop:
810[Parsed_decimate_2 @ 003a4000]   #1: totdiff=00048a3a maxbdiff=00009502
811[Parsed_decimate_2 @ 003a4000]   #2: totdiff=0000362d maxbdiff=00000211 dup lowest [DROP]
812[Parsed_decimate_2 @ 003a4000]   #3: totdiff=00088952 maxbdiff=0000e7e7
813[Parsed_decimate_2 @ 003a4000]   #4: totdiff=00001c8d maxbdiff=000002dc
814[Parsed_decimate_2 @ 003a4000]   #5: totdiff=0000cd21 maxbdiff=00000dba
815[matroska @ 048afa60] Writing block at offset 498420, size 288, pts 7841, dts 7800, duration 42, flags 0
816[matroska @ 048afa60] Writing block at offset 498715, size 630, pts 7883, dts 7841, duration 42, flags 0
817[matroska @ 048afa60] Writing block at offset 499352, size 765, pts 7925, dts 7883, duration 42, flags 0
818[matroska @ 048afa60] Writing block at offset 500124, size 315, pts 7967, dts 7925, duration 42, flags 0
819[Parsed_fieldmatch_0 @ 04844420] SC:0 | COMBS:  -1   2 252  -1  -1 (combpel=80) match=1 combed=NO
820[Parsed_fieldmatch_0 @ 04844420] SC:0 | COMBS:  -1   4   4  -1  -1 (combpel=80) match=1 combed=NO
821[Parsed_fieldmatch_0 @ 04844420] SC:0 | COMBS:  -1   4 256  -1  -1 (combpel=80) match=1 combed=NO
822[Parsed_fieldmatch_0 @ 04844420] SC:0 | COMBS:  11  -1 256  -1  -1 (combpel=80) match=0 combed=NO
823[Parsed_fieldmatch_0 @ 04844420] SC:0 | COMBS:  -1   5   3  -1  -1 (combpel=80) match=1 combed=NO
824[Parsed_decimate_2 @ 003a4000] 1/5 frame drop:
825[Parsed_decimate_2 @ 003a4000]   #1: totdiff=00077c6d maxbdiff=000104f2
826[Parsed_decimate_2 @ 003a4000]   #2: totdiff=00002ca0 maxbdiff=00000408
827[Parsed_decimate_2 @ 003a4000]   #3: totdiff=0006ecce maxbdiff=0000d8cf
828[Parsed_decimate_2 @ 003a4000]   #4: totdiff=000031c5 maxbdiff=000003ec dup lowest [DROP]
829[Parsed_decimate_2 @ 003a4000]   #5: totdiff=0000e730 maxbdiff=000011c8
830[matroska @ 048afa60] Writing block at offset 500446, size 315, pts 8008, dts 7967, duration 42, flags 0
831[matroska @ 048afa60] Writing block at offset 500768, size 783, pts 8050, dts 8008, duration 42, flags 0
832[matroska @ 048afa60] Writing block at offset 501558, size 298, pts 8092, dts 8050, duration 42, flags 0
833[matroska @ 048afa60] Writing block at offset 501863, size 752, pts 8133, dts 8092, duration 42, flags 0
834[Parsed_fieldmatch_0 @ 04844420] SC:0 | COMBS:  -1   3 248  -1  -1 (combpel=80) match=1 combed=NO
835[Parsed_fieldmatch_0 @ 04844420] SC:0 | COMBS:  -1   4   6  -1  -1 (combpel=80) match=1 combed=NO
836[Parsed_fieldmatch_0 @ 04844420] SC:0 | COMBS:  -1   4 256  -1  -1 (combpel=80) match=1 combed=NO
837[Parsed_fieldmatch_0 @ 04844420] SC:0 | COMBS:   9  -1 256  -1  -1 (combpel=80) match=0 combed=NO
838[Parsed_fieldmatch_0 @ 04844420] SC:0 | COMBS:  12  -1 256  -1  -1 (combpel=80) match=0 combed=NO
839[Parsed_decimate_2 @ 003a4000] 1/5 frame drop:
840[Parsed_decimate_2 @ 003a4000]   #1: totdiff=000cfb1d maxbdiff=0001722d
841[Parsed_decimate_2 @ 003a4000]   #2: totdiff=00003597 maxbdiff=00000668
842[Parsed_decimate_2 @ 003a4000]   #3: totdiff=000825cd maxbdiff=00010b04
843[Parsed_decimate_2 @ 003a4000]   #4: totdiff=00003441 maxbdiff=000002d8 dup lowest [DROP]
844[Parsed_decimate_2 @ 003a4000]   #5: totdiff=0000b6dd maxbdiff=00000d4c
845[matroska @ 048afa60] Writing block at offset 502622, size 320, pts 8175, dts 8133, duration 42, flags 0
846[matroska @ 048afa60] Starting new cluster at offset 502949 bytes, pts 8217dts 8175
847[matroska @ 048afa60] Writing block at offset 502965, size 8533, pts 8217, dts 8175, duration 42, flags 128
848[matroska @ 048afa60] Writing block at offset 511505, size 338, pts 8259, dts 8217, duration 42, flags 0
849[matroska @ 048afa60] Writing block at offset 511850, size 755, pts 8300, dts 8259, duration 42, flags 0
850[Parsed_fieldmatch_0 @ 04844420] SC:0 | COMBS:  -1   3 256  -1  -1 (combpel=80) match=1 combed=NO
851[Parsed_fieldmatch_0 @ 04844420] SC:0 | COMBS:  -1   3 256  -1  -1 (combpel=80) match=1 combed=NO
852[Parsed_fieldmatch_0 @ 04844420] SC:0 | COMBS:  -1   3 256  -1  -1 (combpel=80) match=1 combed=NO
853[Parsed_fieldmatch_0 @ 04844420] SC:0 | COMBS:   6  -1 256  -1  -1 (combpel=80) match=0 combed=NO
854[Parsed_fieldmatch_0 @ 04844420] SC:0 | COMBS:   6  -1 256  -1  -1 (combpel=80) match=0 combed=NO
855[Parsed_decimate_2 @ 003a4000] 1/5 frame drop:
856[Parsed_decimate_2 @ 003a4000]   #1: totdiff=00076698 maxbdiff=00015f7a
857[Parsed_decimate_2 @ 003a4000]   #2: totdiff=00087ceb maxbdiff=00011329
858[Parsed_decimate_2 @ 003a4000]   #3: totdiff=0013b5ae maxbdiff=0001eeaa
859[Parsed_decimate_2 @ 003a4000]   #4: totdiff=0008ee5d maxbdiff=00012370
860[Parsed_decimate_2 @ 003a4000]   #5: totdiff=0000decf maxbdiff=00000bf3 lowest [DROP]
861[matroska @ 048afa60] Writing block at offset 512612, size 318, pts 8342, dts 8300, duration 42, flags 0
862[matroska @ 048afa60] Writing block at offset 512937, size 826, pts 8384, dts 8342, duration 42, flags 0
863[matroska @ 048afa60] Writing block at offset 513770, size 912, pts 8425, dts 8384, duration 42, flags 0
864[matroska @ 048afa60] Writing block at offset 514689, size 1223, pts 8467, dts 8425, duration 42, flags 0
865[Parsed_fieldmatch_0 @ 04844420] SC:0 | COMBS:  -1   3 256  -1  -1 (combpel=80) match=1 combed=NO
866[Parsed_fieldmatch_0 @ 04844420] SC:0 | COMBS:  -1   3 256  -1  -1 (combpel=80) match=1 combed=NO
867[Parsed_fieldmatch_0 @ 04844420] SC:0 | COMBS:  -1   3 256  -1  -1 (combpel=80) match=1 combed=NO
868[Parsed_fieldmatch_0 @ 04844420] SC:0 | COMBS:   5  -1 256  -1  -1 (combpel=80) match=0 combed=NO
869[Parsed_fieldmatch_0 @ 04844420] SC:0 | COMBS:  12  -1 256  -1  -1 (combpel=80) match=0 combed=NO
870[Parsed_decimate_2 @ 003a4000] 1/5 frame drop:
871[Parsed_decimate_2 @ 003a4000]   #1: totdiff=000c547f maxbdiff=00018611
872[Parsed_decimate_2 @ 003a4000]   #2: totdiff=000af7b7 maxbdiff=00011830
873[Parsed_decimate_2 @ 003a4000]   #3: totdiff=0007d84c maxbdiff=0000e8b8
874[Parsed_decimate_2 @ 003a4000]   #4: totdiff=00074aa5 maxbdiff=00009db3
875[Parsed_decimate_2 @ 003a4000]   #5: totdiff=0000dcdf maxbdiff=00000ba6 lowest [DROP]
876[matroska @ 048afa60] Writing block at offset 515919, size 854, pts 8509, dts 8467, duration 42, flags 0
877[matroska @ 048afa60] Writing block at offset 516780, size 879, pts 8551, dts 8509, duration 42, flags 0
878[matroska @ 048afa60] Writing block at offset 517666, size 876, pts 8592, dts 8551, duration 42, flags 0
879[matroska @ 048afa60] Writing block at offset 518549, size 729, pts 8634, dts 8592, duration 42, flags 0
880[Parsed_fieldmatch_0 @ 04844420] SC:0 | COMBS:  -1   9 256  -1  -1 (combpel=80) match=1 combed=NO
881[Parsed_fieldmatch_0 @ 04844420] SC:0 | COMBS:  -1   3 256  -1  -1 (combpel=80) match=1 combed=NO
882[Parsed_fieldmatch_0 @ 04844420] SC:0 | COMBS:  -1   3 256  -1  -1 (combpel=80) match=1 combed=NO
883[Parsed_fieldmatch_0 @ 04844420] SC:0 | COMBS:  13  -1 256  -1  -1 (combpel=80) match=0 combed=NO
884[Parsed_fieldmatch_0 @ 04844420] SC:0 | COMBS:  18  -1 256  -1  -1 (combpel=80) match=0 combed=NO
885[Parsed_decimate_2 @ 003a4000] 1/5 frame drop:
886[Parsed_decimate_2 @ 003a4000]   #1: totdiff=000761eb maxbdiff=0000ca33
887[Parsed_decimate_2 @ 003a4000]   #2: totdiff=000b1bc8 maxbdiff=00014d77
888[Parsed_decimate_2 @ 003a4000]   #3: totdiff=000b62ca maxbdiff=0000b95a
889[Parsed_decimate_2 @ 003a4000]   #4: totdiff=0011d3ca maxbdiff=00013da8
890[Parsed_decimate_2 @ 003a4000]   #5: totdiff=00016e6e maxbdiff=00001098 lowest [DROP]
891[matroska @ 048afa60] Writing block at offset 519285, size 700, pts 8676, dts 8634, duration 42, flags 0
892[matroska @ 048afa60] Starting new cluster at offset 519992 bytes, pts 8717dts 8676
893[matroska @ 048afa60] Writing block at offset 520008, size 8945, pts 8717, dts 8676, duration 42, flags 128
894[matroska @ 048afa60] Writing block at offset 528960, size 951, pts 8759, dts 8717, duration 42, flags 0
895[matroska @ 048afa60] Writing block at offset 529918, size 986, pts 8801, dts 8759, duration 42, flags 0
896[Parsed_fieldmatch_0 @ 04844420] SC:0 | COMBS:  -1   5 256  -1  -1 (combpel=80) match=1 combed=NO
897[Parsed_fieldmatch_0 @ 04844420] SC:0 | COMBS:  -1   1 256  -1  -1 (combpel=80) match=1 combed=NO
898[Parsed_fieldmatch_0 @ 04844420] SC:0 | COMBS:  -1   2 256  -1  -1 (combpel=80) match=1 combed=NO
899[Parsed_fieldmatch_0 @ 04844420] SC:0 | COMBS:   4  -1 256  -1  -1 (combpel=80) match=0 combed=NO
900[Parsed_fieldmatch_0 @ 04844420] Frame #270 at 9.076 is still interlaced
901[Parsed_fieldmatch_0 @ 04844420] SC:0 | COMBS: 126  -1 256  -1  -1 (combpel=80) match=0 combed=YES
902[Parsed_decimate_2 @ 003a4000] 1/5 frame drop:
903[Parsed_decimate_2 @ 003a4000]   #1: totdiff=001625b4 maxbdiff=0001f472
904[Parsed_decimate_2 @ 003a4000]   #2: totdiff=000f936e maxbdiff=0001ccb9
905[Parsed_decimate_2 @ 003a4000]   #3: totdiff=000aefe3 maxbdiff=0001fdc6
906[Parsed_decimate_2 @ 003a4000]   #4: totdiff=0009f210 maxbdiff=0001b6ce
907[Parsed_decimate_2 @ 003a4000]   #5: totdiff=00007c16 maxbdiff=000009f3 dup lowest [DROP]
908[matroska @ 048afa60] Writing block at offset 530911, size 1241, pts 8842, dts 8801, duration 42, flags 0
909[matroska @ 048afa60] Writing block at offset 532159, size 1488, pts 8884, dts 8842, duration 42, flags 0
910[matroska @ 048afa60] Writing block at offset 533654, size 1326, pts 8926, dts 8884, duration 42, flags 0
911[matroska @ 048afa60] Writing block at offset 534987, size 1043, pts 8968, dts 8926, duration 42, flags 0
912[Parsed_fieldmatch_0 @ 04844420] SC:0 | COMBS:  -1   1   1  -1  -1 (combpel=80) match=1 combed=NO
913[Parsed_fieldmatch_0 @ 04844420] SC:0 | COMBS:   1  -1 256  -1  -1 (combpel=80) match=0 combed=NO
914[Parsed_fieldmatch_0 @ 04844420] SC:0 | COMBS:  -1   1   1  -1  -1 (combpel=80) match=1 combed=NO
915[Parsed_fieldmatch_0 @ 04844420] SC:0 | COMBS:  -1   1 253  -1  -1 (combpel=80) match=1 combed=NO
916[Parsed_fieldmatch_0 @ 04844420] SC:0 | COMBS:   6  -1 251  -1  -1 (combpel=80) match=0 combed=NO
917[Parsed_decimate_2 @ 003a4000] 1/5 frame drop:
918[Parsed_decimate_2 @ 003a4000]   #1: totdiff=0005229d maxbdiff=00008168
919[Parsed_decimate_2 @ 003a4000]   #2: totdiff=0006bc66 maxbdiff=0000b947
920[Parsed_decimate_2 @ 003a4000]   #3: totdiff=00004706 maxbdiff=000001f2
921[Parsed_decimate_2 @ 003a4000]   #4: totdiff=0006320e maxbdiff=000092f4
922[Parsed_decimate_2 @ 003a4000]   #5: totdiff=00001a00 maxbdiff=00000145 dup lowest [DROP]
923[matroska @ 048afa60] Writing block at offset 536037, size 812, pts 9009, dts 8968, duration 42, flags 0
924[matroska @ 048afa60] Writing block at offset 536856, size 466, pts 9051, dts 9009, duration 42, flags 0
925[matroska @ 048afa60] Writing block at offset 537329, size 607, pts 9093, dts 9051, duration 42, flags 0
926[matroska @ 048afa60] Writing block at offset 537943, size 293, pts 9134, dts 9093, duration 42, flags 0
927[Parsed_fieldmatch_0 @ 04844420] SC:0 | COMBS:  -1   3 256  -1  -1 (combpel=80) match=1 combed=NO
928[Parsed_fieldmatch_0 @ 04844420] SC:0 | COMBS:  -1   3 238  -1  -1 (combpel=80) match=1 combed=NO
929[Parsed_fieldmatch_0 @ 04844420] SC:0 | COMBS:  -1   3   3  -1  -1 (combpel=80) match=1 combed=NO
930[Parsed_fieldmatch_0 @ 04844420] SC:0 | COMBS:   3  -1 256  -1  -1 (combpel=80) match=0 combed=NO
931[Parsed_fieldmatch_0 @ 04844420] SC:0 | COMBS:  15  -1 256  -1  -1 (combpel=80) match=0 combed=NO
932[Parsed_decimate_2 @ 003a4000] 1/5 frame drop:
933[Parsed_decimate_2 @ 003a4000]   #1: totdiff=000139d6 maxbdiff=00000d15
934[Parsed_decimate_2 @ 003a4000]   #2: totdiff=000880fa maxbdiff=000114cf
935[Parsed_decimate_2 @ 003a4000]   #3: totdiff=000408c0 maxbdiff=0000dff7
936[Parsed_decimate_2 @ 003a4000]   #4: totdiff=0005e1fc maxbdiff=0000800a
937[Parsed_decimate_2 @ 003a4000]   #5: totdiff=00003060 maxbdiff=000001ef dup lowest [DROP]
938[matroska @ 048afa60] Writing block at offset 538243, size 628, pts 9176, dts 9134, duration 42, flags 0
939[matroska @ 048afa60] Starting new cluster at offset 538878 bytes, pts 9218dts 9176
940[matroska @ 048afa60] Writing block at offset 538894, size 8671, pts 9218, dts 9176, duration 42, flags 128
941[matroska @ 048afa60] Writing block at offset 547572, size 827, pts 9260, dts 9218, duration 42, flags 0
942[matroska @ 048afa60] Writing block at offset 548406, size 489, pts 9301, dts 9260, duration 42, flags 0
943[Parsed_fieldmatch_0 @ 04844420] SC:0 | COMBS:  -1   8 256  -1  -1 (combpel=80) match=1 combed=NO
944[Parsed_fieldmatch_0 @ 04844420] SC:0 | COMBS:  -1  40 256  -1  -1 (combpel=80) match=1 combed=NO
945[Parsed_fieldmatch_0 @ 04844420] Frame #283 at 9.51 is still interlaced
946[Parsed_fieldmatch_0 @ 04844420] SC:0 | COMBS:  -1 107 256  -1  -1 (combpel=80) match=1 combed=YES
947[Parsed_fieldmatch_0 @ 04844420] Frame #284 at 9.543 is still interlaced
948[Parsed_fieldmatch_0 @ 04844420] SC:0 | COMBS: 256  -1 256  -1  -1 (combpel=80) match=0 combed=YES