Ticket #2786: linux_x86_ticket2786.txt

File linux_x86_ticket2786.txt, 5.7 KB (added by jamal, 3 years ago)

Same tests on Linux x86

Line 
1jamrial@GentooVM ~/build $ ./ffmpeg -i inside.tta -f md5 -
2ffmpeg version N-54757-g69383d0 Copyright (c) 2000-2013 the FFmpeg developers
3  built on Jul 15 2013 15:57:39 with gcc 4.6.3 (Gentoo 4.6.3 p1.13, pie-0.5.2)
4  configuration: --enable-gpl --cpu=amdfam10
5  libavutil      52. 39.100 / 52. 39.100
6  libavcodec     55. 18.102 / 55. 18.102
7  libavformat    55. 12.102 / 55. 12.102
8  libavdevice    55.  3.100 / 55.  3.100
9  libavfilter     3. 81.101 /  3. 81.101
10  libswscale      2.  3.100 /  2.  3.100
11  libswresample   0. 17.102 /  0. 17.102
12  libpostproc    52.  3.100 / 52.  3.100
13Input #0, tta, from 'inside.tta':
14  Duration: 00:00:11.89, start: 0.000000, bitrate: 814 kb/s
15    Stream #0:0: Audio: tta, 44100 Hz, stereo, s16
16Output #0, md5, to 'pipe:':
17  Metadata:
18    encoder         : Lavf55.12.102
19    Stream #0:0: Audio: pcm_s16le, 44100 Hz, stereo, s16, 1411 kb/s
20Stream mapping:
21  Stream #0:0 -> #0:0 (tta -> pcm_s16le)
22Press [q] to stop, [?] for help
23MD5=d0beb768d860b4776358077dd9fcb1e9
24size=       0kB time=00:00:11.88 bitrate=   0.0kbits/s
25video:0kB audio:2048kB subtitle:0 global headers:0kB muxing overhead -99.998236%
26
27jamrial@GentooVM ~/build $ ./ffmpeg -i inside.tta -c:a copy inside.mka
28ffmpeg version N-54757-g69383d0 Copyright (c) 2000-2013 the FFmpeg developers
29  built on Jul 15 2013 15:57:39 with gcc 4.6.3 (Gentoo 4.6.3 p1.13, pie-0.5.2)
30  configuration: --enable-gpl --cpu=amdfam10
31  libavutil      52. 39.100 / 52. 39.100
32  libavcodec     55. 18.102 / 55. 18.102
33  libavformat    55. 12.102 / 55. 12.102
34  libavdevice    55.  3.100 / 55.  3.100
35  libavfilter     3. 81.101 /  3. 81.101
36  libswscale      2.  3.100 /  2.  3.100
37  libswresample   0. 17.102 /  0. 17.102
38  libpostproc    52.  3.100 / 52.  3.100
39Input #0, tta, from 'inside.tta':
40  Duration: 00:00:11.89, start: 0.000000, bitrate: 814 kb/s
41    Stream #0:0: Audio: tta, 44100 Hz, stereo, s16
42Output #0, matroska, to 'inside.mka':
43  Metadata:
44    encoder         : Lavf55.12.102
45    Stream #0:0: Audio: tta, 44100 Hz, stereo
46Stream mapping:
47  Stream #0:0 -> #0:0 (copy)
48Press [q] to stop, [?] for help
49size=    1182kB time=00:00:12.53 bitrate= 772.4kbits/s
50video:0kB audio:1182kB subtitle:0 global headers:0kB muxing overhead 0.053638%
51
52jamrial@GentooVM ~/build $ ./ffmpeg -i inside.mka -f md5 -
53ffmpeg version N-54757-g69383d0 Copyright (c) 2000-2013 the FFmpeg developers
54  built on Jul 15 2013 15:57:39 with gcc 4.6.3 (Gentoo 4.6.3 p1.13, pie-0.5.2)
55  configuration: --enable-gpl --cpu=amdfam10
56  libavutil      52. 39.100 / 52. 39.100
57  libavcodec     55. 18.102 / 55. 18.102
58  libavformat    55. 12.102 / 55. 12.102
59  libavdevice    55.  3.100 / 55.  3.100
60  libavfilter     3. 81.101 /  3. 81.101
61  libswscale      2.  3.100 /  2.  3.100
62  libswresample   0. 17.102 /  0. 17.102
63  libpostproc    52.  3.100 / 52.  3.100
64Input #0, matroska,webm, from 'inside.mka':
65  Metadata:
66    ENCODER         : Lavf55.12.102
67  Duration: 00:00:11.89, start: 0.000000, bitrate: 814 kb/s
68    Stream #0:0: Audio: tta, 44100 Hz, stereo, s16 (default)
69Output #0, md5, to 'pipe:':
70  Metadata:
71    encoder         : Lavf55.12.102
72    Stream #0:0: Audio: pcm_s16le, 44100 Hz, stereo, s16, 1411 kb/s (default)
73Stream mapping:
74  Stream #0:0 -> #0:0 (tta -> pcm_s16le)
75Press [q] to stop, [?] for help
76MD5=eb96f9b80e0ce6bc5ddd841a8843620a
77size=       0kB time=00:00:11.49 bitrate=   0.0kbits/s
78video:0kB audio:1980kB subtitle:0 global headers:0kB muxing overhead -99.998175%
79
80jamrial@GentooVM ~/build $ ./ffmpeg -i inside.mka -c:a copy inside2.mka
81ffmpeg version N-54757-g69383d0 Copyright (c) 2000-2013 the FFmpeg developers
82  built on Jul 15 2013 15:57:39 with gcc 4.6.3 (Gentoo 4.6.3 p1.13, pie-0.5.2)
83  configuration: --enable-gpl --cpu=amdfam10
84  libavutil      52. 39.100 / 52. 39.100
85  libavcodec     55. 18.102 / 55. 18.102
86  libavformat    55. 12.102 / 55. 12.102
87  libavdevice    55.  3.100 / 55.  3.100
88  libavfilter     3. 81.101 /  3. 81.101
89  libswscale      2.  3.100 /  2.  3.100
90  libswresample   0. 17.102 /  0. 17.102
91  libpostproc    52.  3.100 / 52.  3.100
92Input #0, matroska,webm, from 'inside.mka':
93  Metadata:
94    ENCODER         : Lavf55.12.102
95  Duration: 00:00:11.89, start: 0.000000, bitrate: 814 kb/s
96    Stream #0:0: Audio: tta, 44100 Hz, stereo, s16 (default)
97Output #0, matroska, to 'inside2.mka':
98  Metadata:
99    encoder         : Lavf55.12.102
100    Stream #0:0: Audio: tta, 44100 Hz, stereo (default)
101Stream mapping:
102  Stream #0:0 -> #0:0 (copy)
103Press [q] to stop, [?] for help
104size=    1182kB time=00:00:12.53 bitrate= 772.4kbits/s
105video:0kB audio:1182kB subtitle:0 global headers:0kB muxing overhead 0.053886%
106
107jamrial@GentooVM ~/build $ ./ffmpeg -i inside2.mka -f md5 -
108ffmpeg version N-54757-g69383d0 Copyright (c) 2000-2013 the FFmpeg developers
109  built on Jul 15 2013 15:57:39 with gcc 4.6.3 (Gentoo 4.6.3 p1.13, pie-0.5.2)
110  configuration: --enable-gpl --cpu=amdfam10
111  libavutil      52. 39.100 / 52. 39.100
112  libavcodec     55. 18.102 / 55. 18.102
113  libavformat    55. 12.102 / 55. 12.102
114  libavdevice    55.  3.100 / 55.  3.100
115  libavfilter     3. 81.101 /  3. 81.101
116  libswscale      2.  3.100 /  2.  3.100
117  libswresample   0. 17.102 /  0. 17.102
118  libpostproc    52.  3.100 / 52.  3.100
119Input #0, matroska,webm, from 'inside2.mka':
120  Metadata:
121    ENCODER         : Lavf55.12.102
122  Duration: 00:00:12.54, start: 0.000000, bitrate: 772 kb/s
123    Stream #0:0: Audio: tta, 44100 Hz, stereo, s16 (default)
124Output #0, md5, to 'pipe:':
125  Metadata:
126    encoder         : Lavf55.12.102
127    Stream #0:0: Audio: pcm_s16le, 44100 Hz, stereo, s16, 1411 kb/s (default)
128Stream mapping:
129  Stream #0:0 -> #0:0 (tta -> pcm_s16le)
130Press [q] to stop, [?] for help
131MD5=eb96f9b80e0ce6bc5ddd841a8843620a
132size=       0kB time=00:00:11.49 bitrate=   0.0kbits/s
133video:0kB audio:1980kB subtitle:0 global headers:0kB muxing overhead -99.998175%