Ticket #2689: 169LOG-ffmpeg.log

File 169LOG-ffmpeg.log, 13.0 KB (added by jdachik01, 6 years ago)
Line 
1ffmpeg version N-51211-ge0e8c20 Copyright (c) 2000-2013 the FFmpeg developers
2  built on Mar 22 2013 09:01:53 with gcc 4.7.2 (GCC)
3  configuration: --enable-gpl --enable-version3 --disable-w32threads --enable-avisynth --enable-bzlib --enable-fontconfig --enable-frei0r --enable-gnutls --enable-libass --enable-libbluray --enable-libcaca --enable-libfreetype --enable-libgsm --enable-libilbc --enable-libmp3lame --enable-libopencore-amrnb --enable-libopencore-amrwb --enable-libopenjpeg --enable-libopus --enable-librtmp --enable-libschroedinger --enable-libsoxr --enable-libspeex --enable-libtheora --enable-libtwolame --enable-libvo-aacenc --enable-libvo-amrwbenc --enable-libvorbis --enable-libvpx --enable-libx264 --enable-libxavs --enable-libxvid --enable-zlib
4  libavutil      52. 22.101 / 52. 22.101
5  libavcodec     55.  1.100 / 55.  1.100
6  libavformat    55.  0.100 / 55.  0.100
7  libavdevice    55.  0.100 / 55.  0.100
8  libavfilter     3. 48.100 /  3. 48.100
9  libswscale      2.  2.100 /  2.  2.100
10  libswresample   0. 17.102 /  0. 17.102
11  libpostproc    52.  2.100 / 52.  2.100
12Splitting the commandline.
13Reading option '-v' ... matched as option 'v' (set libav* logging level) with argument '9'.
14Reading option '-loglevel' ... matched as option 'loglevel' (set libav* logging level) with argument '99'.
15Reading option '-i' ... matched as input file with argument '169test.mov'.
16Reading option '-t' ... matched as option 't' (record or transcode "duration" seconds of audio/video) with argument '1'.
17Reading option '-s' ... matched as option 's' (set frame size (WxH or abbreviation)) with argument '1280x720'.
18Reading option '-aspect' ... matched as option 'aspect' (set aspect ratio (4:3, 16:9 or 1.3333, 1.7777)) with argument '16:9'.
19Reading option '-threads' ... matched as AVOption 'threads' with argument '8'.
20Reading option '-vcodec' ... matched as option 'vcodec' (force video codec ('copy' to copy stream)) with argument 'mpeg2video'.
21Reading option '-vb' ... matched as AVOption 'vb' with argument '13010k'.
22Reading option '-minrate' ... matched as AVOption 'minrate' with argument '13010k'.
23Reading option '-maxrate' ... matched as AVOption 'maxrate' with argument '13010k'.
24Reading option '-muxrate' ... matched as AVOption 'muxrate' with argument '13600k'.
25Reading option '-bufsize' ... matched as AVOption 'bufsize' with argument '4M'.
26Reading option '-r' ... matched as option 'r' (set frame rate (Hz value, fraction or abbreviation)) with argument '59.94'.
27Reading option '-pix_fmt' ... matched as option 'pix_fmt' (set pixel format) with argument 'yuv420p'.
28Reading option '-bf' ... matched as AVOption 'bf' with argument '2'.
29Reading option '-g' ... matched as AVOption 'g' with argument '15'.
30Reading option '-ss' ... matched as option 'ss' (set the start time offset) with argument '0'.
31Reading option '-y' ... matched as option 'y' (overwrite output files) with argument '1'.
32Reading option '-acodec' ... matched as option 'acodec' (force audio codec ('copy' to copy stream)) with argument 'mp2'.
33Reading option '-ar' ... matched as option 'ar' (set audio sampling rate (in Hz)) with argument '48000'.
34Reading option '-ab' ... matched as AVOption 'ab' with argument '192k'.
35Reading option '-f' ... matched as option 'f' (force format) with argument 'mpegts'.
36Reading option '169test-ffmpeg.mpg' ... matched as output file.
37Finished splitting the commandline.
38Parsing a group of options: global .
39Applying option v (set libav* logging level) with argument 9.
40Applying option y (overwrite output files) with argument 1.
41Successfully parsed a group of options.
42Parsing a group of options: input file 169test.mov.
43Successfully parsed a group of options.
44Opening an input file: 169test.mov.
45[mov,mp4,m4a,3gp,3g2,mj2 @ 00000000003ae3c0] Format mov,mp4,m4a,3gp,3g2,mj2 probed with size=2048 and score=100
46[mov,mp4,m4a,3gp,3g2,mj2 @ 00000000003ae3c0] ISO: File Type Major Brand: qt 
47[mov,mp4,m4a,3gp,3g2,mj2 @ 00000000003ae3c0] File position before avformat_find_stream_info() is 2132
48[dnxhd @ 00000000022e2540] interlaced 2, cur field 0
49[dnxhd @ 00000000022e2540] interlaced 3, cur field 1
50[mov,mp4,m4a,3gp,3g2,mj2 @ 00000000003ae3c0] All info found
51[mov,mp4,m4a,3gp,3g2,mj2 @ 00000000003ae3c0] File position after avformat_find_stream_info() is 896356
52Guessed Channel Layout for  Input Stream #0.0 : stereo
53Input #0, mov,mp4,m4a,3gp,3g2,mj2, from '169test.mov':
54  Metadata:
55    major_brand     : qt 
56    minor_version   : 537199360
57    compatible_brands: qt 
58    creation_time   : 2013-06-19 23:49:44
59  Duration: 00:00:04.97, start: 0.000000, bitrate: 146931 kb/s
60    Stream #0:0(eng), 49, 1/48000: Audio: pcm_s16le (sowt / 0x74776F73), 48000 Hz, stereo, s16, 1536 kb/s
61    Metadata:
62      creation_time   : 2013-06-19 23:49:44
63      handler_name    : Apple Alias Data Handler
64    Stream #0:1(eng), 1, 1/30000: Video: dnxhd (AVdn / 0x6E645641), yuv422p, 1920x1080, 1/30000, 145344 kb/s, 29.97 fps, 29.97 tbr, 30k tbn, 30k tbc
65    Metadata:
66      creation_time   : 2013-06-19 23:49:44
67      handler_name    : Apple Alias Data Handler
68Successfully opened the file.
69Parsing a group of options: output file 169test-ffmpeg.mpg.
70Applying option t (record or transcode "duration" seconds of audio/video) with argument 1.
71Applying option s (set frame size (WxH or abbreviation)) with argument 1280x720.
72Applying option aspect (set aspect ratio (4:3, 16:9 or 1.3333, 1.7777)) with argument 16:9.
73Applying option vcodec (force video codec ('copy' to copy stream)) with argument mpeg2video.
74Applying option r (set frame rate (Hz value, fraction or abbreviation)) with argument 59.94.
75Applying option pix_fmt (set pixel format) with argument yuv420p.
76Applying option ss (set the start time offset) with argument 0.
77Applying option acodec (force audio codec ('copy' to copy stream)) with argument mp2.
78Applying option ar (set audio sampling rate (in Hz)) with argument 48000.
79Applying option f (force format) with argument mpegts.
80Successfully parsed a group of options.
81Opening an output file: 169test-ffmpeg.mpg.
82Successfully opened the file.
83[buffer @ 00000000022d3b40] Setting entry with key 'video_size' to value '1920x1080'
84[buffer @ 00000000022d3b40] Setting entry with key 'pix_fmt' to value '4'
85[buffer @ 00000000022d3b40] Setting entry with key 'time_base' to value '1/30000'
86[buffer @ 00000000022d3b40] Setting entry with key 'pixel_aspect' to value '0/1'
87[buffer @ 00000000022d3b40] Setting entry with key 'sws_param' to value 'flags=2'
88[buffer @ 00000000022d3b40] Setting entry with key 'frame_rate' to value '30000/1001'
89[graph 0 input from stream 0:1 @ 00000000022e9180] w:1920 h:1080 pixfmt:yuv422p tb:1/30000 fr:30000/1001 sar:0/1 sws_param:flags=2
90[scale @ 00000000022e5fa0] Setting 'w' to value '1280'
91[scale @ 00000000022e5fa0] Setting 'h' to value '720'
92[scale @ 00000000022e5fa0] Setting 'flags' to value '0x4'
93[scaler for output stream 0:0 @ 00000000022e9060] w:1280 h:720 flags:'0x4' interl:0
94[scaler for output stream 0:0 @ 00000000022e9060] w:1920 h:1080 fmt:yuv422p sar:0/1 -> w:1280 h:720 fmt:yuv420p sar:0/1 flags:0x4
95[abuffer @ 0000000004704100] Setting entry with key 'time_base' to value '1/48000'
96[abuffer @ 0000000004704100] Setting entry with key 'sample_rate' to value '48000'
97[abuffer @ 0000000004704100] Setting entry with key 'sample_fmt' to value 's16'
98[abuffer @ 0000000004704100] Setting entry with key 'channel_layout' to value '0x3'
99[graph 1 input from stream 0:0 @ 00000000022e8e20] tb:1/48000 samplefmt:s16 samplerate:48000 chlayout:0x3
100[aformat @ 00000000003aefc0] Setting entry with key 'sample_fmts' to value 's16'
101[aformat @ 00000000003aefc0] Setting entry with key 'sample_rates' to value '48000'
102[aformat @ 00000000003aefc0] Setting entry with key 'channel_layouts' to value '0x4,0x3'
103[mpeg2video @ 00000000022e4dc0] intra_quant_bias = 96 inter_quant_bias = 0
104[dnxhd @ 00000000022e2540] detected 2 logical cores
105[mpegts @ 00000000022d0540] muxrate 13600000, pcr every 180 pkts, sdt every 4521, pat/pmt every 904 pkts
106Output #0, mpegts, to '169test-ffmpeg.mpg':
107  Metadata:
108    major_brand     : qt 
109    minor_version   : 537199360
110    compatible_brands: qt 
111    encoder         : Lavf55.0.100
112    Stream #0:0(eng), 0, 1/90000: Video: mpeg2video, yuv420p, 1280x720 [SAR 1:1 DAR 16:9], 1001/60000, q=2-31, 13010 kb/s, 90k tbn, 59.94 tbc
113    Metadata:
114      creation_time   : 2013-06-19 23:49:44
115      handler_name    : Apple Alias Data Handler
116    Stream #0:1(eng), 0, 1/90000: Audio: mp2, 48000 Hz, stereo, s16, 192 kb/s
117    Metadata:
118      creation_time   : 2013-06-19 23:49:44
119      handler_name    : Apple Alias Data Handler
120Stream mapping:
121  Stream #0:1 -> #0:0 (dnxhd -> mpeg2video)
122  Stream #0:0 -> #0:1 (pcm_s16le -> mp2)
123Press [q] to stop, [?] for help
124[dnxhd @ 00000000047c4280] interlaced 2, cur field 0
125    Last message repeated 1 times
126[dnxhd @ 00000000047c4280] interlaced 3, cur field 1
127    Last message repeated 1 times
128[dnxhd @ 00000000047c4280] interlaced 2, cur field 0
129[dnxhd @ 00000000047c4280] interlaced 3, cur field 1
130[dnxhd @ 00000000047c4280] interlaced 2, cur field 0
131[dnxhd @ 00000000047c4280] interlaced 3, cur field 1
132*** 1 dup!
133    Last message repeated 1 times
134[dnxhd @ 00000000047c4280] interlaced 2, cur field 0
135[dnxhd @ 00000000047c4280] interlaced 3, cur field 1
136[dnxhd @ 00000000047c4280] interlaced 2, cur field 0
137[dnxhd @ 00000000047c4280] interlaced 3, cur field 1
138*** 1 dup!
139[dnxhd @ 00000000047c4280] interlaced 2, cur field 0
140[dnxhd @ 00000000047c4280] interlaced 3, cur field 1
141*** 1 dup!
142[dnxhd @ 00000000047c4280] interlaced 2, cur field 0
143[dnxhd @ 00000000047c4280] interlaced 3, cur field 1
144*** 1 dup!
145[dnxhd @ 00000000047c4280] interlaced 2, cur field 0
146[dnxhd @ 00000000047c4280] interlaced 3, cur field 1
147*** 1 dup!
148[dnxhd @ 00000000047c4280] interlaced 2, cur field 0
149[dnxhd @ 00000000047c4280] interlaced 3, cur field 1
150*** 1 dup!
151    Last message repeated 1 times
152[dnxhd @ 00000000047c4280] interlaced 2, cur field 0
153[dnxhd @ 00000000047c4280] interlaced 3, cur field 1
154[dnxhd @ 00000000047c4280] interlaced 2, cur field 0
155[dnxhd @ 00000000047c4280] interlaced 3, cur field 1
156*** 1 dup!
157[dnxhd @ 00000000047c4280] interlaced 2, cur field 0
158[dnxhd @ 00000000047c4280] interlaced 3, cur field 1
159*** 1 dup!
160    Last message repeated 1 times
161[dnxhd @ 00000000047c4280] interlaced 2, cur field 0
162[dnxhd @ 00000000047c4280] interlaced 3, cur field 1
163[dnxhd @ 00000000047c4280] interlaced 2, cur field 0
164[dnxhd @ 00000000047c4280] interlaced 3, cur field 1
165*** 1 dup!
166frame=   25 fps=0.0 q=2.0 size=     611kB time=00:00:00.36 bitrate=13645.0kbits/s dup=12 drop=0   
167interlaced 2, cur field 0
168[dnxhd @ 00000000047c4280] interlaced 3, cur field 1
169*** 1 dup!
170[dnxhd @ 00000000047c4280] interlaced 2, cur field 0
171[dnxhd @ 00000000047c4280] *** 1 dup!
172interlaced 3, cur field 1
173[dnxhd @ 00000000047c4280] interlaced 2, cur field 0
174[dnxhd @ 00000000047c4280] interlaced 3, cur field 1
175*** 1 dup!
176[dnxhd @ 00000000047c4280] interlaced 2, cur field 0
177[dnxhd @ 00000000047c4280] interlaced 3, cur field 1
178*** 1 dup!
179    Last message repeated 1 times
180[dnxhd @ 00000000047c4280] interlaced 2, cur field 0
181[dnxhd @ 00000000047c4280] interlaced 3, cur field 1
182[dnxhd @ 00000000047c4280] interlaced 2, cur field 0
183[dnxhd @ 00000000047c4280] interlaced 3, cur field 1
184*** 1 dup!
185[dnxhd @ 00000000047c4280] interlaced 2, cur field 0
186[dnxhd @ 00000000047c4280] interlaced 3, cur field 1
187*** 1 dup!
188[dnxhd @ 00000000047c4280] interlaced 2, cur field 0
189[dnxhd @ 00000000047c4280] interlaced 3, cur field 1
190*** 1 dup!
191[dnxhd @ 00000000047c4280] interlaced 2, cur field 0
192[dnxhd @ 00000000047c4280] interlaced 3, cur field 1
193*** 1 dup!
194[dnxhd @ 00000000047c4280] interlaced 2, cur field 0
195[dnxhd @ 00000000047c4280] interlaced 3, cur field 1
196*** 1 dup!
197    Last message repeated 1 times
198[dnxhd @ 00000000047c4280] interlaced 2, cur field 0
199[dnxhd @ 00000000047c4280] interlaced 3, cur field 1
200[dnxhd @ 00000000047c4280] interlaced 2, cur field 0
201[dnxhd @ 00000000047c4280] interlaced 3, cur field 1
202*** 1 dup!
203[dnxhd @ 00000000047c4280] interlaced 2, cur field 0
204[dnxhd @ 00000000047c4280] interlaced 3, cur field 1
205*** 1 dup!
206frame=   51 fps= 48 q=0.0 size=    1329kB time=00:00:00.80 bitrate=13599.3kbits/s dup=25 drop=0   
207[dnxhd @ 00000000047c4280] *** 1 dup!
208interlaced 2, cur field 0
209[dnxhd @ 00000000047c4280] interlaced 3, cur field 1
210[dnxhd @ 00000000047c4280] interlaced 2, cur field 0
211[dnxhd @ 00000000047c4280] interlaced 3, cur field 1
212*** 1 dup!
213[dnxhd @ 00000000047c4280] interlaced 2, cur field 0
214[dnxhd @ 00000000047c4280] interlaced 3, cur field 1
215*** 1 dup!
216[dnxhd @ 00000000047c4280] interlaced 2, cur field 0
217[dnxhd @ 00000000047c4280] interlaced 3, cur field 1
218*** 1 dup!
219[dnxhd @ 00000000047c4280] interlaced 2, cur field 0
220[dnxhd @ 00000000047c4280] interlaced 3, cur field 1
221*** 1 dup!
222No more output streams to write to, finishing.
223frame=   60 fps= 47 q=0.0 Lsize=    1637kB time=00:00:00.99 bitrate=13439.8kbits/s dup=30 drop=0   
224
225video:1468kB audio:24kB subtitle:0 global headers:0kB muxing overhead 9.791122%
226[AVIOContext @ 00000000003ae920] Statistics: 21348352 bytes read, 67 seeks