Ticket #2689: 169LOG-1270.log

File 169LOG-1270.log, 9.8 KB (added by jdachik01, 6 years ago)

Log of 1270x720

Line 
1ffmpeg version N-48284-g518239c Copyright (c) 2000-2012 the FFmpeg developers
2  built on Dec 29 2012 22:38:19 with gcc 4.7.2 (GCC)
3  configuration: --enable-gpl --enable-version3 --disable-w32threads --enable-avisynth --enable-bzlib --enable-fontconfig --enable-frei0r --enable-gnutls --enable-libass --enable-libbluray --enable-libcaca --enable-libfreetype --enable-libgsm --enable-libmp3lame --enable-libopencore-amrnb --enable-libopencore-amrwb --enable-libopenjpeg --enable-libopus --enable-librtmp --enable-libschroedinger --enable-libtheora --enable-libtwolame --enable-libvo-aacenc --enable-libvo-amrwbenc --enable-libvorbis --enable-libvpx --enable-libx264 --enable-libxavs --enable-libxvid --enable-zlib
4  libavutil      52. 12.100 / 52. 12.100
5  libavcodec     54. 81.100 / 54. 81.100
6  libavformat    54. 50.104 / 54. 50.104
7  libavdevice    54.  3.102 / 54.  3.102
8  libavfilter     3. 30.101 /  3. 30.101
9  libswscale      2.  1.103 /  2.  1.103
10  libswresample   0. 17.102 /  0. 17.102
11  libpostproc    52.  2.100 / 52.  2.100
12Splitting the commandline.
13Reading option '-v' ... matched as option 'v' (set libav* logging level) with argument '9'.
14Reading option '-loglevel' ... matched as option 'loglevel' (set libav* logging level) with argument '99'.
15Reading option '-i' ... matched as input file with argument 'C:\lngm1210h.mpg'.
16Reading option '-s' ... matched as option 's' (set frame size (WxH or abbreviation)) with argument '1270x720'.
17Reading option '-aspect' ... matched as option 'aspect' (set aspect ratio (4:3, 16:9 or 1.3333, 1.7777)) with argument '1.77777'.
18Reading option '-threads' ... matched as AVOption 'threads' with argument '8'.
19Reading option '-vcodec' ... matched as option 'vcodec' (force video codec ('copy' to copy stream)) with argument 'mpeg2video'.
20Reading option '-vb' ... matched as AVOption 'vb' with argument '13010k'.
21Reading option '-minrate' ... matched as AVOption 'minrate' with argument '13010k'.
22Reading option '-maxrate' ... matched as AVOption 'maxrate' with argument '13010k'.
23Reading option '-muxrate' ... matched as AVOption 'muxrate' with argument '13600k'.
24Reading option '-bufsize' ... matched as AVOption 'bufsize' with argument '1835000'.
25Reading option '-r' ... matched as option 'r' (set frame rate (Hz value, fraction or abbreviation)) with argument '59.94'.
26Reading option '-pix_fmt' ... matched as option 'pix_fmt' (set pixel format) with argument 'yuv420p'.
27Reading option '-bf' ... matched as AVOption 'bf' with argument '2'.
28Reading option '-g' ... matched as AVOption 'g' with argument '15'.
29Reading option '-ss' ... matched as option 'ss' (set the start time offset) with argument '0'.
30Reading option '-y' ... matched as option 'y' (overwrite output files) with argument '1'.
31Reading option '-acodec' ... matched as option 'acodec' (force audio codec ('copy' to copy stream)) with argument 'mp2'.
32Reading option '-ar' ... matched as option 'ar' (set audio sampling rate (in Hz)) with argument '48000'.
33Reading option '-ab' ... matched as AVOption 'ab' with argument '192k'.
34Reading option '-copyts' ... matched as option 'copyts' (copy timestamps) with argument '1'.
35Reading option '-f' ... matched as option 'f' (force format) with argument 'mpegts'.
36Reading option '169test.mpg' ... matched as output file.
37Finished splitting the commandline.
38Parsing a group of options: global .
39Applying option v (set libav* logging level) with argument 9.
40Applying option y (overwrite output files) with argument 1.
41Applying option copyts (copy timestamps) with argument 1.
42Successfully parsed a group of options.
43Parsing a group of options: input file C:\lngm1210h.mpg.
44Successfully parsed a group of options.
45Opening an input file: C:\lngm1210h.mpg.
46[mpegts @ 002c6d20] Format mpegts probed with size=2048 and score=100
47[mpegts @ 002c6d20] stream=0 stream_type=6 pid=1e2 prog_reg_desc=
48[mpegts @ 002c6d20] stream=1 stream_type=6 pid=1e3 prog_reg_desc=
49[mpegts @ 002c6d20] stream=2 stream_type=6 pid=1e4 prog_reg_desc=
50[mpegts @ 002c6d20] stream=3 stream_type=6 pid=1e5 prog_reg_desc=
51[mpegts @ 002c6d20] stream=4 stream_type=2 pid=1e1 prog_reg_desc=
52[mpegts @ 002c6d20] File position before avformat_find_stream_info() is 0
53[mpegts @ 002c6d20] parser not found for codec s302m, packets or times may be invalid.
54    Last message repeated 7 times
55[mpegts @ 002c6d20] Probe buffer size limit 5000000 reached
56[mpegts @ 002c6d20] File position after avformat_find_stream_info() is 0
57Input #0, mpegts, from 'C:\lngm1210h.mpg':
58  Duration: 00:00:31.90, start: 0.400400, bitrate: 60145 kb/s
59  Program 1
60    Stream #0:0[0x1e2], 18, 1/90000: Audio: s302m (BSSD / 0x44535342), 48000 Hz, stereo, s32, 2304 kb/s
61    Stream #0:1[0x1e3], 18, 1/90000: Audio: s302m (BSSD / 0x44535342), 48000 Hz, stereo, s32, 2304 kb/s
62    Stream #0:2[0x1e4], 18, 1/90000: Audio: s302m (BSSD / 0x44535342), 48000 Hz, stereo, s32, 2304 kb/s
63    Stream #0:3[0x1e5], 18, 1/90000: Audio: s302m (BSSD / 0x44535342), 48000 Hz, stereo, s32, 2304 kb/s
64    Stream #0:4[0x1e1], 26, 1/90000: Video: mpeg2video (4:2:2) ([2][0][0][0] / 0x0002), yuv422p, 1920x1080 [SAR 1:1 DAR 16:9], 1001/60000, 29.97 fps, 29.97 tbr, 90k tbn, 59.94 tbc
65Successfully openened the file.
66Parsing a group of options: output file 169test.mpg.
67Applying option s (set frame size (WxH or abbreviation)) with argument 1270x720.
68Applying option aspect (set aspect ratio (4:3, 16:9 or 1.3333, 1.7777)) with argument 1.77777.
69Applying option vcodec (force video codec ('copy' to copy stream)) with argument mpeg2video.
70Applying option r (set frame rate (Hz value, fraction or abbreviation)) with argument 59.94.
71Applying option pix_fmt (set pixel format) with argument yuv420p.
72Applying option ss (set the start time offset) with argument 0.
73Applying option acodec (force audio codec ('copy' to copy stream)) with argument mp2.
74Applying option ar (set audio sampling rate (in Hz)) with argument 48000.
75Applying option f (force format) with argument mpegts.
76Successfully parsed a group of options.
77Opening an output file: 169test.mpg.
78Successfully openened the file.
79[buffer @ 002ca9a0] Setting entry with key 'video_size' to value '1920x1080'
80[buffer @ 002ca9a0] Setting entry with key 'pix_fmt' to value '4'
81[buffer @ 002ca9a0] Setting entry with key 'time_base' to value '1/90000'
82[buffer @ 002ca9a0] Setting entry with key 'pixel_aspect' to value '1/1'
83[buffer @ 002ca9a0] Setting entry with key 'sws_param' to value 'flags=2'
84[buffer @ 002ca9a0] Setting entry with key 'frame_rate' to value '30000/1001'
85[graph 0 input from stream 0:4 @ 002ca940] w:1920 h:1080 pixfmt:yuv422p tb:1/90000 fr:30000/1001 sar:1/1 sws_param:flags=2
86[scale @ 002c8cc0] Setting 'w' to value '1270'
87[scale @ 002c8cc0] Setting 'h' to value '720'
88[scale @ 002c8cc0] Setting 'flags' to value '0x4'
89[scaler for output stream 0:0 @ 002c8c60] w:1270 h:720 flags:'0x4' interl:0
90[scaler for output stream 0:0 @ 002c8c60] w:1920 h:1080 fmt:yuv422p sar:1/1 -> w:1270 h:720 fmt:yuv420p sar:128/127 flags:0x4
91[abuffer @ 03c2a580] Setting entry with key 'time_base' to value '1/48000'
92[abuffer @ 03c2a580] Setting entry with key 'sample_rate' to value '48000'
93[abuffer @ 03c2a580] Setting entry with key 'sample_fmt' to value 's32'
94[abuffer @ 03c2a580] Setting entry with key 'channel_layout' to value '0x3'
95[graph 1 input from stream 0:0 @ 002c8480] tb:1/48000 samplefmt:s32 samplerate:48000 chlayout:0x3
96[aformat @ 002cade0] Setting entry with key 'sample_fmts' to value 's16'
97[aformat @ 002cade0] Setting entry with key 'sample_rates' to value '48000'
98[aformat @ 002cade0] Setting entry with key 'channel_layouts' to value '0x4,0x3'
99[audio format for output stream 0:1 @ 002c8540] auto-inserting filter 'auto-inserted resampler 0' between the filter 'Parsed_anull_0' and the filter 'audio format for output stream 0:1'
100[auto-inserted resampler 0 @ 002c85a0] chl:stereo fmt:s32 r:48000Hz -> chl:stereo fmt:s16 r:48000Hz
101[mpeg2video @ 038d0260] intra_quant_bias = 96 inter_quant_bias = 0
102[mpeg2video @ 02da5a00] detected 4 logical cores
103[mpegts @ 002cd940] muxrate 13600000, pcr every 180 pkts, sdt every 4521, pat/pmt every 904 pkts
104Output #0, mpegts, to '169test.mpg':
105  Metadata:
106    encoder         : Lavf54.50.104
107    Stream #0:0, 0, 1/90000: Video: mpeg2video, yuv420p, 1270x720 [SAR 128:127 DAR 16:9], 1001/60000, q=2-31, 13010 kb/s, 90k tbn, 59.94 tbc
108    Stream #0:1, 0, 1/90000: Audio: mp2, 48000 Hz, stereo, s16, 192 kb/s
109Stream mapping:
110  Stream #0:4 -> #0:0 (mpeg2video -> mpeg2video)
111  Stream #0:0 -> #0:1 (s302m -> mp2)
112Press [q] to stop, [?] for help
113[mpeg2video @ 02da5a00] warning: first frame is no keyframe
114*** 24 dup!
115*** 1 dup!
116    Last message repeated 5 times
117frame=   37 fps=0.0 q=2.0 size=     830kB time=00:00:00.56 bitrate=11992.4kbits/s dup=30 drop=0   
118*** 1 dup!
119    Last message repeated 8 times
120frame=   55 fps= 53 q=2.0 size=    1137kB time=00:00:00.86 bitrate=10734.6kbits/s dup=39 drop=0   
121*** 1 dup!
122    Last message repeated 11 times
123frame=   79 fps= 51 q=2.0 size=    1828kB time=00:00:01.26 bitrate=11809.5kbits/s dup=51 drop=0   
124*** 1 dup!
125    Last message repeated 6 times
126frame=   93 fps= 45 q=2.5 size=    2246kB time=00:00:01.50 bitrate=12253.3kbits/s dup=58 drop=0   
127*** 1 dup!
128    Last message repeated 3 times
129frame=  101 fps= 39 q=4.4 size=    2465kB time=00:00:01.63 bitrate=12352.3kbits/s dup=62 drop=0   
130*** 1 dup!
131    Last message repeated 3 times
132frame=  109 fps= 35 q=4.0 size=    2763kB time=00:00:01.76 bitrate=12801.2kbits/s dup=66 drop=0   
133*** 1 dup!
134    Last message repeated 4 times
135frame=  119 fps= 32 q=4.4 size=    3045kB time=00:00:01.93 bitrate=12889.8kbits/s dup=71 drop=0   
136*** 1 dup!
137frame=  121 fps= 31 q=4.4 Lsize=    3433kB time=00:00:02.00 bitrate=14046.0kbits/s dup=72 drop=0    video:3259kB audio:33kB subtitle:0 global headers:0kB muxing overhead 4.269457%
138[AVIOContext @ 002c72a0] Statistics: 19058832 bytes read, 2 seeks