Ticket #2653: ffmpeg-20130608-214947.log

File ffmpeg-20130608-214947.log, 51.2 KB (added by sulio, 3 years ago)

another report another options

Line 
1ffmpeg started on 2013-06-08 at 21:49:47
2Report written to "ffmpeg-20130608-214947.log"
3Command line:
4"c:\\ffmpeg_64\\bin\\ffmpeg" -i left.h264 -vf "crop=iw:ih-2*138,scale=2048:858,lutrgb=gammaval(2.6)" -pix_fmt yuv444p12le -vcodec libopenjpeg -profile 1 -cinema_mode 1 -report "decoded/test_%6d.j2c"
5ffmpeg version N-53834-g3289670 Copyright (c) 2000-2013 the FFmpeg developers
6  built on Jun  5 2013 00:35:20 with gcc 4.7.3 (GCC)
7  configuration: --enable-gpl --enable-version3 --disable-w32threads --enable-avisynth --enable-bzlib --enable-fontconfig --enable-frei0r --enable-gnutls --enable-iconv --enable-libass --enable-libbluray --enable-libcaca --enable-libfreetype --enable-libgsm --enable-libilbc --enable-libmodplug --enable-libmp3lame --enable-libopencore-amrnb --enable-libopencore-amrwb --enable-libopenjpeg --enable-libopus --enable-librtmp --enable-libschroedinger --enable-libsoxr --enable-libspeex --enable-libtheora --enable-libtwolame --enable-libvo-aacenc --enable-libvo-amrwbenc --enable-libvorbis --enable-libvpx --enable-libx264 --enable-libxavs --enable-libxvid --enable-zlib
8  libavutil      52. 34.100 / 52. 34.100
9  libavcodec     55. 15.100 / 55. 15.100
10  libavformat    55.  8.102 / 55.  8.102
11  libavdevice    55.  2.100 / 55.  2.100
12  libavfilter     3. 75.101 /  3. 75.101
13  libswscale      2.  3.100 /  2.  3.100
14  libswresample   0. 17.102 /  0. 17.102
15  libpostproc    52.  3.100 / 52.  3.100
16Splitting the commandline.
17Reading option '-i' ... matched as input file with argument 'left.h264'.
18Reading option '-vf' ... matched as option 'vf' (set video filters) with argument 'crop=iw:ih-2*138,scale=2048:858,lutrgb=gammaval(2.6)'.
19Reading option '-pix_fmt' ... matched as option 'pix_fmt' (set pixel format) with argument 'yuv444p12le'.
20Reading option '-vcodec' ... matched as option 'vcodec' (force video codec ('copy' to copy stream)) with argument 'libopenjpeg'.
21Reading option '-profile' ... matched as option 'profile' (set profile) with argument '1'.
22Reading option '-cinema_mode' ... matched as AVOption 'cinema_mode' with argument '1'.
23Reading option '-report' ... matched as option 'report' (generate a report) with argument '1'.
24Reading option 'decoded/test_%6d.j2c' ... matched as output file.
25Finished splitting the commandline.
26Parsing a group of options: global .
27Applying option report (generate a report) with argument 1.
28Successfully parsed a group of options.
29Parsing a group of options: input file left.h264.
30Successfully parsed a group of options.
31Opening an input file: left.h264.
32[h264 @ 0000000002698fe0] Format h264 probed with size=2048 and score=51
33[h264 @ 0000000002698fe0] File position before avformat_find_stream_info() is 0
34[h264 @ 000000000039b060] no picture
35[h264 @ 0000000002698fe0] Probe buffer size limit of 5000000 bytes reached
36[h264 @ 0000000002698fe0] Stream #0: not enough frames to estimate rate; consider increasing probesize
37[h264 @ 0000000002698fe0] File position after avformat_find_stream_info() is 5139456
38Input #0, h264, from 'left.h264':
39  Duration: N/A, bitrate: N/A
40    Stream #0:0, 90, 1/1200000: Video: h264 (High), yuv420p, 1920x1080 [SAR 1:1 DAR 16:9], 23.98 fps, 23.98 tbr, 1200k tbn, 47.95 tbc
41Successfully opened the file.
42Parsing a group of options: output file decoded/test_%6d.j2c.
43Applying option vf (set video filters) with argument crop=iw:ih-2*138,scale=2048:858,lutrgb=gammaval(2.6).
44Applying option pix_fmt (set pixel format) with argument yuv444p12le.
45Applying option vcodec (force video codec ('copy' to copy stream)) with argument libopenjpeg.
46Applying option profile (set profile) with argument 1.
47Please use -profile:a or -profile:v, -profile is ambiguous
48Successfully parsed a group of options.
49Opening an output file: decoded/test_%6d.j2c.
50Successfully opened the file.
51detected 8 logical cores
52[Parsed_crop_0 @ 000000000269cd80] Setting 'out_w' to value 'iw'
53[Parsed_crop_0 @ 000000000269cd80] Setting 'out_h' to value 'ih-2*138'
54[Parsed_scale_1 @ 000000000269ce40] Setting 'w' to value '2048'
55[Parsed_scale_1 @ 000000000269ce40] Setting 'h' to value '858'
56[Parsed_scale_1 @ 000000000269ce40] Setting 'flags' to value '0x4'
57[Parsed_scale_1 @ 000000000269ce40] w:2048 h:858 flags:'0x4' interl:0
58[Parsed_lutrgb_2 @ 000000000269cf00] Setting 'c0' to value 'gammaval(2.6)'
59[graph 0 input from stream 0:0 @ 000000000269cfc0] Setting 'video_size' to value '1920x1080'
60[graph 0 input from stream 0:0 @ 000000000269cfc0] Setting 'pix_fmt' to value '0'
61[graph 0 input from stream 0:0 @ 000000000269cfc0] Setting 'time_base' to value '1/1200000'
62[graph 0 input from stream 0:0 @ 000000000269cfc0] Setting 'pixel_aspect' to value '1/1'
63[graph 0 input from stream 0:0 @ 000000000269cfc0] Setting 'sws_param' to value 'flags=2'
64[graph 0 input from stream 0:0 @ 000000000269cfc0] Setting 'frame_rate' to value '48000/2002'
65[graph 0 input from stream 0:0 @ 000000000269cfc0] w:1920 h:1080 pixfmt:yuv420p tb:1/1200000 fr:24000/1001 sar:1/1 sws_param:flags=2
66[format @ 000000000269d140] compat: called with args=[yuv444p12le]
67[format @ 000000000269d140] Setting 'pix_fmts' to value 'yuv444p12le'
68[auto-inserted scaler 0 @ 000000000269d2c0] Setting 'flags' to value '0x4'
69[auto-inserted scaler 0 @ 000000000269d2c0] w:iw h:ih flags:'0x4' interl:0
70[format @ 000000000269d140] auto-inserting filter 'auto-inserted scaler 0' between the filter 'Parsed_lutrgb_2' and the filter 'format'
71[AVFilterGraph @ 00000000026b20a0] query_formats: 6 queried, 5 merged, 1 already done, 0 delayed
72[Parsed_scale_1 @ 000000000269ce40] picking rgb24 out of 6 ref:yuv420p alpha:0
73[Parsed_crop_0 @ 000000000269cd80] w:1920 h:1080 sar:1/1 -> w:1920 h:804 sar:1/1
74[Parsed_scale_1 @ 000000000269ce40] w:1920 h:804 fmt:yuv420p sar:1/1 -> w:2048 h:858 fmt:rgb24 sar:2145/2144 flags:0x4
75[Parsed_lutrgb_2 @ 000000000269cf00] val[0][0] = 0
76[Parsed_lutrgb_2 @ 000000000269cf00] val[0][1] = 0
77[Parsed_lutrgb_2 @ 000000000269cf00] val[0][2] = 0
78[Parsed_lutrgb_2 @ 000000000269cf00] val[0][3] = 0
79[Parsed_lutrgb_2 @ 000000000269cf00] val[0][4] = 0
80[Parsed_lutrgb_2 @ 000000000269cf00] val[0][5] = 0
81[Parsed_lutrgb_2 @ 000000000269cf00] val[0][6] = 0
82[Parsed_lutrgb_2 @ 000000000269cf00] val[0][7] = 0
83[Parsed_lutrgb_2 @ 000000000269cf00] val[0][8] = 0
84[Parsed_lutrgb_2 @ 000000000269cf00] val[0][9] = 0
85[Parsed_lutrgb_2 @ 000000000269cf00] val[0][10] = 0
86[Parsed_lutrgb_2 @ 000000000269cf00] val[0][11] = 0
87[Parsed_lutrgb_2 @ 000000000269cf00] val[0][12] = 0
88[Parsed_lutrgb_2 @ 000000000269cf00] val[0][13] = 0
89[Parsed_lutrgb_2 @ 000000000269cf00] val[0][14] = 0
90[Parsed_lutrgb_2 @ 000000000269cf00] val[0][15] = 0
91[Parsed_lutrgb_2 @ 000000000269cf00] val[0][16] = 0
92[Parsed_lutrgb_2 @ 000000000269cf00] val[0][17] = 0
93[Parsed_lutrgb_2 @ 000000000269cf00] val[0][18] = 0
94[Parsed_lutrgb_2 @ 000000000269cf00] val[0][19] = 0
95[Parsed_lutrgb_2 @ 000000000269cf00] val[0][20] = 0
96[Parsed_lutrgb_2 @ 000000000269cf00] val[0][21] = 0
97[Parsed_lutrgb_2 @ 000000000269cf00] val[0][22] = 0
98[Parsed_lutrgb_2 @ 000000000269cf00] val[0][23] = 0
99[Parsed_lutrgb_2 @ 000000000269cf00] val[0][24] = 0
100[Parsed_lutrgb_2 @ 000000000269cf00] val[0][25] = 0
101[Parsed_lutrgb_2 @ 000000000269cf00] val[0][26] = 0
102[Parsed_lutrgb_2 @ 000000000269cf00] val[0][27] = 0
103[Parsed_lutrgb_2 @ 000000000269cf00] val[0][28] = 0
104[Parsed_lutrgb_2 @ 000000000269cf00] val[0][29] = 0
105[Parsed_lutrgb_2 @ 000000000269cf00] val[0][30] = 0
106[Parsed_lutrgb_2 @ 000000000269cf00] val[0][31] = 1
107[Parsed_lutrgb_2 @ 000000000269cf00] val[0][32] = 1
108[Parsed_lutrgb_2 @ 000000000269cf00] val[0][33] = 1
109[Parsed_lutrgb_2 @ 000000000269cf00] val[0][34] = 1
110[Parsed_lutrgb_2 @ 000000000269cf00] val[0][35] = 1
111[Parsed_lutrgb_2 @ 000000000269cf00] val[0][36] = 1
112[Parsed_lutrgb_2 @ 000000000269cf00] val[0][37] = 1
113[Parsed_lutrgb_2 @ 000000000269cf00] val[0][38] = 1
114[Parsed_lutrgb_2 @ 000000000269cf00] val[0][39] = 1
115[Parsed_lutrgb_2 @ 000000000269cf00] val[0][40] = 2
116[Parsed_lutrgb_2 @ 000000000269cf00] val[0][41] = 2
117[Parsed_lutrgb_2 @ 000000000269cf00] val[0][42] = 2
118[Parsed_lutrgb_2 @ 000000000269cf00] val[0][43] = 2
119[Parsed_lutrgb_2 @ 000000000269cf00] val[0][44] = 2
120[Parsed_lutrgb_2 @ 000000000269cf00] val[0][45] = 2
121[Parsed_lutrgb_2 @ 000000000269cf00] val[0][46] = 2
122[Parsed_lutrgb_2 @ 000000000269cf00] val[0][47] = 3
123[Parsed_lutrgb_2 @ 000000000269cf00] val[0][48] = 3
124[Parsed_lutrgb_2 @ 000000000269cf00] val[0][49] = 3
125[Parsed_lutrgb_2 @ 000000000269cf00] val[0][50] = 3
126[Parsed_lutrgb_2 @ 000000000269cf00] val[0][51] = 3
127[Parsed_lutrgb_2 @ 000000000269cf00] val[0][52] = 4
128[Parsed_lutrgb_2 @ 000000000269cf00] val[0][53] = 4
129[Parsed_lutrgb_2 @ 000000000269cf00] val[0][54] = 4
130[Parsed_lutrgb_2 @ 000000000269cf00] val[0][55] = 4
131[Parsed_lutrgb_2 @ 000000000269cf00] val[0][56] = 4
132[Parsed_lutrgb_2 @ 000000000269cf00] val[0][57] = 5
133[Parsed_lutrgb_2 @ 000000000269cf00] val[0][58] = 5
134[Parsed_lutrgb_2 @ 000000000269cf00] val[0][59] = 5
135[Parsed_lutrgb_2 @ 000000000269cf00] val[0][60] = 5
136[Parsed_lutrgb_2 @ 000000000269cf00] val[0][61] = 6
137[Parsed_lutrgb_2 @ 000000000269cf00] val[0][62] = 6
138[Parsed_lutrgb_2 @ 000000000269cf00] val[0][63] = 6
139[Parsed_lutrgb_2 @ 000000000269cf00] val[0][64] = 7
140[Parsed_lutrgb_2 @ 000000000269cf00] val[0][65] = 7
141[Parsed_lutrgb_2 @ 000000000269cf00] val[0][66] = 7
142[Parsed_lutrgb_2 @ 000000000269cf00] val[0][67] = 7
143[Parsed_lutrgb_2 @ 000000000269cf00] val[0][68] = 8
144[Parsed_lutrgb_2 @ 000000000269cf00] val[0][69] = 8
145[Parsed_lutrgb_2 @ 000000000269cf00] val[0][70] = 8
146[Parsed_lutrgb_2 @ 000000000269cf00] val[0][71] = 9
147[Parsed_lutrgb_2 @ 000000000269cf00] val[0][72] = 9
148[Parsed_lutrgb_2 @ 000000000269cf00] val[0][73] = 9
149[Parsed_lutrgb_2 @ 000000000269cf00] val[0][74] = 10
150[Parsed_lutrgb_2 @ 000000000269cf00] val[0][75] = 10
151[Parsed_lutrgb_2 @ 000000000269cf00] val[0][76] = 10
152[Parsed_lutrgb_2 @ 000000000269cf00] val[0][77] = 11
153[Parsed_lutrgb_2 @ 000000000269cf00] val[0][78] = 11
154[Parsed_lutrgb_2 @ 000000000269cf00] val[0][79] = 12
155[Parsed_lutrgb_2 @ 000000000269cf00] val[0][80] = 12
156[Parsed_lutrgb_2 @ 000000000269cf00] val[0][81] = 12
157[Parsed_lutrgb_2 @ 000000000269cf00] val[0][82] = 13
158[Parsed_lutrgb_2 @ 000000000269cf00] val[0][83] = 13
159[Parsed_lutrgb_2 @ 000000000269cf00] val[0][84] = 14
160[Parsed_lutrgb_2 @ 000000000269cf00] val[0][85] = 14
161[Parsed_lutrgb_2 @ 000000000269cf00] val[0][86] = 15
162[Parsed_lutrgb_2 @ 000000000269cf00] val[0][87] = 15
163[Parsed_lutrgb_2 @ 000000000269cf00] val[0][88] = 16
164[Parsed_lutrgb_2 @ 000000000269cf00] val[0][89] = 16
165[Parsed_lutrgb_2 @ 000000000269cf00] val[0][90] = 17
166[Parsed_lutrgb_2 @ 000000000269cf00] val[0][91] = 17
167[Parsed_lutrgb_2 @ 000000000269cf00] val[0][92] = 18
168[Parsed_lutrgb_2 @ 000000000269cf00] val[0][93] = 18
169[Parsed_lutrgb_2 @ 000000000269cf00] val[0][94] = 19
170[Parsed_lutrgb_2 @ 000000000269cf00] val[0][95] = 19
171[Parsed_lutrgb_2 @ 000000000269cf00] val[0][96] = 20
172[Parsed_lutrgb_2 @ 000000000269cf00] val[0][97] = 20
173[Parsed_lutrgb_2 @ 000000000269cf00] val[0][98] = 21
174[Parsed_lutrgb_2 @ 000000000269cf00] val[0][99] = 21
175[Parsed_lutrgb_2 @ 000000000269cf00] val[0][100] = 22
176[Parsed_lutrgb_2 @ 000000000269cf00] val[0][101] = 22
177[Parsed_lutrgb_2 @ 000000000269cf00] val[0][102] = 23
178[Parsed_lutrgb_2 @ 000000000269cf00] val[0][103] = 24
179[Parsed_lutrgb_2 @ 000000000269cf00] val[0][104] = 24
180[Parsed_lutrgb_2 @ 000000000269cf00] val[0][105] = 25
181[Parsed_lutrgb_2 @ 000000000269cf00] val[0][106] = 26
182[Parsed_lutrgb_2 @ 000000000269cf00] val[0][107] = 26
183[Parsed_lutrgb_2 @ 000000000269cf00] val[0][108] = 27
184[Parsed_lutrgb_2 @ 000000000269cf00] val[0][109] = 27
185[Parsed_lutrgb_2 @ 000000000269cf00] val[0][110] = 28
186[Parsed_lutrgb_2 @ 000000000269cf00] val[0][111] = 29
187[Parsed_lutrgb_2 @ 000000000269cf00] val[0][112] = 30
188[Parsed_lutrgb_2 @ 000000000269cf00] val[0][113] = 30
189[Parsed_lutrgb_2 @ 000000000269cf00] val[0][114] = 31
190[Parsed_lutrgb_2 @ 000000000269cf00] val[0][115] = 32
191[Parsed_lutrgb_2 @ 000000000269cf00] val[0][116] = 32
192[Parsed_lutrgb_2 @ 000000000269cf00] val[0][117] = 33
193[Parsed_lutrgb_2 @ 000000000269cf00] val[0][118] = 34
194[Parsed_lutrgb_2 @ 000000000269cf00] val[0][119] = 35
195[Parsed_lutrgb_2 @ 000000000269cf00] val[0][120] = 35
196[Parsed_lutrgb_2 @ 000000000269cf00] val[0][121] = 36
197[Parsed_lutrgb_2 @ 000000000269cf00] val[0][122] = 37
198[Parsed_lutrgb_2 @ 000000000269cf00] val[0][123] = 38
199[Parsed_lutrgb_2 @ 000000000269cf00] val[0][124] = 39
200[Parsed_lutrgb_2 @ 000000000269cf00] val[0][125] = 39
201[Parsed_lutrgb_2 @ 000000000269cf00] val[0][126] = 40
202[Parsed_lutrgb_2 @ 000000000269cf00] val[0][127] = 41
203[Parsed_lutrgb_2 @ 000000000269cf00] val[0][128] = 42
204[Parsed_lutrgb_2 @ 000000000269cf00] val[0][129] = 43
205[Parsed_lutrgb_2 @ 000000000269cf00] val[0][130] = 44
206[Parsed_lutrgb_2 @ 000000000269cf00] val[0][131] = 45
207[Parsed_lutrgb_2 @ 000000000269cf00] val[0][132] = 46
208[Parsed_lutrgb_2 @ 000000000269cf00] val[0][133] = 46
209[Parsed_lutrgb_2 @ 000000000269cf00] val[0][134] = 47
210[Parsed_lutrgb_2 @ 000000000269cf00] val[0][135] = 48
211[Parsed_lutrgb_2 @ 000000000269cf00] val[0][136] = 49
212[Parsed_lutrgb_2 @ 000000000269cf00] val[0][137] = 50
213[Parsed_lutrgb_2 @ 000000000269cf00] val[0][138] = 51
214[Parsed_lutrgb_2 @ 000000000269cf00] val[0][139] = 52
215[Parsed_lutrgb_2 @ 000000000269cf00] val[0][140] = 53
216[Parsed_lutrgb_2 @ 000000000269cf00] val[0][141] = 54
217[Parsed_lutrgb_2 @ 000000000269cf00] val[0][142] = 55
218[Parsed_lutrgb_2 @ 000000000269cf00] val[0][143] = 56
219[Parsed_lutrgb_2 @ 000000000269cf00] val[0][144] = 57
220[Parsed_lutrgb_2 @ 000000000269cf00] val[0][145] = 58
221[Parsed_lutrgb_2 @ 000000000269cf00] val[0][146] = 59
222[Parsed_lutrgb_2 @ 000000000269cf00] val[0][147] = 60
223[Parsed_lutrgb_2 @ 000000000269cf00] val[0][148] = 61
224[Parsed_lutrgb_2 @ 000000000269cf00] val[0][149] = 63
225[Parsed_lutrgb_2 @ 000000000269cf00] val[0][150] = 64
226[Parsed_lutrgb_2 @ 000000000269cf00] val[0][151] = 65
227[Parsed_lutrgb_2 @ 000000000269cf00] val[0][152] = 66
228[Parsed_lutrgb_2 @ 000000000269cf00] val[0][153] = 67
229[Parsed_lutrgb_2 @ 000000000269cf00] val[0][154] = 68
230[Parsed_lutrgb_2 @ 000000000269cf00] val[0][155] = 69
231[Parsed_lutrgb_2 @ 000000000269cf00] val[0][156] = 71
232[Parsed_lutrgb_2 @ 000000000269cf00] val[0][157] = 72
233[Parsed_lutrgb_2 @ 000000000269cf00] val[0][158] = 73
234[Parsed_lutrgb_2 @ 000000000269cf00] val[0][159] = 74
235[Parsed_lutrgb_2 @ 000000000269cf00] val[0][160] = 75
236[Parsed_lutrgb_2 @ 000000000269cf00] val[0][161] = 77
237[Parsed_lutrgb_2 @ 000000000269cf00] val[0][162] = 78
238[Parsed_lutrgb_2 @ 000000000269cf00] val[0][163] = 79
239[Parsed_lutrgb_2 @ 000000000269cf00] val[0][164] = 80
240[Parsed_lutrgb_2 @ 000000000269cf00] val[0][165] = 82
241[Parsed_lutrgb_2 @ 000000000269cf00] val[0][166] = 83
242[Parsed_lutrgb_2 @ 000000000269cf00] val[0][167] = 84
243[Parsed_lutrgb_2 @ 000000000269cf00] val[0][168] = 86
244[Parsed_lutrgb_2 @ 000000000269cf00] val[0][169] = 87
245[Parsed_lutrgb_2 @ 000000000269cf00] val[0][170] = 88
246[Parsed_lutrgb_2 @ 000000000269cf00] val[0][171] = 90
247[Parsed_lutrgb_2 @ 000000000269cf00] val[0][172] = 91
248[Parsed_lutrgb_2 @ 000000000269cf00] val[0][173] = 92
249[Parsed_lutrgb_2 @ 000000000269cf00] val[0][174] = 94
250[Parsed_lutrgb_2 @ 000000000269cf00] val[0][175] = 95
251[Parsed_lutrgb_2 @ 000000000269cf00] val[0][176] = 97
252[Parsed_lutrgb_2 @ 000000000269cf00] val[0][177] = 98
253[Parsed_lutrgb_2 @ 000000000269cf00] val[0][178] = 100
254[Parsed_lutrgb_2 @ 000000000269cf00] val[0][179] = 101
255[Parsed_lutrgb_2 @ 000000000269cf00] val[0][180] = 103
256[Parsed_lutrgb_2 @ 000000000269cf00] val[0][181] = 104
257[Parsed_lutrgb_2 @ 000000000269cf00] val[0][182] = 106
258[Parsed_lutrgb_2 @ 000000000269cf00] val[0][183] = 107
259[Parsed_lutrgb_2 @ 000000000269cf00] val[0][184] = 109
260[Parsed_lutrgb_2 @ 000000000269cf00] val[0][185] = 110
261[Parsed_lutrgb_2 @ 000000000269cf00] val[0][186] = 112
262[Parsed_lutrgb_2 @ 000000000269cf00] val[0][187] = 113
263[Parsed_lutrgb_2 @ 000000000269cf00] val[0][188] = 115
264[Parsed_lutrgb_2 @ 000000000269cf00] val[0][189] = 117
265[Parsed_lutrgb_2 @ 000000000269cf00] val[0][190] = 118
266[Parsed_lutrgb_2 @ 000000000269cf00] val[0][191] = 120
267[Parsed_lutrgb_2 @ 000000000269cf00] val[0][192] = 121
268[Parsed_lutrgb_2 @ 000000000269cf00] val[0][193] = 123
269[Parsed_lutrgb_2 @ 000000000269cf00] val[0][194] = 125
270[Parsed_lutrgb_2 @ 000000000269cf00] val[0][195] = 126
271[Parsed_lutrgb_2 @ 000000000269cf00] val[0][196] = 128
272[Parsed_lutrgb_2 @ 000000000269cf00] val[0][197] = 130
273[Parsed_lutrgb_2 @ 000000000269cf00] val[0][198] = 132
274[Parsed_lutrgb_2 @ 000000000269cf00] val[0][199] = 133
275[Parsed_lutrgb_2 @ 000000000269cf00] val[0][200] = 135
276[Parsed_lutrgb_2 @ 000000000269cf00] val[0][201] = 137
277[Parsed_lutrgb_2 @ 000000000269cf00] val[0][202] = 139
278[Parsed_lutrgb_2 @ 000000000269cf00] val[0][203] = 140
279[Parsed_lutrgb_2 @ 000000000269cf00] val[0][204] = 142
280[Parsed_lutrgb_2 @ 000000000269cf00] val[0][205] = 144
281[Parsed_lutrgb_2 @ 000000000269cf00] val[0][206] = 146
282[Parsed_lutrgb_2 @ 000000000269cf00] val[0][207] = 148
283[Parsed_lutrgb_2 @ 000000000269cf00] val[0][208] = 150
284[Parsed_lutrgb_2 @ 000000000269cf00] val[0][209] = 152
285[Parsed_lutrgb_2 @ 000000000269cf00] val[0][210] = 153
286[Parsed_lutrgb_2 @ 000000000269cf00] val[0][211] = 155
287[Parsed_lutrgb_2 @ 000000000269cf00] val[0][212] = 157
288[Parsed_lutrgb_2 @ 000000000269cf00] val[0][213] = 159
289[Parsed_lutrgb_2 @ 000000000269cf00] val[0][214] = 161
290[Parsed_lutrgb_2 @ 000000000269cf00] val[0][215] = 163
291[Parsed_lutrgb_2 @ 000000000269cf00] val[0][216] = 165
292[Parsed_lutrgb_2 @ 000000000269cf00] val[0][217] = 167
293[Parsed_lutrgb_2 @ 000000000269cf00] val[0][218] = 169
294[Parsed_lutrgb_2 @ 000000000269cf00] val[0][219] = 171
295[Parsed_lutrgb_2 @ 000000000269cf00] val[0][220] = 173
296[Parsed_lutrgb_2 @ 000000000269cf00] val[0][221] = 175
297[Parsed_lutrgb_2 @ 000000000269cf00] val[0][222] = 177
298[Parsed_lutrgb_2 @ 000000000269cf00] val[0][223] = 179
299[Parsed_lutrgb_2 @ 000000000269cf00] val[0][224] = 182
300[Parsed_lutrgb_2 @ 000000000269cf00] val[0][225] = 184
301[Parsed_lutrgb_2 @ 000000000269cf00] val[0][226] = 186
302[Parsed_lutrgb_2 @ 000000000269cf00] val[0][227] = 188
303[Parsed_lutrgb_2 @ 000000000269cf00] val[0][228] = 190
304[Parsed_lutrgb_2 @ 000000000269cf00] val[0][229] = 192
305[Parsed_lutrgb_2 @ 000000000269cf00] val[0][230] = 194
306[Parsed_lutrgb_2 @ 000000000269cf00] val[0][231] = 197
307[Parsed_lutrgb_2 @ 000000000269cf00] val[0][232] = 199
308[Parsed_lutrgb_2 @ 000000000269cf00] val[0][233] = 201
309[Parsed_lutrgb_2 @ 000000000269cf00] val[0][234] = 203
310[Parsed_lutrgb_2 @ 000000000269cf00] val[0][235] = 206
311[Parsed_lutrgb_2 @ 000000000269cf00] val[0][236] = 208
312[Parsed_lutrgb_2 @ 000000000269cf00] val[0][237] = 210
313[Parsed_lutrgb_2 @ 000000000269cf00] val[0][238] = 213
314[Parsed_lutrgb_2 @ 000000000269cf00] val[0][239] = 215
315[Parsed_lutrgb_2 @ 000000000269cf00] val[0][240] = 217
316[Parsed_lutrgb_2 @ 000000000269cf00] val[0][241] = 220
317[Parsed_lutrgb_2 @ 000000000269cf00] val[0][242] = 222
318[Parsed_lutrgb_2 @ 000000000269cf00] val[0][243] = 224
319[Parsed_lutrgb_2 @ 000000000269cf00] val[0][244] = 227
320[Parsed_lutrgb_2 @ 000000000269cf00] val[0][245] = 229
321[Parsed_lutrgb_2 @ 000000000269cf00] val[0][246] = 232
322[Parsed_lutrgb_2 @ 000000000269cf00] val[0][247] = 234
323[Parsed_lutrgb_2 @ 000000000269cf00] val[0][248] = 237
324[Parsed_lutrgb_2 @ 000000000269cf00] val[0][249] = 239
325[Parsed_lutrgb_2 @ 000000000269cf00] val[0][250] = 242
326[Parsed_lutrgb_2 @ 000000000269cf00] val[0][251] = 244
327[Parsed_lutrgb_2 @ 000000000269cf00] val[0][252] = 247
328[Parsed_lutrgb_2 @ 000000000269cf00] val[0][253] = 249
329[Parsed_lutrgb_2 @ 000000000269cf00] val[0][254] = 252
330[Parsed_lutrgb_2 @ 000000000269cf00] val[0][255] = 255
331[Parsed_lutrgb_2 @ 000000000269cf00] val[1][0] = 0
332[Parsed_lutrgb_2 @ 000000000269cf00] val[1][1] = 1
333[Parsed_lutrgb_2 @ 000000000269cf00] val[1][2] = 2
334[Parsed_lutrgb_2 @ 000000000269cf00] val[1][3] = 3
335[Parsed_lutrgb_2 @ 000000000269cf00] val[1][4] = 4
336[Parsed_lutrgb_2 @ 000000000269cf00] val[1][5] = 5
337[Parsed_lutrgb_2 @ 000000000269cf00] val[1][6] = 6
338[Parsed_lutrgb_2 @ 000000000269cf00] val[1][7] = 7
339[Parsed_lutrgb_2 @ 000000000269cf00] val[1][8] = 8
340[Parsed_lutrgb_2 @ 000000000269cf00] val[1][9] = 9
341[Parsed_lutrgb_2 @ 000000000269cf00] val[1][10] = 10
342[Parsed_lutrgb_2 @ 000000000269cf00] val[1][11] = 11
343[Parsed_lutrgb_2 @ 000000000269cf00] val[1][12] = 12
344[Parsed_lutrgb_2 @ 000000000269cf00] val[1][13] = 13
345[Parsed_lutrgb_2 @ 000000000269cf00] val[1][14] = 14
346[Parsed_lutrgb_2 @ 000000000269cf00] val[1][15] = 15
347[Parsed_lutrgb_2 @ 000000000269cf00] val[1][16] = 16
348[Parsed_lutrgb_2 @ 000000000269cf00] val[1][17] = 17
349[Parsed_lutrgb_2 @ 000000000269cf00] val[1][18] = 18
350[Parsed_lutrgb_2 @ 000000000269cf00] val[1][19] = 19
351[Parsed_lutrgb_2 @ 000000000269cf00] val[1][20] = 20
352[Parsed_lutrgb_2 @ 000000000269cf00] val[1][21] = 21
353[Parsed_lutrgb_2 @ 000000000269cf00] val[1][22] = 22
354[Parsed_lutrgb_2 @ 000000000269cf00] val[1][23] = 23
355[Parsed_lutrgb_2 @ 000000000269cf00] val[1][24] = 24
356[Parsed_lutrgb_2 @ 000000000269cf00] val[1][25] = 25
357[Parsed_lutrgb_2 @ 000000000269cf00] val[1][26] = 26
358[Parsed_lutrgb_2 @ 000000000269cf00] val[1][27] = 27
359[Parsed_lutrgb_2 @ 000000000269cf00] val[1][28] = 28
360[Parsed_lutrgb_2 @ 000000000269cf00] val[1][29] = 29
361[Parsed_lutrgb_2 @ 000000000269cf00] val[1][30] = 30
362[Parsed_lutrgb_2 @ 000000000269cf00] val[1][31] = 31
363[Parsed_lutrgb_2 @ 000000000269cf00] val[1][32] = 32
364[Parsed_lutrgb_2 @ 000000000269cf00] val[1][33] = 33
365[Parsed_lutrgb_2 @ 000000000269cf00] val[1][34] = 34
366[Parsed_lutrgb_2 @ 000000000269cf00] val[1][35] = 35
367[Parsed_lutrgb_2 @ 000000000269cf00] val[1][36] = 36
368[Parsed_lutrgb_2 @ 000000000269cf00] val[1][37] = 37
369[Parsed_lutrgb_2 @ 000000000269cf00] val[1][38] = 38
370[Parsed_lutrgb_2 @ 000000000269cf00] val[1][39] = 39
371[Parsed_lutrgb_2 @ 000000000269cf00] val[1][40] = 40
372[Parsed_lutrgb_2 @ 000000000269cf00] val[1][41] = 41
373[Parsed_lutrgb_2 @ 000000000269cf00] val[1][42] = 42
374[Parsed_lutrgb_2 @ 000000000269cf00] val[1][43] = 43
375[Parsed_lutrgb_2 @ 000000000269cf00] val[1][44] = 44
376[Parsed_lutrgb_2 @ 000000000269cf00] val[1][45] = 45
377[Parsed_lutrgb_2 @ 000000000269cf00] val[1][46] = 46
378[Parsed_lutrgb_2 @ 000000000269cf00] val[1][47] = 47
379[Parsed_lutrgb_2 @ 000000000269cf00] val[1][48] = 48
380[Parsed_lutrgb_2 @ 000000000269cf00] val[1][49] = 49
381[Parsed_lutrgb_2 @ 000000000269cf00] val[1][50] = 50
382[Parsed_lutrgb_2 @ 000000000269cf00] val[1][51] = 51
383[Parsed_lutrgb_2 @ 000000000269cf00] val[1][52] = 52
384[Parsed_lutrgb_2 @ 000000000269cf00] val[1][53] = 53
385[Parsed_lutrgb_2 @ 000000000269cf00] val[1][54] = 54
386[Parsed_lutrgb_2 @ 000000000269cf00] val[1][55] = 55
387[Parsed_lutrgb_2 @ 000000000269cf00] val[1][56] = 56
388[Parsed_lutrgb_2 @ 000000000269cf00] val[1][57] = 57
389[Parsed_lutrgb_2 @ 000000000269cf00] val[1][58] = 58
390[Parsed_lutrgb_2 @ 000000000269cf00] val[1][59] = 59
391[Parsed_lutrgb_2 @ 000000000269cf00] val[1][60] = 60
392[Parsed_lutrgb_2 @ 000000000269cf00] val[1][61] = 61
393[Parsed_lutrgb_2 @ 000000000269cf00] val[1][62] = 62
394[Parsed_lutrgb_2 @ 000000000269cf00] val[1][63] = 63
395[Parsed_lutrgb_2 @ 000000000269cf00] val[1][64] = 64
396[Parsed_lutrgb_2 @ 000000000269cf00] val[1][65] = 65
397[Parsed_lutrgb_2 @ 000000000269cf00] val[1][66] = 66
398[Parsed_lutrgb_2 @ 000000000269cf00] val[1][67] = 67
399[Parsed_lutrgb_2 @ 000000000269cf00] val[1][68] = 68
400[Parsed_lutrgb_2 @ 000000000269cf00] val[1][69] = 69
401[Parsed_lutrgb_2 @ 000000000269cf00] val[1][70] = 70
402[Parsed_lutrgb_2 @ 000000000269cf00] val[1][71] = 71
403[Parsed_lutrgb_2 @ 000000000269cf00] val[1][72] = 72
404[Parsed_lutrgb_2 @ 000000000269cf00] val[1][73] = 73
405[Parsed_lutrgb_2 @ 000000000269cf00] val[1][74] = 74
406[Parsed_lutrgb_2 @ 000000000269cf00] val[1][75] = 75
407[Parsed_lutrgb_2 @ 000000000269cf00] val[1][76] = 76
408[Parsed_lutrgb_2 @ 000000000269cf00] val[1][77] = 77
409[Parsed_lutrgb_2 @ 000000000269cf00] val[1][78] = 78
410[Parsed_lutrgb_2 @ 000000000269cf00] val[1][79] = 79
411[Parsed_lutrgb_2 @ 000000000269cf00] val[1][80] = 80
412[Parsed_lutrgb_2 @ 000000000269cf00] val[1][81] = 81
413[Parsed_lutrgb_2 @ 000000000269cf00] val[1][82] = 82
414[Parsed_lutrgb_2 @ 000000000269cf00] val[1][83] = 83
415[Parsed_lutrgb_2 @ 000000000269cf00] val[1][84] = 84
416[Parsed_lutrgb_2 @ 000000000269cf00] val[1][85] = 85
417[Parsed_lutrgb_2 @ 000000000269cf00] val[1][86] = 86
418[Parsed_lutrgb_2 @ 000000000269cf00] val[1][87] = 87
419[Parsed_lutrgb_2 @ 000000000269cf00] val[1][88] = 88
420[Parsed_lutrgb_2 @ 000000000269cf00] val[1][89] = 89
421[Parsed_lutrgb_2 @ 000000000269cf00] val[1][90] = 90
422[Parsed_lutrgb_2 @ 000000000269cf00] val[1][91] = 91
423[Parsed_lutrgb_2 @ 000000000269cf00] val[1][92] = 92
424[Parsed_lutrgb_2 @ 000000000269cf00] val[1][93] = 93
425[Parsed_lutrgb_2 @ 000000000269cf00] val[1][94] = 94
426[Parsed_lutrgb_2 @ 000000000269cf00] val[1][95] = 95
427[Parsed_lutrgb_2 @ 000000000269cf00] val[1][96] = 96
428[Parsed_lutrgb_2 @ 000000000269cf00] val[1][97] = 97
429[Parsed_lutrgb_2 @ 000000000269cf00] val[1][98] = 98
430[Parsed_lutrgb_2 @ 000000000269cf00] val[1][99] = 99
431[Parsed_lutrgb_2 @ 000000000269cf00] val[1][100] = 100
432[Parsed_lutrgb_2 @ 000000000269cf00] val[1][101] = 101
433[Parsed_lutrgb_2 @ 000000000269cf00] val[1][102] = 102
434[Parsed_lutrgb_2 @ 000000000269cf00] val[1][103] = 103
435[Parsed_lutrgb_2 @ 000000000269cf00] val[1][104] = 104
436[Parsed_lutrgb_2 @ 000000000269cf00] val[1][105] = 105
437[Parsed_lutrgb_2 @ 000000000269cf00] val[1][106] = 106
438[Parsed_lutrgb_2 @ 000000000269cf00] val[1][107] = 107
439[Parsed_lutrgb_2 @ 000000000269cf00] val[1][108] = 108
440[Parsed_lutrgb_2 @ 000000000269cf00] val[1][109] = 109
441[Parsed_lutrgb_2 @ 000000000269cf00] val[1][110] = 110
442[Parsed_lutrgb_2 @ 000000000269cf00] val[1][111] = 111
443[Parsed_lutrgb_2 @ 000000000269cf00] val[1][112] = 112
444[Parsed_lutrgb_2 @ 000000000269cf00] val[1][113] = 113
445[Parsed_lutrgb_2 @ 000000000269cf00] val[1][114] = 114
446[Parsed_lutrgb_2 @ 000000000269cf00] val[1][115] = 115
447[Parsed_lutrgb_2 @ 000000000269cf00] val[1][116] = 116
448[Parsed_lutrgb_2 @ 000000000269cf00] val[1][117] = 117
449[Parsed_lutrgb_2 @ 000000000269cf00] val[1][118] = 118
450[Parsed_lutrgb_2 @ 000000000269cf00] val[1][119] = 119
451[Parsed_lutrgb_2 @ 000000000269cf00] val[1][120] = 120
452[Parsed_lutrgb_2 @ 000000000269cf00] val[1][121] = 121
453[Parsed_lutrgb_2 @ 000000000269cf00] val[1][122] = 122
454[Parsed_lutrgb_2 @ 000000000269cf00] val[1][123] = 123
455[Parsed_lutrgb_2 @ 000000000269cf00] val[1][124] = 124
456[Parsed_lutrgb_2 @ 000000000269cf00] val[1][125] = 125
457[Parsed_lutrgb_2 @ 000000000269cf00] val[1][126] = 126
458[Parsed_lutrgb_2 @ 000000000269cf00] val[1][127] = 127
459[Parsed_lutrgb_2 @ 000000000269cf00] val[1][128] = 128
460[Parsed_lutrgb_2 @ 000000000269cf00] val[1][129] = 129
461[Parsed_lutrgb_2 @ 000000000269cf00] val[1][130] = 130
462[Parsed_lutrgb_2 @ 000000000269cf00] val[1][131] = 131
463[Parsed_lutrgb_2 @ 000000000269cf00] val[1][132] = 132
464[Parsed_lutrgb_2 @ 000000000269cf00] val[1][133] = 133
465[Parsed_lutrgb_2 @ 000000000269cf00] val[1][134] = 134
466[Parsed_lutrgb_2 @ 000000000269cf00] val[1][135] = 135
467[Parsed_lutrgb_2 @ 000000000269cf00] val[1][136] = 136
468[Parsed_lutrgb_2 @ 000000000269cf00] val[1][137] = 137
469[Parsed_lutrgb_2 @ 000000000269cf00] val[1][138] = 138
470[Parsed_lutrgb_2 @ 000000000269cf00] val[1][139] = 139
471[Parsed_lutrgb_2 @ 000000000269cf00] val[1][140] = 140
472[Parsed_lutrgb_2 @ 000000000269cf00] val[1][141] = 141
473[Parsed_lutrgb_2 @ 000000000269cf00] val[1][142] = 142
474[Parsed_lutrgb_2 @ 000000000269cf00] val[1][143] = 143
475[Parsed_lutrgb_2 @ 000000000269cf00] val[1][144] = 144
476[Parsed_lutrgb_2 @ 000000000269cf00] val[1][145] = 145
477[Parsed_lutrgb_2 @ 000000000269cf00] val[1][146] = 146
478[Parsed_lutrgb_2 @ 000000000269cf00] val[1][147] = 147
479[Parsed_lutrgb_2 @ 000000000269cf00] val[1][148] = 148
480[Parsed_lutrgb_2 @ 000000000269cf00] val[1][149] = 149
481[Parsed_lutrgb_2 @ 000000000269cf00] val[1][150] = 150
482[Parsed_lutrgb_2 @ 000000000269cf00] val[1][151] = 151
483[Parsed_lutrgb_2 @ 000000000269cf00] val[1][152] = 152
484[Parsed_lutrgb_2 @ 000000000269cf00] val[1][153] = 153
485[Parsed_lutrgb_2 @ 000000000269cf00] val[1][154] = 154
486[Parsed_lutrgb_2 @ 000000000269cf00] val[1][155] = 155
487[Parsed_lutrgb_2 @ 000000000269cf00] val[1][156] = 156
488[Parsed_lutrgb_2 @ 000000000269cf00] val[1][157] = 157
489[Parsed_lutrgb_2 @ 000000000269cf00] val[1][158] = 158
490[Parsed_lutrgb_2 @ 000000000269cf00] val[1][159] = 159
491[Parsed_lutrgb_2 @ 000000000269cf00] val[1][160] = 160
492[Parsed_lutrgb_2 @ 000000000269cf00] val[1][161] = 161
493[Parsed_lutrgb_2 @ 000000000269cf00] val[1][162] = 162
494[Parsed_lutrgb_2 @ 000000000269cf00] val[1][163] = 163
495[Parsed_lutrgb_2 @ 000000000269cf00] val[1][164] = 164
496[Parsed_lutrgb_2 @ 000000000269cf00] val[1][165] = 165
497[Parsed_lutrgb_2 @ 000000000269cf00] val[1][166] = 166
498[Parsed_lutrgb_2 @ 000000000269cf00] val[1][167] = 167
499[Parsed_lutrgb_2 @ 000000000269cf00] val[1][168] = 168
500[Parsed_lutrgb_2 @ 000000000269cf00] val[1][169] = 169
501[Parsed_lutrgb_2 @ 000000000269cf00] val[1][170] = 170
502[Parsed_lutrgb_2 @ 000000000269cf00] val[1][171] = 171
503[Parsed_lutrgb_2 @ 000000000269cf00] val[1][172] = 172
504[Parsed_lutrgb_2 @ 000000000269cf00] val[1][173] = 173
505[Parsed_lutrgb_2 @ 000000000269cf00] val[1][174] = 174
506[Parsed_lutrgb_2 @ 000000000269cf00] val[1][175] = 175
507[Parsed_lutrgb_2 @ 000000000269cf00] val[1][176] = 176
508[Parsed_lutrgb_2 @ 000000000269cf00] val[1][177] = 177
509[Parsed_lutrgb_2 @ 000000000269cf00] val[1][178] = 178
510[Parsed_lutrgb_2 @ 000000000269cf00] val[1][179] = 179
511[Parsed_lutrgb_2 @ 000000000269cf00] val[1][180] = 180
512[Parsed_lutrgb_2 @ 000000000269cf00] val[1][181] = 181
513[Parsed_lutrgb_2 @ 000000000269cf00] val[1][182] = 182
514[Parsed_lutrgb_2 @ 000000000269cf00] val[1][183] = 183
515[Parsed_lutrgb_2 @ 000000000269cf00] val[1][184] = 184
516[Parsed_lutrgb_2 @ 000000000269cf00] val[1][185] = 185
517[Parsed_lutrgb_2 @ 000000000269cf00] val[1][186] = 186
518[Parsed_lutrgb_2 @ 000000000269cf00] val[1][187] = 187
519[Parsed_lutrgb_2 @ 000000000269cf00] val[1][188] = 188
520[Parsed_lutrgb_2 @ 000000000269cf00] val[1][189] = 189
521[Parsed_lutrgb_2 @ 000000000269cf00] val[1][190] = 190
522[Parsed_lutrgb_2 @ 000000000269cf00] val[1][191] = 191
523[Parsed_lutrgb_2 @ 000000000269cf00] val[1][192] = 192
524[Parsed_lutrgb_2 @ 000000000269cf00] val[1][193] = 193
525[Parsed_lutrgb_2 @ 000000000269cf00] val[1][194] = 194
526[Parsed_lutrgb_2 @ 000000000269cf00] val[1][195] = 195
527[Parsed_lutrgb_2 @ 000000000269cf00] val[1][196] = 196
528[Parsed_lutrgb_2 @ 000000000269cf00] val[1][197] = 197
529[Parsed_lutrgb_2 @ 000000000269cf00] val[1][198] = 198
530[Parsed_lutrgb_2 @ 000000000269cf00] val[1][199] = 199
531[Parsed_lutrgb_2 @ 000000000269cf00] val[1][200] = 200
532[Parsed_lutrgb_2 @ 000000000269cf00] val[1][201] = 201
533[Parsed_lutrgb_2 @ 000000000269cf00] val[1][202] = 202
534[Parsed_lutrgb_2 @ 000000000269cf00] val[1][203] = 203
535[Parsed_lutrgb_2 @ 000000000269cf00] val[1][204] = 204
536[Parsed_lutrgb_2 @ 000000000269cf00] val[1][205] = 205
537[Parsed_lutrgb_2 @ 000000000269cf00] val[1][206] = 206
538[Parsed_lutrgb_2 @ 000000000269cf00] val[1][207] = 207
539[Parsed_lutrgb_2 @ 000000000269cf00] val[1][208] = 208
540[Parsed_lutrgb_2 @ 000000000269cf00] val[1][209] = 209
541[Parsed_lutrgb_2 @ 000000000269cf00] val[1][210] = 210
542[Parsed_lutrgb_2 @ 000000000269cf00] val[1][211] = 211
543[Parsed_lutrgb_2 @ 000000000269cf00] val[1][212] = 212
544[Parsed_lutrgb_2 @ 000000000269cf00] val[1][213] = 213
545[Parsed_lutrgb_2 @ 000000000269cf00] val[1][214] = 214
546[Parsed_lutrgb_2 @ 000000000269cf00] val[1][215] = 215
547[Parsed_lutrgb_2 @ 000000000269cf00] val[1][216] = 216
548[Parsed_lutrgb_2 @ 000000000269cf00] val[1][217] = 217
549[Parsed_lutrgb_2 @ 000000000269cf00] val[1][218] = 218
550[Parsed_lutrgb_2 @ 000000000269cf00] val[1][219] = 219
551[Parsed_lutrgb_2 @ 000000000269cf00] val[1][220] = 220
552[Parsed_lutrgb_2 @ 000000000269cf00] val[1][221] = 221
553[Parsed_lutrgb_2 @ 000000000269cf00] val[1][222] = 222
554[Parsed_lutrgb_2 @ 000000000269cf00] val[1][223] = 223
555[Parsed_lutrgb_2 @ 000000000269cf00] val[1][224] = 224
556[Parsed_lutrgb_2 @ 000000000269cf00] val[1][225] = 225
557[Parsed_lutrgb_2 @ 000000000269cf00] val[1][226] = 226
558[Parsed_lutrgb_2 @ 000000000269cf00] val[1][227] = 227
559[Parsed_lutrgb_2 @ 000000000269cf00] val[1][228] = 228
560[Parsed_lutrgb_2 @ 000000000269cf00] val[1][229] = 229
561[Parsed_lutrgb_2 @ 000000000269cf00] val[1][230] = 230
562[Parsed_lutrgb_2 @ 000000000269cf00] val[1][231] = 231
563[Parsed_lutrgb_2 @ 000000000269cf00] val[1][232] = 232
564[Parsed_lutrgb_2 @ 000000000269cf00] val[1][233] = 233
565[Parsed_lutrgb_2 @ 000000000269cf00] val[1][234] = 234
566[Parsed_lutrgb_2 @ 000000000269cf00] val[1][235] = 235
567[Parsed_lutrgb_2 @ 000000000269cf00] val[1][236] = 236
568[Parsed_lutrgb_2 @ 000000000269cf00] val[1][237] = 237
569[Parsed_lutrgb_2 @ 000000000269cf00] val[1][238] = 238
570[Parsed_lutrgb_2 @ 000000000269cf00] val[1][239] = 239
571[Parsed_lutrgb_2 @ 000000000269cf00] val[1][240] = 240
572[Parsed_lutrgb_2 @ 000000000269cf00] val[1][241] = 241
573[Parsed_lutrgb_2 @ 000000000269cf00] val[1][242] = 242
574[Parsed_lutrgb_2 @ 000000000269cf00] val[1][243] = 243
575[Parsed_lutrgb_2 @ 000000000269cf00] val[1][244] = 244
576[Parsed_lutrgb_2 @ 000000000269cf00] val[1][245] = 245
577[Parsed_lutrgb_2 @ 000000000269cf00] val[1][246] = 246
578[Parsed_lutrgb_2 @ 000000000269cf00] val[1][247] = 247
579[Parsed_lutrgb_2 @ 000000000269cf00] val[1][248] = 248
580[Parsed_lutrgb_2 @ 000000000269cf00] val[1][249] = 249
581[Parsed_lutrgb_2 @ 000000000269cf00] val[1][250] = 250
582[Parsed_lutrgb_2 @ 000000000269cf00] val[1][251] = 251
583[Parsed_lutrgb_2 @ 000000000269cf00] val[1][252] = 252
584[Parsed_lutrgb_2 @ 000000000269cf00] val[1][253] = 253
585[Parsed_lutrgb_2 @ 000000000269cf00] val[1][254] = 254
586[Parsed_lutrgb_2 @ 000000000269cf00] val[1][255] = 255
587[Parsed_lutrgb_2 @ 000000000269cf00] val[2][0] = 0
588[Parsed_lutrgb_2 @ 000000000269cf00] val[2][1] = 1
589[Parsed_lutrgb_2 @ 000000000269cf00] val[2][2] = 2
590[Parsed_lutrgb_2 @ 000000000269cf00] val[2][3] = 3
591[Parsed_lutrgb_2 @ 000000000269cf00] val[2][4] = 4
592[Parsed_lutrgb_2 @ 000000000269cf00] val[2][5] = 5
593[Parsed_lutrgb_2 @ 000000000269cf00] val[2][6] = 6
594[Parsed_lutrgb_2 @ 000000000269cf00] val[2][7] = 7
595[Parsed_lutrgb_2 @ 000000000269cf00] val[2][8] = 8
596[Parsed_lutrgb_2 @ 000000000269cf00] val[2][9] = 9
597[Parsed_lutrgb_2 @ 000000000269cf00] val[2][10] = 10
598[Parsed_lutrgb_2 @ 000000000269cf00] val[2][11] = 11
599[Parsed_lutrgb_2 @ 000000000269cf00] val[2][12] = 12
600[Parsed_lutrgb_2 @ 000000000269cf00] val[2][13] = 13
601[Parsed_lutrgb_2 @ 000000000269cf00] val[2][14] = 14
602[Parsed_lutrgb_2 @ 000000000269cf00] val[2][15] = 15
603[Parsed_lutrgb_2 @ 000000000269cf00] val[2][16] = 16
604[Parsed_lutrgb_2 @ 000000000269cf00] val[2][17] = 17
605[Parsed_lutrgb_2 @ 000000000269cf00] val[2][18] = 18
606[Parsed_lutrgb_2 @ 000000000269cf00] val[2][19] = 19
607[Parsed_lutrgb_2 @ 000000000269cf00] val[2][20] = 20
608[Parsed_lutrgb_2 @ 000000000269cf00] val[2][21] = 21
609[Parsed_lutrgb_2 @ 000000000269cf00] val[2][22] = 22
610[Parsed_lutrgb_2 @ 000000000269cf00] val[2][23] = 23
611[Parsed_lutrgb_2 @ 000000000269cf00] val[2][24] = 24
612[Parsed_lutrgb_2 @ 000000000269cf00] val[2][25] = 25
613[Parsed_lutrgb_2 @ 000000000269cf00] val[2][26] = 26
614[Parsed_lutrgb_2 @ 000000000269cf00] val[2][27] = 27
615[Parsed_lutrgb_2 @ 000000000269cf00] val[2][28] = 28
616[Parsed_lutrgb_2 @ 000000000269cf00] val[2][29] = 29
617[Parsed_lutrgb_2 @ 000000000269cf00] val[2][30] = 30
618[Parsed_lutrgb_2 @ 000000000269cf00] val[2][31] = 31
619[Parsed_lutrgb_2 @ 000000000269cf00] val[2][32] = 32
620[Parsed_lutrgb_2 @ 000000000269cf00] val[2][33] = 33
621[Parsed_lutrgb_2 @ 000000000269cf00] val[2][34] = 34
622[Parsed_lutrgb_2 @ 000000000269cf00] val[2][35] = 35
623[Parsed_lutrgb_2 @ 000000000269cf00] val[2][36] = 36
624[Parsed_lutrgb_2 @ 000000000269cf00] val[2][37] = 37
625[Parsed_lutrgb_2 @ 000000000269cf00] val[2][38] = 38
626[Parsed_lutrgb_2 @ 000000000269cf00] val[2][39] = 39
627[Parsed_lutrgb_2 @ 000000000269cf00] val[2][40] = 40
628[Parsed_lutrgb_2 @ 000000000269cf00] val[2][41] = 41
629[Parsed_lutrgb_2 @ 000000000269cf00] val[2][42] = 42
630[Parsed_lutrgb_2 @ 000000000269cf00] val[2][43] = 43
631[Parsed_lutrgb_2 @ 000000000269cf00] val[2][44] = 44
632[Parsed_lutrgb_2 @ 000000000269cf00] val[2][45] = 45
633[Parsed_lutrgb_2 @ 000000000269cf00] val[2][46] = 46
634[Parsed_lutrgb_2 @ 000000000269cf00] val[2][47] = 47
635[Parsed_lutrgb_2 @ 000000000269cf00] val[2][48] = 48
636[Parsed_lutrgb_2 @ 000000000269cf00] val[2][49] = 49
637[Parsed_lutrgb_2 @ 000000000269cf00] val[2][50] = 50
638[Parsed_lutrgb_2 @ 000000000269cf00] val[2][51] = 51
639[Parsed_lutrgb_2 @ 000000000269cf00] val[2][52] = 52
640[Parsed_lutrgb_2 @ 000000000269cf00] val[2][53] = 53
641[Parsed_lutrgb_2 @ 000000000269cf00] val[2][54] = 54
642[Parsed_lutrgb_2 @ 000000000269cf00] val[2][55] = 55
643[Parsed_lutrgb_2 @ 000000000269cf00] val[2][56] = 56
644[Parsed_lutrgb_2 @ 000000000269cf00] val[2][57] = 57
645[Parsed_lutrgb_2 @ 000000000269cf00] val[2][58] = 58
646[Parsed_lutrgb_2 @ 000000000269cf00] val[2][59] = 59
647[Parsed_lutrgb_2 @ 000000000269cf00] val[2][60] = 60
648[Parsed_lutrgb_2 @ 000000000269cf00] val[2][61] = 61
649[Parsed_lutrgb_2 @ 000000000269cf00] val[2][62] = 62
650[Parsed_lutrgb_2 @ 000000000269cf00] val[2][63] = 63
651[Parsed_lutrgb_2 @ 000000000269cf00] val[2][64] = 64
652[Parsed_lutrgb_2 @ 000000000269cf00] val[2][65] = 65
653[Parsed_lutrgb_2 @ 000000000269cf00] val[2][66] = 66
654[Parsed_lutrgb_2 @ 000000000269cf00] val[2][67] = 67
655[Parsed_lutrgb_2 @ 000000000269cf00] val[2][68] = 68
656[Parsed_lutrgb_2 @ 000000000269cf00] val[2][69] = 69
657[Parsed_lutrgb_2 @ 000000000269cf00] val[2][70] = 70
658[Parsed_lutrgb_2 @ 000000000269cf00] val[2][71] = 71
659[Parsed_lutrgb_2 @ 000000000269cf00] val[2][72] = 72
660[Parsed_lutrgb_2 @ 000000000269cf00] val[2][73] = 73
661[Parsed_lutrgb_2 @ 000000000269cf00] val[2][74] = 74
662[Parsed_lutrgb_2 @ 000000000269cf00] val[2][75] = 75
663[Parsed_lutrgb_2 @ 000000000269cf00] val[2][76] = 76
664[Parsed_lutrgb_2 @ 000000000269cf00] val[2][77] = 77
665[Parsed_lutrgb_2 @ 000000000269cf00] val[2][78] = 78
666[Parsed_lutrgb_2 @ 000000000269cf00] val[2][79] = 79
667[Parsed_lutrgb_2 @ 000000000269cf00] val[2][80] = 80
668[Parsed_lutrgb_2 @ 000000000269cf00] val[2][81] = 81
669[Parsed_lutrgb_2 @ 000000000269cf00] val[2][82] = 82
670[Parsed_lutrgb_2 @ 000000000269cf00] val[2][83] = 83
671[Parsed_lutrgb_2 @ 000000000269cf00] val[2][84] = 84
672[Parsed_lutrgb_2 @ 000000000269cf00] val[2][85] = 85
673[Parsed_lutrgb_2 @ 000000000269cf00] val[2][86] = 86
674[Parsed_lutrgb_2 @ 000000000269cf00] val[2][87] = 87
675[Parsed_lutrgb_2 @ 000000000269cf00] val[2][88] = 88
676[Parsed_lutrgb_2 @ 000000000269cf00] val[2][89] = 89
677[Parsed_lutrgb_2 @ 000000000269cf00] val[2][90] = 90
678[Parsed_lutrgb_2 @ 000000000269cf00] val[2][91] = 91
679[Parsed_lutrgb_2 @ 000000000269cf00] val[2][92] = 92
680[Parsed_lutrgb_2 @ 000000000269cf00] val[2][93] = 93
681[Parsed_lutrgb_2 @ 000000000269cf00] val[2][94] = 94
682[Parsed_lutrgb_2 @ 000000000269cf00] val[2][95] = 95
683[Parsed_lutrgb_2 @ 000000000269cf00] val[2][96] = 96
684[Parsed_lutrgb_2 @ 000000000269cf00] val[2][97] = 97
685[Parsed_lutrgb_2 @ 000000000269cf00] val[2][98] = 98
686[Parsed_lutrgb_2 @ 000000000269cf00] val[2][99] = 99
687[Parsed_lutrgb_2 @ 000000000269cf00] val[2][100] = 100
688[Parsed_lutrgb_2 @ 000000000269cf00] val[2][101] = 101
689[Parsed_lutrgb_2 @ 000000000269cf00] val[2][102] = 102
690[Parsed_lutrgb_2 @ 000000000269cf00] val[2][103] = 103
691[Parsed_lutrgb_2 @ 000000000269cf00] val[2][104] = 104
692[Parsed_lutrgb_2 @ 000000000269cf00] val[2][105] = 105
693[Parsed_lutrgb_2 @ 000000000269cf00] val[2][106] = 106
694[Parsed_lutrgb_2 @ 000000000269cf00] val[2][107] = 107
695[Parsed_lutrgb_2 @ 000000000269cf00] val[2][108] = 108
696[Parsed_lutrgb_2 @ 000000000269cf00] val[2][109] = 109
697[Parsed_lutrgb_2 @ 000000000269cf00] val[2][110] = 110
698[Parsed_lutrgb_2 @ 000000000269cf00] val[2][111] = 111
699[Parsed_lutrgb_2 @ 000000000269cf00] val[2][112] = 112
700[Parsed_lutrgb_2 @ 000000000269cf00] val[2][113] = 113
701[Parsed_lutrgb_2 @ 000000000269cf00] val[2][114] = 114
702[Parsed_lutrgb_2 @ 000000000269cf00] val[2][115] = 115
703[Parsed_lutrgb_2 @ 000000000269cf00] val[2][116] = 116
704[Parsed_lutrgb_2 @ 000000000269cf00] val[2][117] = 117
705[Parsed_lutrgb_2 @ 000000000269cf00] val[2][118] = 118
706[Parsed_lutrgb_2 @ 000000000269cf00] val[2][119] = 119
707[Parsed_lutrgb_2 @ 000000000269cf00] val[2][120] = 120
708[Parsed_lutrgb_2 @ 000000000269cf00] val[2][121] = 121
709[Parsed_lutrgb_2 @ 000000000269cf00] val[2][122] = 122
710[Parsed_lutrgb_2 @ 000000000269cf00] val[2][123] = 123
711[Parsed_lutrgb_2 @ 000000000269cf00] val[2][124] = 124
712[Parsed_lutrgb_2 @ 000000000269cf00] val[2][125] = 125
713[Parsed_lutrgb_2 @ 000000000269cf00] val[2][126] = 126
714[Parsed_lutrgb_2 @ 000000000269cf00] val[2][127] = 127
715[Parsed_lutrgb_2 @ 000000000269cf00] val[2][128] = 128
716[Parsed_lutrgb_2 @ 000000000269cf00] val[2][129] = 129
717[Parsed_lutrgb_2 @ 000000000269cf00] val[2][130] = 130
718[Parsed_lutrgb_2 @ 000000000269cf00] val[2][131] = 131
719[Parsed_lutrgb_2 @ 000000000269cf00] val[2][132] = 132
720[Parsed_lutrgb_2 @ 000000000269cf00] val[2][133] = 133
721[Parsed_lutrgb_2 @ 000000000269cf00] val[2][134] = 134
722[Parsed_lutrgb_2 @ 000000000269cf00] val[2][135] = 135
723[Parsed_lutrgb_2 @ 000000000269cf00] val[2][136] = 136
724[Parsed_lutrgb_2 @ 000000000269cf00] val[2][137] = 137
725[Parsed_lutrgb_2 @ 000000000269cf00] val[2][138] = 138
726[Parsed_lutrgb_2 @ 000000000269cf00] val[2][139] = 139
727[Parsed_lutrgb_2 @ 000000000269cf00] val[2][140] = 140
728[Parsed_lutrgb_2 @ 000000000269cf00] val[2][141] = 141
729[Parsed_lutrgb_2 @ 000000000269cf00] val[2][142] = 142
730[Parsed_lutrgb_2 @ 000000000269cf00] val[2][143] = 143
731[Parsed_lutrgb_2 @ 000000000269cf00] val[2][144] = 144
732[Parsed_lutrgb_2 @ 000000000269cf00] val[2][145] = 145
733[Parsed_lutrgb_2 @ 000000000269cf00] val[2][146] = 146
734[Parsed_lutrgb_2 @ 000000000269cf00] val[2][147] = 147
735[Parsed_lutrgb_2 @ 000000000269cf00] val[2][148] = 148
736[Parsed_lutrgb_2 @ 000000000269cf00] val[2][149] = 149
737[Parsed_lutrgb_2 @ 000000000269cf00] val[2][150] = 150
738[Parsed_lutrgb_2 @ 000000000269cf00] val[2][151] = 151
739[Parsed_lutrgb_2 @ 000000000269cf00] val[2][152] = 152
740[Parsed_lutrgb_2 @ 000000000269cf00] val[2][153] = 153
741[Parsed_lutrgb_2 @ 000000000269cf00] val[2][154] = 154
742[Parsed_lutrgb_2 @ 000000000269cf00] val[2][155] = 155
743[Parsed_lutrgb_2 @ 000000000269cf00] val[2][156] = 156
744[Parsed_lutrgb_2 @ 000000000269cf00] val[2][157] = 157
745[Parsed_lutrgb_2 @ 000000000269cf00] val[2][158] = 158
746[Parsed_lutrgb_2 @ 000000000269cf00] val[2][159] = 159
747[Parsed_lutrgb_2 @ 000000000269cf00] val[2][160] = 160
748[Parsed_lutrgb_2 @ 000000000269cf00] val[2][161] = 161
749[Parsed_lutrgb_2 @ 000000000269cf00] val[2][162] = 162
750[Parsed_lutrgb_2 @ 000000000269cf00] val[2][163] = 163
751[Parsed_lutrgb_2 @ 000000000269cf00] val[2][164] = 164
752[Parsed_lutrgb_2 @ 000000000269cf00] val[2][165] = 165
753[Parsed_lutrgb_2 @ 000000000269cf00] val[2][166] = 166
754[Parsed_lutrgb_2 @ 000000000269cf00] val[2][167] = 167
755[Parsed_lutrgb_2 @ 000000000269cf00] val[2][168] = 168
756[Parsed_lutrgb_2 @ 000000000269cf00] val[2][169] = 169
757[Parsed_lutrgb_2 @ 000000000269cf00] val[2][170] = 170
758[Parsed_lutrgb_2 @ 000000000269cf00] val[2][171] = 171
759[Parsed_lutrgb_2 @ 000000000269cf00] val[2][172] = 172
760[Parsed_lutrgb_2 @ 000000000269cf00] val[2][173] = 173
761[Parsed_lutrgb_2 @ 000000000269cf00] val[2][174] = 174
762[Parsed_lutrgb_2 @ 000000000269cf00] val[2][175] = 175
763[Parsed_lutrgb_2 @ 000000000269cf00] val[2][176] = 176
764[Parsed_lutrgb_2 @ 000000000269cf00] val[2][177] = 177
765[Parsed_lutrgb_2 @ 000000000269cf00] val[2][178] = 178
766[Parsed_lutrgb_2 @ 000000000269cf00] val[2][179] = 179
767[Parsed_lutrgb_2 @ 000000000269cf00] val[2][180] = 180
768[Parsed_lutrgb_2 @ 000000000269cf00] val[2][181] = 181
769[Parsed_lutrgb_2 @ 000000000269cf00] val[2][182] = 182
770[Parsed_lutrgb_2 @ 000000000269cf00] val[2][183] = 183
771[Parsed_lutrgb_2 @ 000000000269cf00] val[2][184] = 184
772[Parsed_lutrgb_2 @ 000000000269cf00] val[2][185] = 185
773[Parsed_lutrgb_2 @ 000000000269cf00] val[2][186] = 186
774[Parsed_lutrgb_2 @ 000000000269cf00] val[2][187] = 187
775[Parsed_lutrgb_2 @ 000000000269cf00] val[2][188] = 188
776[Parsed_lutrgb_2 @ 000000000269cf00] val[2][189] = 189
777[Parsed_lutrgb_2 @ 000000000269cf00] val[2][190] = 190
778[Parsed_lutrgb_2 @ 000000000269cf00] val[2][191] = 191
779[Parsed_lutrgb_2 @ 000000000269cf00] val[2][192] = 192
780[Parsed_lutrgb_2 @ 000000000269cf00] val[2][193] = 193
781[Parsed_lutrgb_2 @ 000000000269cf00] val[2][194] = 194
782[Parsed_lutrgb_2 @ 000000000269cf00] val[2][195] = 195
783[Parsed_lutrgb_2 @ 000000000269cf00] val[2][196] = 196
784[Parsed_lutrgb_2 @ 000000000269cf00] val[2][197] = 197
785[Parsed_lutrgb_2 @ 000000000269cf00] val[2][198] = 198
786[Parsed_lutrgb_2 @ 000000000269cf00] val[2][199] = 199
787[Parsed_lutrgb_2 @ 000000000269cf00] val[2][200] = 200
788[Parsed_lutrgb_2 @ 000000000269cf00] val[2][201] = 201
789[Parsed_lutrgb_2 @ 000000000269cf00] val[2][202] = 202
790[Parsed_lutrgb_2 @ 000000000269cf00] val[2][203] = 203
791[Parsed_lutrgb_2 @ 000000000269cf00] val[2][204] = 204
792[Parsed_lutrgb_2 @ 000000000269cf00] val[2][205] = 205
793[Parsed_lutrgb_2 @ 000000000269cf00] val[2][206] = 206
794[Parsed_lutrgb_2 @ 000000000269cf00] val[2][207] = 207
795[Parsed_lutrgb_2 @ 000000000269cf00] val[2][208] = 208
796[Parsed_lutrgb_2 @ 000000000269cf00] val[2][209] = 209
797[Parsed_lutrgb_2 @ 000000000269cf00] val[2][210] = 210
798[Parsed_lutrgb_2 @ 000000000269cf00] val[2][211] = 211
799[Parsed_lutrgb_2 @ 000000000269cf00] val[2][212] = 212
800[Parsed_lutrgb_2 @ 000000000269cf00] val[2][213] = 213
801[Parsed_lutrgb_2 @ 000000000269cf00] val[2][214] = 214
802[Parsed_lutrgb_2 @ 000000000269cf00] val[2][215] = 215
803[Parsed_lutrgb_2 @ 000000000269cf00] val[2][216] = 216
804[Parsed_lutrgb_2 @ 000000000269cf00] val[2][217] = 217
805[Parsed_lutrgb_2 @ 000000000269cf00] val[2][218] = 218
806[Parsed_lutrgb_2 @ 000000000269cf00] val[2][219] = 219
807[Parsed_lutrgb_2 @ 000000000269cf00] val[2][220] = 220
808[Parsed_lutrgb_2 @ 000000000269cf00] val[2][221] = 221
809[Parsed_lutrgb_2 @ 000000000269cf00] val[2][222] = 222
810[Parsed_lutrgb_2 @ 000000000269cf00] val[2][223] = 223
811[Parsed_lutrgb_2 @ 000000000269cf00] val[2][224] = 224
812[Parsed_lutrgb_2 @ 000000000269cf00] val[2][225] = 225
813[Parsed_lutrgb_2 @ 000000000269cf00] val[2][226] = 226
814[Parsed_lutrgb_2 @ 000000000269cf00] val[2][227] = 227
815[Parsed_lutrgb_2 @ 000000000269cf00] val[2][228] = 228
816[Parsed_lutrgb_2 @ 000000000269cf00] val[2][229] = 229
817[Parsed_lutrgb_2 @ 000000000269cf00] val[2][230] = 230
818[Parsed_lutrgb_2 @ 000000000269cf00] val[2][231] = 231
819[Parsed_lutrgb_2 @ 000000000269cf00] val[2][232] = 232
820[Parsed_lutrgb_2 @ 000000000269cf00] val[2][233] = 233
821[Parsed_lutrgb_2 @ 000000000269cf00] val[2][234] = 234
822[Parsed_lutrgb_2 @ 000000000269cf00] val[2][235] = 235
823[Parsed_lutrgb_2 @ 000000000269cf00] val[2][236] = 236
824[Parsed_lutrgb_2 @ 000000000269cf00] val[2][237] = 237
825[Parsed_lutrgb_2 @ 000000000269cf00] val[2][238] = 238
826[Parsed_lutrgb_2 @ 000000000269cf00] val[2][239] = 239
827[Parsed_lutrgb_2 @ 000000000269cf00] val[2][240] = 240
828[Parsed_lutrgb_2 @ 000000000269cf00] val[2][241] = 241
829[Parsed_lutrgb_2 @ 000000000269cf00] val[2][242] = 242
830[Parsed_lutrgb_2 @ 000000000269cf00] val[2][243] = 243
831[Parsed_lutrgb_2 @ 000000000269cf00] val[2][244] = 244
832[Parsed_lutrgb_2 @ 000000000269cf00] val[2][245] = 245
833[Parsed_lutrgb_2 @ 000000000269cf00] val[2][246] = 246
834[Parsed_lutrgb_2 @ 000000000269cf00] val[2][247] = 247
835[Parsed_lutrgb_2 @ 000000000269cf00] val[2][248] = 248
836[Parsed_lutrgb_2 @ 000000000269cf00] val[2][249] = 249
837[Parsed_lutrgb_2 @ 000000000269cf00] val[2][250] = 250
838[Parsed_lutrgb_2 @ 000000000269cf00] val[2][251] = 251
839[Parsed_lutrgb_2 @ 000000000269cf00] val[2][252] = 252
840[Parsed_lutrgb_2 @ 000000000269cf00] val[2][253] = 253
841[Parsed_lutrgb_2 @ 000000000269cf00] val[2][254] = 254
842[Parsed_lutrgb_2 @ 000000000269cf00] val[2][255] = 255
843[auto-inserted scaler 0 @ 000000000269d2c0] w:2048 h:858 fmt:rgb24 sar:2145/2144 -> w:2048 h:858 fmt:yuv444p12le sar:2145/2144 flags:0x4
844[libopenjpeg @ 00000000050569a0] prog_order forced to CPRL
845Output #0, image2, to 'decoded/test_%6d.j2c':
846  Metadata:
847    encoder         : Lavf55.8.102
848    Stream #0:0, 0, 1/90000: Video: jpeg2000 (libopenjpeg), yuv444p12le, 2048x858 [SAR 2145:2144 DAR 160:67], q=2-31, 200 kb/s, 90k tbn, 23.98 tbc
849Stream mapping:
850  Stream #0:0 -> #0:0 (h264 -> libopenjpeg)
851Press [q] to stop, [?] for help
852[h264 @ 0000000005749360] no picture
853[libopenjpeg @ 00000000050569a0] tile number 1 / 1
854
855[libopenjpeg @ 00000000050569a0] - tile encoded in 1.908565 s
856
857[AVIOContext @ 00000000026a3660] Statistics: 0 seeks, 1 writeouts
858[libopenjpeg @ 00000000050569a0] tile number 1 / 1
859
860[libopenjpeg @ 00000000050569a0] - tile encoded in 2.064035 s
861
862[AVIOContext @ 0000000012f734c0] Statistics: 0 seeks, 10 writeouts
863frame=    2 fps=0.9 q=0.0 size=N/A time=00:00:00.08 bitrate=N/A   
864tile number 1 / 1
865
866[libopenjpeg @ 00000000050569a0] - tile encoded in 2.885900 s
867
868[AVIOContext @ 0000000012f734c0] Statistics: 0 seeks, 24 writeouts
869frame=    3 fps=0.6 q=0.0 size=N/A time=00:00:00.12 bitrate=N/A   
870tile number 1 / 1
871
872[libopenjpeg @ 00000000050569a0] - tile encoded in 2.518491 s
873
874[AVIOContext @ 0000000005a5fc80] Statistics: 0 seeks, 21 writeouts
875frame=    4 fps=0.5 q=0.0 size=N/A time=00:00:00.16 bitrate=N/A   
876tile number 1 / 1
877
878[libopenjpeg @ 00000000050569a0] - tile encoded in 2.963622 s
879
880[AVIOContext @ 0000000005a5fc80] Statistics: 0 seeks, 33 writeouts
881frame=    5 fps=0.5 q=0.0 size=N/A time=00:00:00.20 bitrate=N/A   
882tile number 1 / 1
883
884[libopenjpeg @ 00000000050569a0] - tile encoded in 2.984966 s
885
886[AVIOContext @ 0000000005011ac0] Statistics: 0 seeks, 34 writeouts
887frame=    6 fps=0.4 q=0.0 size=N/A time=00:00:00.25 bitrate=N/A   
888tile number 1 / 1
889
890[libopenjpeg @ 00000000050569a0] - tile encoded in 3.524529 s
891
892[AVIOContext @ 0000000005011ac0] Statistics: 0 seeks, 37 writeouts
893frame=    7 fps=0.4 q=0.0 size=N/A time=00:00:00.29 bitrate=N/A   
894tile number 1 / 1
895
896[libopenjpeg @ 00000000050569a0] - tile encoded in 4.577251 s
897
898[AVIOContext @ 000000000d0cb360] Statistics: 0 seeks, 43 writeouts
899frame=    8 fps=0.4 q=0.0 size=N/A time=00:00:00.33 bitrate=N/A   
900tile number 1 / 1
901
902[libopenjpeg @ 00000000050569a0] - tile encoded in 3.292104 s
903
904[AVIOContext @ 000000000d0cb360] Statistics: 0 seeks, 44 writeouts
905frame=    9 fps=0.3 q=0.0 size=N/A time=00:00:00.37 bitrate=N/A   
906tile number 1 / 1
907
908[libopenjpeg @ 00000000050569a0] - tile encoded in 3.113611 s
909
910[AVIOContext @ 000000000befcae0] Statistics: 0 seeks, 43 writeouts
911frame=   10 fps=0.3 q=0.0 size=N/A time=00:00:00.41 bitrate=N/A   
912tile number 1 / 1
913
914[libopenjpeg @ 00000000050569a0] - tile encoded in 3.274673 s
915
916[AVIOContext @ 000000000befcae0] Statistics: 0 seeks, 44 writeouts
917frame=   11 fps=0.3 q=0.0 size=N/A time=00:00:00.45 bitrate=N/A   
918tile number 1 / 1
919
920[libopenjpeg @ 00000000050569a0] - tile encoded in 3.636421 s
921
922[AVIOContext @ 0000000005526c20] Statistics: 0 seeks, 46 writeouts
923frame=   12 fps=0.3 q=0.0 size=N/A time=00:00:00.50 bitrate=N/A   
924tile number 1 / 1
925
926[libopenjpeg @ 00000000050569a0] - tile encoded in 3.738693 s
927
928[AVIOContext @ 0000000005526c20] Statistics: 0 seeks, 50 writeouts
929frame=   13 fps=0.3 q=0.0 size=N/A time=00:00:00.54 bitrate=N/A   
930tile number 1 / 1
931
932[libopenjpeg @ 00000000050569a0] - tile encoded in 4.746877 s
933
934[AVIOContext @ 000000001092cc20] Statistics: 0 seeks, 48 writeouts
935frame=   14 fps=0.3 q=0.0 size=N/A time=00:00:00.58 bitrate=N/A   
936tile number 1 / 1
937
938[libopenjpeg @ 00000000050569a0] - tile encoded in 4.105767 s
939
940[AVIOContext @ 000000001092cc20] Statistics: 0 seeks, 47 writeouts
941frame=   15 fps=0.3 q=0.0 size=N/A time=00:00:00.62 bitrate=N/A   
942tile number 1 / 1
943
944[libopenjpeg @ 00000000050569a0] - tile encoded in 3.655310 s
945
946[AVIOContext @ 000000000cd5efc0] Statistics: 0 seeks, 47 writeouts
947frame=   16 fps=0.3 q=0.0 size=N/A time=00:00:00.66 bitrate=N/A   
948frame=   16 fps=0.3 q=0.0 Lsize=N/A time=00:00:00.66 bitrate=N/A   
949
950video:18036kB audio:0kB subtitle:0 global headers:0kB muxing overhead -100.000119%
95134 frames successfully decoded, 0 decoding errors
952[AVIOContext @ 0000000002699560] Statistics: 5144576 bytes read, 0 seeks